  0
SECTION
  2
HEADER
  9
$ACADVER
  1
AC1027
  9
$ACADMAINTVER
 70
    55
  9
$DWGCODEPAGE
  3
ANSI_1252
  9
$LASTSAVEDBY
  1
bzakrzew
  9
$REQUIREDVERSIONS
160
                 0
  9
$INSBASE
 10
0.0
 20
0.0
 30
0.0
  9
$EXTMIN
 10
-0.2745586432599936
 20
-1.819537783783019
 30
-0.0000000349181948
  9
$EXTMAX
 10
18.92778517826831
 20
10.18192710467217
 30
0.0000000814935746
  9
$LIMMIN
 10
0.0
 20
0.0
  9
$LIMMAX
 10
12.0
 20
9.0
  9
$ORTHOMODE
 70
     0
  9
$REGENMODE
 70
     1
  9
$FILLMODE
 70
     1
  9
$QTEXTMODE
 70
     0
  9
$MIRRTEXT
 70
     1
  9
$LTSCALE
 40
0.5
  9
$ATTMODE
 70
     1
  9
$TEXTSIZE
 40
0.2
  9
$TRACEWID
 40
0.05
  9
$TEXTSTYLE
  7
Standard
  9
$CLAYER
  8
0
  9
$CELTYPE
  6
ByLayer
  9
$CECOLOR
 62
   256
  9
$CELTSCALE
 40
1.0
  9
$DISPSILH
 70
     0
  9
$DIMSCALE
 40
1.0
  9
$DIMASZ
 40
0.18
  9
$DIMEXO
 40
0.0625
  9
$DIMDLI
 40
0.38
  9
$DIMRND
 40
0.0
  9
$DIMDLE
 40
0.0
  9
$DIMEXE
 40
0.18
  9
$DIMTP
 40
0.0
  9
$DIMTM
 40
0.0
  9
$DIMTXT
 40
0.18
  9
$DIMCEN
 40
-0.12
  9
$DIMTSZ
 40
0.0
  9
$DIMTOL
 70
     0
  9
$DIMLIM
 70
     0
  9
$DIMTIH
 70
     1
  9
$DIMTOH
 70
     1
  9
$DIMSE1
 70
     0
  9
$DIMSE2
 70
     0
  9
$DIMTAD
 70
     0
  9
$DIMZIN
 70
     4
  9
$DIMBLK
  1

  9
$DIMASO
 70
     1
  9
$DIMSHO
 70
     1
  9
$DIMPOST
  1

  9
$DIMAPOST
  1

  9
$DIMALT
 70
     0
  9
$DIMALTD
 70
     2
  9
$DIMALTF
 40
25.4
  9
$DIMLFAC
 40
1.0
  9
$DIMTOFL
 70
     0
  9
$DIMTVP
 40
0.0
  9
$DIMTIX
 70
     0
  9
$DIMSOXD
 70
     0
  9
$DIMSAH
 70
     0
  9
$DIMBLK1
  1

  9
$DIMBLK2
  1

  9
$DIMSTYLE
  2
Standard
  9
$DIMCLRD
 70
     0
  9
$DIMCLRE
 70
     0
  9
$DIMCLRT
 70
     0
  9
$DIMTFAC
 40
1.0
  9
$DIMGAP
 40
0.09
  9
$DIMJUST
 70
     0
  9
$DIMSD1
 70
     0
  9
$DIMSD2
 70
     0
  9
$DIMTOLJ
 70
     1
  9
$DIMTZIN
 70
     0
  9
$DIMALTZ
 70
     0
  9
$DIMALTTZ
 70
     0
  9
$DIMUPT
 70
     0
  9
$DIMDEC
 70
     2
  9
$DIMTDEC
 70
     2
  9
$DIMALTU
 70
     2
  9
$DIMALTTD
 70
     2
  9
$DIMTXSTY
  7
Standard
  9
$DIMAUNIT
 70
     0
  9
$DIMADEC
 70
     0
  9
$DIMALTRND
 40
0.0
  9
$DIMAZIN
 70
     1
  9
$DIMDSEP
 70
    46
  9
$DIMATFIT
 70
     3
  9
$DIMFRAC
 70
     0
  9
$DIMLDRBLK
  1

  9
$DIMLUNIT
 70
     2
  9
$DIMLWD
 70
    -2
  9
$DIMLWE
 70
    -2
  9
$DIMTMOVE
 70
     0
  9
$DIMFXL
 40
1.0
  9
$DIMFXLON
 70
     0
  9
$DIMJOGANG
 40
0.7853981633974483
  9
$DIMTFILL
 70
     0
  9
$DIMTFILLCLR
 70
     0
  9
$DIMARCSYM
 70
     0
  9
$DIMLTYPE
  6

  9
$DIMLTEX1
  6

  9
$DIMLTEX2
  6

  9
$DIMTXTDIRECTION
 70
     0
  9
$LUNITS
 70
     2
  9
$LUPREC
 70
     4
  9
$SKETCHINC
 40
0.1
  9
$FILLETRAD
 40
0.0
  9
$AUNITS
 70
     0
  9
$AUPREC
 70
     0
  9
$MENU
  1
.
  9
$ELEVATION
 40
0.0
  9
$PELEVATION
 40
0.0
  9
$THICKNESS
 40
0.0
  9
$LIMCHECK
 70
     0
  9
$CHAMFERA
 40
0.5
  9
$CHAMFERB
 40
0.5
  9
$CHAMFERC
 40
1.0
  9
$CHAMFERD
 40
0.0
  9
$SKPOLY
 70
     0
  9
$TDCREATE
 40
2454057.642083056
  9
$TDUCREATE
 40
2454057.850416389
  9
$TDUPDATE
 40
2456791.424536111
  9
$TDUUPDATE
 40
2456791.632869444
  9
$TDINDWG
 40
0.4501945602
  9
$TDUSRTIMER
 40
0.4501945602
  9
$USRTIMER
 70
     1
  9
$ANGBASE
 50
0.0
  9
$ANGDIR
 70
     0
  9
$PDMODE
 70
     0
  9
$PDSIZE
 40
0.0
  9
$PLINEWID
 40
0.0
  9
$SPLFRAME
 70
     0
  9
$SPLINETYPE
 70
     6
  9
$SPLINESEGS
 70
     8
  9
$HANDSEED
  5
1504
  9
$SURFTAB1
 70
     6
  9
$SURFTAB2
 70
     6
  9
$SURFTYPE
 70
     6
  9
$SURFU
 70
     6
  9
$SURFV
 70
     6
  9
$UCSBASE
  2

  9
$UCSNAME
  2

  9
$UCSORG
 10
0.0
 20
0.0
 30
0.0
  9
$UCSXDIR
 10
1.0
 20
0.0
 30
0.0
  9
$UCSYDIR
 10
0.0
 20
1.0
 30
0.0
  9
$UCSORTHOREF
  2

  9
$UCSORTHOVIEW
 70
     0
  9
$UCSORGTOP
 10
0.0
 20
0.0
 30
0.0
  9
$UCSORGBOTTOM
 10
0.0
 20
0.0
 30
0.0
  9
$UCSORGLEFT
 10
0.0
 20
0.0
 30
0.0
  9
$UCSORGRIGHT
 10
0.0
 20
0.0
 30
0.0
  9
$UCSORGFRONT
 10
0.0
 20
0.0
 30
0.0
  9
$UCSORGBACK
 10
0.0
 20
0.0
 30
0.0
  9
$PUCSBASE
  2

  9
$PUCSNAME
  2

  9
$PUCSORG
 10
0.0
 20
0.0
 30
0.0
  9
$PUCSXDIR
 10
1.0
 20
0.0
 30
0.0
  9
$PUCSYDIR
 10
0.0
 20
1.0
 30
0.0
  9
$PUCSORTHOREF
  2

  9
$PUCSORTHOVIEW
 70
     0
  9
$PUCSORGTOP
 10
0.0
 20
0.0
 30
0.0
  9
$PUCSORGBOTTOM
 10
0.0
 20
0.0
 30
0.0
  9
$PUCSORGLEFT
 10
0.0
 20
0.0
 30
0.0
  9
$PUCSORGRIGHT
 10
0.0
 20
0.0
 30
0.0
  9
$PUCSORGFRONT
 10
0.0
 20
0.0
 30
0.0
  9
$PUCSORGBACK
 10
0.0
 20
0.0
 30
0.0
  9
$USERI1
 70
     0
  9
$USERI2
 70
     0
  9
$USERI3
 70
     0
  9
$USERI4
 70
     0
  9
$USERI5
 70
     0
  9
$USERR1
 40
0.0
  9
$USERR2
 40
0.0
  9
$USERR3
 40
0.0
  9
$USERR4
 40
0.0
  9
$USERR5
 40
0.0
  9
$WORLDVIEW
 70
     1
  9
$SHADEDGE
 70
     3
  9
$SHADEDIF
 70
    70
  9
$TILEMODE
 70
     1
  9
$MAXACTVP
 70
    64
  9
$PINSBASE
 10
0.0
 20
0.0
 30
0.0
  9
$PLIMCHECK
 70
     0
  9
$PEXTMIN
 10
0.0455701516949745
 20
1.753867925380987
 30
-0.0015258207003583
  9
$PEXTMAX
 10
15.96098616034713
 20
9.90796923549702
 30
0.0000000349246037
  9
$PLIMMIN
 10
-0.2699182000122087
 20
-0.2769722290964413
  9
$PLIMMAX
 10
16.23115288981076
 20
12.47385534929694
  9
$UNITMODE
 70
     0
  9
$VISRETAIN
 70
     1
  9
$PLINEGEN
 70
     0
  9
$PSLTSCALE
 70
     1
  9
$TREEDEPTH
 70
  3020
  9
$CMLSTYLE
  2
Standard
  9
$CMLJUST
 70
     0
  9
$CMLSCALE
 40
1.0
  9
$PROXYGRAPHICS
 70
     1
  9
$MEASUREMENT
 70
     0
  9
$CELWEIGHT
370
    -1
  9
$ENDCAPS
280
     0
  9
$JOINSTYLE
280
     0
  9
$LWDISPLAY
290
     0
  9
$INSUNITS
 70
     1
  9
$HYPERLINKBASE
  1

  9
$STYLESHEET
  1

  9
$XEDIT
290
     1
  9
$CEPSNTYPE
380
     0
  9
$PSTYLEMODE
290
     1
  9
$FINGERPRINTGUID
  2
{A79C0EE8-9481-11D2-9A29-0060089B3A3F}
  9
$VERSIONGUID
  2
{730AFCAF-486E-4435-AFDC-1D789D3B9847}
  9
$EXTNAMES
290
     1
  9
$PSVPSCALE
 40
0.0
  9
$OLESTARTUP
290
     0
  9
$SORTENTS
280
   127
  9
$INDEXCTL
280
     0
  9
$HIDETEXT
280
     1
  9
$XCLIPFRAME
280
     2
  9
$HALOGAP
280
     0
  9
$OBSCOLOR
 70
   257
  9
$OBSLTYPE
280
     0
  9
$INTERSECTIONDISPLAY
280
     0
  9
$INTERSECTIONCOLOR
 70
   257
  9
$DIMASSOC
280
     2
  9
$PROJECTNAME
  1

  9
$CAMERADISPLAY
290
     0
  9
$LENSLENGTH
 40
50.0
  9
$CAMERAHEIGHT
 40
0.0
  9
$STEPSPERSEC
 40
2.0
  9
$STEPSIZE
 40
6.0
  9
$3DDWFPREC
 40
2.0
  9
$PSOLWIDTH
 40
0.25
  9
$PSOLHEIGHT
 40
4.0
  9
$LOFTANG1
 40
1.570796326794896
  9
$LOFTANG2
 40
1.570796326794896
  9
$LOFTMAG1
 40
0.0
  9
$LOFTMAG2
 40
0.0
  9
$LOFTPARAM
 70
     7
  9
$LOFTNORMALS
280
     1
  9
$LATITUDE
 40
37.795
  9
$LONGITUDE
 40
-122.394
  9
$NORTHDIRECTION
 40
0.0
  9
$TIMEZONE
 70
 -8000
  9
$LIGHTGLYPHDISPLAY
280
     1
  9
$TILEMODELIGHTSYNCH
280
     1
  9
$CMATERIAL
347
11D2
  9
$SOLIDHIST
280
     0
  9
$SHOWHIST
280
     1
  9
$DWFFRAME
280
     2
  9
$DGNFRAME
280
     0
  9
$REALWORLDSCALE
290
     1
  9
$INTERFERECOLOR
 62
     1
  9
$INTERFEREOBJVS
345
11DF
  9
$INTERFEREVPVS
346
149B
  9
$CSHADOW
280
     0
  9
$SHADOWPLANELOCATION
 40
0.0
  0
ENDSEC
  0
SECTION
  2
CLASSES
  0
CLASS
  1
ACDBDICTIONARYWDFLT
  2
AcDbDictionaryWithDefault
  3
ObjectDBX Classes
 90
        0
 91
        1
280
     0
281
     0
  0
CLASS
  1
PLOTSETTINGS
  2
AcDbPlotSettings
  3
ObjectDBX Classes
 90
        0
 91
        2
280
     0
281
     0
  0
CLASS
  1
DICTIONARYVAR
  2
AcDbDictionaryVar
  3
ObjectDBX Classes
 90
        0
 91
       15
280
     0
281
     0
  0
CLASS
  1
DIMASSOC
  2
AcDbDimAssoc
  3
"AcDbDimAssoc|Product Desc:     AcDim ARX App For Dimension|Company:          Autodesk, Inc.|WEB Address:      www.autodesk.com"
 90
        0
 91
        3
280
     0
281
     0
  0
CLASS
  1
MATERIAL
  2
AcDbMaterial
  3
ObjectDBX Classes
 90
     1153
 91
        3
280
     0
281
     0
  0
CLASS
  1
VISUALSTYLE
  2
AcDbVisualStyle
  3
ObjectDBX Classes
 90
     4095
 91
       26
280
     0
281
     0
  0
CLASS
  1
TABLESTYLE
  2
AcDbTableStyle
  3
ObjectDBX Classes
 90
     4095
 91
        1
280
     0
281
     0
  0
CLASS
  1
ACAD_EVALUATION_GRAPH
  2
AcDbEvalGraph
  3
ObjectDBX Classes
 90
     1153
 91
        0
280
     0
281
     0
  0
CLASS
  1
ACAECUSTOBJ
  2
AcAeEditorObj
  3
AcAeEditorObj
 90
     1024
 91
        0
280
     0
281
     0
  0
CLASS
  1
ACDB_DYNAMICBLOCKPURGEPREVENTER_VERSION
  2
AcDbDynamicBlockPurgePreventer
  3
ObjectDBX Classes
 90
     1153
 91
        0
280
     0
281
     0
  0
CLASS
  1
SCALE
  2
AcDbScale
  3
ObjectDBX Classes
 90
     1153
 91
       17
280
     0
281
     0
  0
CLASS
  1
MLEADERSTYLE
  2
AcDbMLeaderStyle
  3
ACDB_MLEADERSTYLE_CLASS
 90
     4095
 91
        1
280
     0
281
     0
  0
CLASS
  1
ACDBSECTIONVIEWSTYLE
  2
AcDbSectionViewStyle
  3
ObjectDBX Classes
 90
     1025
 91
        1
280
     0
281
     0
  0
CLASS
  1
ACDBDETAILVIEWSTYLE
  2
AcDbDetailViewStyle
  3
ObjectDBX Classes
 90
     1025
 91
        1
280
     0
281
     0
  0
CLASS
  1
EXACXREFPANELOBJECT
  2
ExAcXREFPanelObject
  3
EXAC_ESW
 90
     1025
 91
        1
280
     0
281
     0
  0
CLASS
  1
NPOCOLLECTION
  2
AcDbImpNonPersistentObjectsCollection
  3
ObjectDBX Classes
 90
     1153
 91
        1
280
     0
281
     0
  0
CLASS
  1
CELLSTYLEMAP
  2
AcDbCellStyleMap
  3
ObjectDBX Classes
 90
     1152
 91
        3
280
     0
281
     0
  0
ENDSEC
  0
SECTION
  2
TABLES
  0
TABLE
  2
VPORT
  5
8
102
{ACAD_XDICTIONARY
360
1223
102
}
330
0
100
AcDbSymbolTable
 70
     1
  0
VPORT
  5
1138
330
8
100
AcDbSymbolTableRecord
100
AcDbViewportTableRecord
  2
*Active
 70
     0
 10
0.0
 20
0.0
 11
1.0
 21
1.0
 12
9.326613222797947
 22
4.181194632503192
 13
0.0
 23
0.0
 14
0.5
 24
0.5
 15
0.5
 25
0.5
 16
0.0
 26
0.0
 36
1.0
 17
0.0
 27
0.0
 37
0.0
 40
12.0857680955506
 41
2.221577726218097
 42
50.0
 43
0.0
 44
0.0
 50
0.0
 51
0.0
 71
     0
 72
   100
 73
     1
 74
     2
 75
     0
 76
     0
 77
     0
 78
     0
281
     0
 65
     1
110
0.0
120
0.0
130
0.0
111
1.0
121
0.0
131
0.0
112
0.0
122
1.0
132
0.0
 79
     0
146
0.0
348
11DB
 60
     3
 61
     5
292
     1
282
     1
141
0.0
142
0.0
 63
   250
421
  3355443
1001
ACAD_NAV_VCDISPLAY
1070
     3
  0
ENDTAB
  0
TABLE
  2
LTYPE
  5
5
330
0
100
AcDbSymbolTable
 70
     2
  0
LTYPE
  5
14
330
5
100
AcDbSymbolTableRecord
100
AcDbLinetypeTableRecord
  2
ByBlock
 70
     0
  3

 72
    65
 73
     0
 40
0.0
  0
LTYPE
  5
15
330
5
100
AcDbSymbolTableRecord
100
AcDbLinetypeTableRecord
  2
ByLayer
 70
     0
  3

 72
    65
 73
     0
 40
0.0
  0
LTYPE
  5
16
330
5
100
AcDbSymbolTableRecord
100
AcDbLinetypeTableRecord
  2
Continuous
 70
     0
  3
Solid line
 72
    65
 73
     0
 40
0.0
  0
LTYPE
  5
571
330
5
100
AcDbSymbolTableRecord
100
AcDbLinetypeTableRecord
  2
HIDDEN
 70
     0
  3
Hidden __ __ __ __ __ __ __ __ __ __ __ __ __ _
 72
    65
 73
     2
 40
0.375
 49
0.25
 74
     0
 49
-0.125
 74
     0
  0
ENDTAB
  0
TABLE
  2
LAYER
  5
2
102
{ACAD_XDICTIONARY
360
124C
102
}
330
0
100
AcDbSymbolTable
 70
     6
  0
LAYER
  5
10
102
{ACAD_XDICTIONARY
360
14D1
102
}
330
2
100
AcDbSymbolTableRecord
100
AcDbLayerTableRecord
  2
0
 70
     0
 62
     7
  6
Continuous
370
    -3
390
F
347
11D4
348
0
  0
LAYER
  5
274
102
{ACAD_XDICTIONARY
360
14D3
102
}
330
2
100
AcDbSymbolTableRecord
100
AcDbLayerTableRecord
  2
BORDER
 70
     0
 62
     7
  6
Continuous
370
    30
390
F
347
11D4
348
0
  0
LAYER
  5
573
102
{ACAD_XDICTIONARY
360
14D5
102
}
330
2
100
AcDbSymbolTableRecord
100
AcDbLayerTableRecord
  2
VIEWPORT
 70
     0
 62
     7
  6
Continuous
290
     0
370
    -3
390
F
347
11D4
348
0
  0
LAYER
  5
57D
330
2
100
AcDbSymbolTableRecord
100
AcDbLayerTableRecord
  2
Defpoints
 70
     0
 62
     7
  6
Continuous
290
     0
370
    -3
390
F
347
11D4
348
0
  0
LAYER
  5
C55
102
{ACAD_XDICTIONARY
360
14D7
102
}
330
2
100
AcDbSymbolTableRecord
100
AcDbLayerTableRecord
  2
DIM
 70
     0
 62
     7
  6
Continuous
370
    -3
390
F
347
11D4
348
0
  0
LAYER
  5
D12
102
{ACAD_XDICTIONARY
360
14D9
102
}
330
2
100
AcDbSymbolTableRecord
100
AcDbLayerTableRecord
  2
NOTES
 70
     0
 62
     7
  6
Continuous
370
    -3
390
F
347
11D4
348
0
  0
ENDTAB
  0
TABLE
  2
STYLE
  5
3
330
0
100
AcDbSymbolTable
 70
     1
  0
STYLE
  5
11
330
3
100
AcDbSymbolTableRecord
100
AcDbTextStyleTableRecord
  2
Standard
 70
     0
 40
0.0
 41
1.0
 50
0.0
 71
     0
 42
0.2
  3
txt
  4

  0
ENDTAB
  0
TABLE
  2
VIEW
  5
6
330
0
100
AcDbSymbolTable
 70
     3
  0
ENDTAB
  0
TABLE
  2
UCS
  5
7
330
0
100
AcDbSymbolTable
 70
     0
  0
ENDTAB
  0
TABLE
  2
APPID
  5
9
330
0
100
AcDbSymbolTable
 70
    12
  0
APPID
  5
12
330
9
100
AcDbSymbolTableRecord
100
AcDbRegAppTableRecord
  2
ACAD
 70
     0
  0
APPID
  5
277
330
9
100
AcDbSymbolTableRecord
100
AcDbRegAppTableRecord
  2
MASTER_SIZING
 70
     0
  0
APPID
  5
278
330
9
100
AcDbSymbolTableRecord
100
AcDbRegAppTableRecord
  2
PAPERSPACE
 70
     0
  0
APPID
  5
47E
330
9
100
AcDbSymbolTableRecord
100
AcDbRegAppTableRecord
  2
MASTER-TITLE
 70
     0
  0
APPID
  5
5A1
330
9
100
AcDbSymbolTableRecord
100
AcDbRegAppTableRecord
  2
ACAD_DIMASSOC_CALC_DIMLFAC
 70
     0
  0
APPID
  5
5A2
330
9
100
AcDbSymbolTableRecord
100
AcDbRegAppTableRecord
  2
ACAD_DIMASSOC_DIMLFAC
 70
     0
  0
APPID
  5
5A3
330
9
100
AcDbSymbolTableRecord
100
AcDbRegAppTableRecord
  2
ACAD_DIMASSOC_OVERRIDDEN_DIMLFAC
 70
     0
  0
APPID
  5
13DF
330
9
100
AcDbSymbolTableRecord
100
AcDbRegAppTableRecord
  2
ACAUTHENVIRON
 70
     0
  0
APPID
  5
140D
330
9
100
AcDbSymbolTableRecord
100
AcDbRegAppTableRecord
  2
AcDbDynamicBlockTrueName
 70
     0
  0
APPID
  5
140E
330
9
100
AcDbSymbolTableRecord
100
AcDbRegAppTableRecord
  2
AcDbDynamicBlockGUID
 70
     0
  0
APPID
  5
1410
330
9
100
AcDbSymbolTableRecord
100
AcDbRegAppTableRecord
  2
AcDbBlockRepETag
 70
     0
  0
APPID
  5
14C9
330
9
100
AcDbSymbolTableRecord
100
AcDbRegAppTableRecord
  2
ACAD_NAV_VCDISPLAY
 70
     0
  0
ENDTAB
  0
TABLE
  2
DIMSTYLE
  5
A
330
0
100
AcDbSymbolTable
 70
     1
100
AcDbDimStyleTable
 71
     1
340
27
  0
DIMSTYLE
105
27
102
{ACAD_REACTORS
330
70A
330
BFF
330
CBA
330
A6F
330
E61
330
106C
102
}
330
A
100
AcDbSymbolTableRecord
100
AcDbDimStyleTableRecord
  2
Standard
 70
     0
 78
     4
 79
     1
141
-0.12
271
     2
272
     2
340
11
  0
ENDTAB
  0
TABLE
  2
BLOCK_RECORD
  5
1
330
0
100
AcDbSymbolTable
 70
    12
  0
BLOCK_RECORD
  5
1F
330
1
100
AcDbSymbolTableRecord
100
AcDbBlockTableRecord
  2
*Model_Space
340
22
 70
     0
280
     1
281
     0
  0
BLOCK_RECORD
  5
1B
330
1
100
AcDbSymbolTableRecord
100
AcDbBlockTableRecord
  2
*Paper_Space
340
1E
 70
     0
280
     1
281
     0
  0
BLOCK_RECORD
  5
42D
102
{ACAD_XDICTIONARY
360
13E0
102
}
330
1
100
AcDbSymbolTableRecord
100
AcDbBlockTableRecord
  2
TITLEB
340
0
102
{BLKREFS
331
1306
102
}
 70
     0
280
     1
281
     0
1001
AcDbDynamicBlockGUID
1000
{70E44D4C-DCBF-4803-B161-B0EF8173C624}
1001
AcDbBlockRepETag
1070
     1
1071
       75
  0
BLOCK_RECORD
  5
52A
330
1
100
AcDbSymbolTableRecord
100
AcDbBlockTableRecord
  2
REVISE12
340
0
102
{BLKREFS
331
1333
331
1339
331
133F
331
131B
331
1321
331
1327
331
132D
102
}
 70
     0
280
     1
281
     0
  0
BLOCK_RECORD
  5
70B
330
1
100
AcDbSymbolTableRecord
100
AcDbBlockTableRecord
  2
*D5
340
0
 70
     0
280
     1
281
     0
  0
BLOCK_RECORD
  5
C00
330
1
100
AcDbSymbolTableRecord
100
AcDbBlockTableRecord
  2
*D6
340
0
 70
     0
280
     1
281
     0
  0
BLOCK_RECORD
  5
CBB
330
1
100
AcDbSymbolTableRecord
100
AcDbBlockTableRecord
  2
*D7
340
0
 70
     0
280
     1
281
     0
  0
BLOCK_RECORD
  5
106D
330
1
100
AcDbSymbolTableRecord
100
AcDbBlockTableRecord
  2
*D8
340
0
 70
     0
280
     1
281
     0
  0
BLOCK_RECORD
  5
1183
330
1
100
AcDbSymbolTableRecord
100
AcDbBlockTableRecord
  2
nut
340
0
310
2800000020000000200000000100080000000000000400000000000000000000000000000000000000000000000080000080000000808000800000008000800080800000C0C0C000C0DCC000F0CAA6000020400000206000002080000020A0000020C0000020E00000400000004020000040400000406000004080000040A0
310
000040C0000040E00000600000006020000060400000606000006080000060A0000060C0000060E00000800000008020000080400000806000008080000080A0000080C0000080E00000A0000000A0200000A0400000A0600000A0800000A0A00000A0C00000A0E00000C0000000C0200000C0400000C0600000C0800000C0
310
A00000C0C00000C0E00000E0000000E0200000E0400000E0600000E0800000E0A00000E0C00000E0E00040000000400020004000400040006000400080004000A0004000C0004000E00040200000402020004020400040206000402080004020A0004020C0004020E000404000004040200040404000404060004040800040
310
40A0004040C0004040E00040600000406020004060400040606000406080004060A0004060C0004060E00040800000408020004080400040806000408080004080A0004080C0004080E00040A0000040A0200040A0400040A0600040A0800040A0A00040A0C00040A0E00040C0000040C0200040C0400040C0600040C08000
310
40C0A00040C0C00040C0E00040E0000040E0200040E0400040E0600040E0800040E0A00040E0C00040E0E00080000000800020008000400080006000800080008000A0008000C0008000E00080200000802020008020400080206000802080008020A0008020C0008020E00080400000804020008040400080406000804080
310
008040A0008040C0008040E00080600000806020008060400080606000806080008060A0008060C0008060E00080800000808020008080400080806000808080008080A0008080C0008080E00080A0000080A0200080A0400080A0600080A0800080A0A00080A0C00080A0E00080C0000080C0200080C0400080C0600080C0
310
800080C0A00080C0C00080C0E00080E0000080E0200080E0400080E0600080E0800080E0A00080E0C00080E0E000C0000000C0002000C0004000C0006000C0008000C000A000C000C000C000E000C0200000C0202000C0204000C0206000C0208000C020A000C020C000C020E000C0400000C0402000C0404000C0406000C0
310
408000C040A000C040C000C040E000C0600000C0602000C0604000C0606000C0608000C060A000C060C000C060E000C0800000C0802000C0804000C0806000C0808000C080A000C080C000C080E000C0A00000C0A02000C0A04000C0A06000C0A08000C0A0A000C0A0C000C0A0E000C0C00000C0C02000C0C04000C0C06000
310
C0C08000C0C0A000F0FBFF00A4A0A000808080000000FF0000FF000000FFFF00FF000000FF00FF00FFFF0000FFFFFF000000000000000000000000000000000000000000000000000000000000000000000000000000000000000000FFFFFFFFFFFFFFFF000000000000000000000000000000000000000000000000FFFF00
310
000000FFFF000000000000000000000000000000000000000000000000FFFF00000000FFFF000000000000000000000000000000000000000000000000FFFF00000000FFFF000000000000000000000000000000000000000000000000FFFF00000000FFFF000000000000000000000000000000000000000000000000FFFF
310
00000000FFFF000000000000000000000000000000000000000000000000FFFF00000000FFFF000000000000000000000000000000000000000000000000FFFFFFFFFFFFFFFF000000000000000000000000000000000000000000000000FFFF00000000FFFF000000000000000000000000000000000000000000000000FF
310
FF00000000FFFF000000000000000000000000000000000000000000000000FFFF00000000FFFF000000000000000000000000000000000000000000000000FFFF00000000FFFF000000000000000000000000000000000000000000000000FFFF00000000FFFF000000000000000000000000000000000000000000000000
310
FFFF00000000FFFF000000000000000000000000000000000000000000000000FFFF00000000FFFF000000000000000000000000000000000000000000000000FFFF00000000FFFF000000000000000000000000000000000000000000000000FFFF00000000FFFF0000000000000000000000000000000000000000000000
310
00FFFF00000000FFFF000000000000000000000000000000000000000000000000FFFF00000000FFFF000000000000000000000000000000000000000000000000FFFF00000000FFFF000000000000000000000000000000000000000000000000FFFF00000000FFFF00000000000000000000000000000000000000000000
310
0000FFFF00000000FFFF000000000000000000000000000000000000000000000000FFFFFFFFFFFFFFFF000000000000000000000000000000000000000000000000FFFF00000000FFFF000000000000000000000000000000000000000000000000FFFF00000000FFFF000000000000000000000000000000000000000000
310
000000FFFF00000000FFFF000000000000000000000000000000000000000000000000FFFF00000000FFFF000000000000000000000000000000000000000000000000FFFF00000000FFFF000000000000000000000000000000000000000000000000FFFF00000000FFFF0000000000000000000000000000000000000000
310
00000000FFFFFFFFFFFFFFFF0000000000000000000000000000000000000000000000000000000000000000000000000000000000000000
102
{BLKREFS
331
1198
102
}
 70
     1
280
     1
281
     0
  0
BLOCK_RECORD
  5
1197
330
1
100
AcDbSymbolTableRecord
100
AcDbBlockTableRecord
  2
A$C5FFD3D1B
340
0
102
{BLKREFS
331
119B
102
}
 70
     0
280
     1
281
     0
  0
BLOCK_RECORD
  5
119C
330
1
100
AcDbSymbolTableRecord
100
AcDbBlockTableRecord
  2
A$C087148CE
340
0
102
{BLKREFS
331
11A1
102
}
 70
     0
280
     1
281
     0
  0
ENDTAB
  0
ENDSEC
  0
SECTION
  2
BLOCKS
  0
BLOCK
  5
20
330
1F
100
AcDbEntity
  8
0
100
AcDbBlockBegin
  2
*Model_Space
 70
     0
 10
0.0
 20
0.0
 30
0.0
  3
*Model_Space
  1

  0
ENDBLK
  5
21
330
1F
100
AcDbEntity
  8
0
100
AcDbBlockEnd
  0
BLOCK
  5
1C
330
1B
100
AcDbEntity
 67
     1
  8
0
100
AcDbBlockBegin
  2
*Paper_Space
 70
     0
 10
0.0
 20
0.0
 30
0.0
  3
*Paper_Space
  1

  0
ENDBLK
  5
1D
330
1B
100
AcDbEntity
 67
     1
  8
0
100
AcDbBlockEnd
  0
BLOCK
  5
47C
330
42D
100
AcDbEntity
  8
0
100
AcDbBlockBegin
  2
TITLEB
 70
     2
 10
0.0
 20
0.0
 30
0.0
  3
TITLEB
  1

  0
LINE
  5
1391
330
42D
100
AcDbEntity
  8
0
100
AcDbLine
 10
0.0
 20
1.75
 30
0.0
 11
-8.75
 21
1.75
 31
0.0
1001
AcDbBlockRepETag
1070
     1
1071
        0
1005
1391
  0
LINE
  5
1392
330
42D
100
AcDbEntity
  8
0
100
AcDbLine
 10
-8.75
 20
0.0
 30
0.0
 11
-8.75
 21
1.75
 31
0.0
1001
AcDbBlockRepETag
1070
     1
1071
        1
1005
1392
  0
LINE
  5
1393
330
42D
100
AcDbEntity
  8
0
100
AcDbLine
 10
-3.75
 20
0.0
 30
0.0
 11
-3.75
 21
1.75
 31
0.0
1001
AcDbBlockRepETag
1070
     1
1071
        2
1005
1393
  0
LINE
  5
1394
330
42D
100
AcDbEntity
  8
0
100
AcDbLine
 10
-4.75
 20
0.0
 30
0.0
 11
-4.75
 21
1.75
 31
0.0
1001
AcDbBlockRepETag
1070
     1
1071
        3
1005
1394
  0
LINE
  5
1395
330
42D
100
AcDbEntity
  8
0
100
AcDbLine
 10
0.0
 20
1.25
 30
0.0
 11
-3.75
 21
1.25
 31
0.0
1001
AcDbBlockRepETag
1070
     1
1071
        4
1005
1395
  0
LINE
  5
1396
330
42D
100
AcDbEntity
  8
0
100
AcDbLine
 10
0.0
 20
0.5
 30
0.0
 11
-3.75
 21
0.5
 31
0.0
1001
AcDbBlockRepETag
1070
     1
1071
        5
1005
1396
  0
LINE
  5
1397
330
42D
100
AcDbEntity
  8
0
100
AcDbLine
 10
-1.75
 20
0.25
 30
0.0
 11
-3.75
 21
0.25
 31
0.0
1001
AcDbBlockRepETag
1070
     1
1071
        6
1005
1397
  0
LINE
  5
1398
330
42D
100
AcDbEntity
  8
0
100
AcDbLine
 10
-2.75
 20
0.0
 30
0.0
 11
-2.75
 21
0.5
 31
0.0
1001
AcDbBlockRepETag
1070
     1
1071
        7
1005
1398
  0
LINE
  5
1399
330
42D
100
AcDbEntity
  8
0
100
AcDbLine
 10
-1.75
 20
0.0
 30
0.0
 11
-1.75
 21
0.5
 31
0.0
1001
AcDbBlockRepETag
1070
     1
1071
        8
1005
1399
  0
LINE
  5
139A
330
42D
100
AcDbEntity
  8
0
100
AcDbLine
 10
-8.75
 20
0.25
 30
0.0
 11
-4.75
 21
0.25
 31
0.0
1001
AcDbBlockRepETag
1070
     1
1071
        9
1005
139A
  0
LINE
  5
139B
330
42D
100
AcDbEntity
  8
0
100
AcDbLine
 10
-8.75
 20
0.5
 30
0.0
 11
-4.75
 21
0.5
 31
0.0
1001
AcDbBlockRepETag
1070
     1
1071
       10
1005
139B
  0
LINE
  5
139C
330
42D
100
AcDbEntity
  8
0
100
AcDbLine
 10
-8.75
 20
0.75
 30
0.0
 11
-4.75
 21
0.75
 31
0.0
1001
AcDbBlockRepETag
1070
     1
1071
       11
1005
139C
  0
LINE
  5
139D
330
42D
100
AcDbEntity
  8
0
100
AcDbLine
 10
-8.75
 20
1.0
 30
0.0
 11
-4.75
 21
1.0
 31
0.0
1001
AcDbBlockRepETag
1070
     1
1071
       12
1005
139D
  0
LINE
  5
139E
330
42D
100
AcDbEntity
  8
0
100
AcDbLine
 10
-8.75
 20
1.25
 30
0.0
 11
-4.75
 21
1.25
 31
0.0
1001
AcDbBlockRepETag
1070
     1
1071
       13
1005
139E
  0
LINE
  5
139F
330
42D
100
AcDbEntity
  8
0
100
AcDbLine
 10
-8.75
 20
1.5
 30
0.0
 11
-4.75
 21
1.5
 31
0.0
1001
AcDbBlockRepETag
1070
     1
1071
       14
1005
139F
  0
LINE
  5
13A0
330
42D
100
AcDbEntity
  8
0
100
AcDbLine
 10
-8.5
 20
0.0
 30
0.0
 11
-8.5
 21
0.25
 31
0.0
1001
AcDbBlockRepETag
1070
     1
1071
       15
1005
13A0
  0
LINE
  5
13A1
330
42D
100
AcDbEntity
  8
0
100
AcDbLine
 10
-5.25
 20
0.0
 30
0.0
 11
-5.25
 21
0.25
 31
0.0
1001
AcDbBlockRepETag
1070
     1
1071
       16
1005
13A1
  0
LINE
  5
13A2
330
42D
100
AcDbEntity
  8
0
100
AcDbLine
 10
-6.0
 20
0.0
 30
0.0
 11
-6.0
 21
0.25
 31
0.0
1001
AcDbBlockRepETag
1070
     1
1071
       17
1005
13A2
  0
TEXT
  5
13A3
330
42D
100
AcDbEntity
  8
0
100
AcDbText
 10
-2.0625
 20
1.5
 30
0.0
 40
0.125
  1
7878 N. 86th STREET
 41
0.8
100
AcDbText
1001
AcDbBlockRepETag
1070
     1
1071
       18
1005
13A3
  0
TEXT
  5
13A4
330
42D
100
AcDbEntity
  8
0
100
AcDbText
 10
-2.0625
 20
1.3125
 30
0.0
 40
0.125
  1
MILWAUKEE, WI 53224
 41
0.8
100
AcDbText
1001
AcDbBlockRepETag
1070
     1
1071
       19
1005
13A4
  0
TEXT
  5
13BB
330
42D
100
AcDbEntity
  8
0
100
AcDbText
 10
-3.71875
 20
0.40625
 30
0.0
 40
0.0625
  1
DRN. BY
 41
0.8
100
AcDbText
1001
AcDbBlockRepETag
1070
     1
1071
       20
1005
13BB
  0
TEXT
  5
13BC
330
42D
100
AcDbEntity
  8
0
100
AcDbText
 10
-2.71875
 20
0.40625
 30
0.0
 40
0.0625
  1
DATE
 41
0.8
100
AcDbText
1001
AcDbBlockRepETag
1070
     1
1071
       21
1005
13BC
  0
TEXT
  5
13BD
330
42D
100
AcDbEntity
  8
0
100
AcDbText
 10
-1.71875
 20
0.40625
 30
0.0
 40
0.0625
  1
DWG. NO.
 41
0.8
100
AcDbText
1001
AcDbBlockRepETag
1070
     1
1071
       22
1005
13BD
  0
TEXT
  5
13BE
330
42D
100
AcDbEntity
  8
0
100
AcDbText
 10
-2.71875
 20
0.15625
 30
0.0
 40
0.0625
  1
APRVD.
 41
0.8
100
AcDbText
1001
AcDbBlockRepETag
1070
     1
1071
       23
1005
13BE
  0
TEXT
  5
13BF
330
42D
100
AcDbEntity
  8
0
100
AcDbText
 10
-3.71875
 20
0.15625
 30
0.0
 40
0.0625
  1
SCALE
 41
0.8
100
AcDbText
1001
AcDbBlockRepETag
1070
     1
1071
       24
1005
13BF
  0
TEXT
  5
13C0
330
42D
100
AcDbEntity
  8
0
100
AcDbText
 10
-4.59375
 20
1.625
 30
0.0
 40
0.09
  1
TOLERANCES
 41
0.8
100
AcDbText
1001
AcDbBlockRepETag
1070
     1
1071
       25
1005
13C0
  0
TEXT
  5
13C1
330
42D
100
AcDbEntity
  8
0
100
AcDbText
 10
-4.71875
 20
1.375
 30
0.0
 40
0.0625
  1
DECIMAL
 41
0.8
100
AcDbText
1001
AcDbBlockRepETag
1070
     1
1071
       26
1005
13C1
  0
TEXT
  5
13C2
330
42D
100
AcDbEntity
  8
0
100
AcDbText
 10
-4.71875
 20
0.65625
 30
0.0
 40
0.0625
  1
FRACTIONAL
 41
0.8
100
AcDbText
1001
AcDbBlockRepETag
1070
     1
1071
       27
1005
13C2
  0
TEXT
  5
13C3
330
42D
100
AcDbEntity
  8
0
100
AcDbText
 10
-4.71875
 20
0.28125
 30
0.0
 40
0.0625
  1
ANGULAR
 41
0.8
100
AcDbText
1001
AcDbBlockRepETag
1070
     1
1071
       28
1005
13C3
  0
LINE
  5
13C4
330
42D
100
AcDbEntity
  8
0
100
AcDbLine
 10
-4.75
 20
1.46875
 30
0.0
 11
-3.75
 21
1.46875
 31
0.0
1001
AcDbBlockRepETag
1070
     1
1071
       29
1005
13C4
  0
TEXT
  5
13C5
330
42D
100
AcDbEntity
  8
0
100
AcDbText
 10
-4.625
 20
1.5
 30
0.0
 40
0.0625
  1
(EXCEPT AS NOTED)
 41
0.8
100
AcDbText
1001
AcDbBlockRepETag
1070
     1
1071
       30
1005
13C5
  0
LINE
  5
13C6
330
42D
100
AcDbEntity
  8
0
100
AcDbLine
 10
-4.75
 20
0.375
 30
0.0
 11
-3.75
 21
0.375
 31
0.0
1001
AcDbBlockRepETag
1070
     1
1071
       31
1005
13C6
  0
LINE
  5
13C7
330
42D
100
AcDbEntity
  8
0
100
AcDbLine
 10
-4.75
 20
0.75
 30
0.0
 11
-3.75
 21
0.75
 31
0.0
1001
AcDbBlockRepETag
1070
     1
1071
       32
1005
13C7
  0
TEXT
  5
13C8
330
42D
100
AcDbEntity
  8
0
100
AcDbText
 10
-4.6875
 20
1.09375
 30
0.0
 40
0.125
  1
.XX %%p
 41
0.8
100
AcDbText
1001
AcDbBlockRepETag
1070
     1
1071
       33
1005
13C8
  0
TEXT
  5
13C9
330
42D
100
AcDbEntity
  8
0
100
AcDbText
 10
-4.6875
 20
0.84375
 30
0.0
 40
0.125
  1
.XXX%%p
 41
0.8
100
AcDbText
1001
AcDbBlockRepETag
1070
     1
1071
       34
1005
13C9
  0
TEXT
  5
13CA
330
42D
100
AcDbEntity
  8
0
100
AcDbText
 10
-4.625
 20
0.46875
 30
0.0
 40
0.125
  1
%%p
 41
0.8
100
AcDbText
1001
AcDbBlockRepETag
1070
     1
1071
       35
1005
13CA
  0
TEXT
  5
13CB
330
42D
100
AcDbEntity
  8
0
100
AcDbText
 10
-4.625
 20
0.09375
 30
0.0
 40
0.125
  1
%%p
 41
0.8
100
AcDbText
1001
AcDbBlockRepETag
1070
     1
1071
       36
1005
13CB
  0
TEXT
  5
13CC
330
42D
100
AcDbEntity
  8
0
100
AcDbText
 10
-5.09375
 20
0.0625
 30
0.0
 40
0.125
  1
BY
 41
0.8
100
AcDbText
1001
AcDbBlockRepETag
1070
     1
1071
       37
1005
13CC
  0
TEXT
  5
13CD
330
42D
100
AcDbEntity
  8
0
100
AcDbText
 10
-8.71875
 20
0.0625
 30
0.0
 40
0.125
  1
NO
 41
0.8
100
AcDbText
1001
AcDbBlockRepETag
1070
     1
1071
       38
1005
13CD
  0
TEXT
  5
13CE
330
42D
100
AcDbEntity
  8
0
100
AcDbText
 10
-7.53125
 20
0.0625
 30
0.0
 40
0.125
  1
REVISION
 41
0.8
100
AcDbText
1001
AcDbBlockRepETag
1070
     1
1071
       39
1005
13CE
  0
TEXT
  5
13CF
330
42D
100
AcDbEntity
  8
0
100
AcDbText
 10
-5.8125
 20
0.0625
 30
0.0
 40
0.125
  1
DATE
 41
0.8
100
AcDbText
1001
AcDbBlockRepETag
1070
     1
1071
       40
1005
13CF
  0
TEXT
  5
13D0
330
42D
100
AcDbEntity
  8
0
100
AcDbText
 10
-0.9375
 20
0.03125
 30
0.0
 40
0.09
  1
SHT.    OF
 41
0.8
100
AcDbText
1001
AcDbBlockRepETag
1070
     1
1071
       41
1005
13D0
  0
ATTDEF
  5
13D1
330
42D
100
AcDbEntity
  8
0
100
AcDbText
 10
-1.28125
 20
0.25
 30
0.0
 40
0.1875
  1

 41
0.8
100
AcDbAttributeDefinition
280
     0
  3
DRAWING NUMBER
  2
DWGNO
 70
     0
280
     0
1001
AcDbBlockRepETag
1070
     1
1071
       42
1005
0
  0
ATTDEF
  5
13D2
330
42D
100
AcDbEntity
  8
0
100
AcDbText
 10
-3.34375
 20
0.28125
 30
0.0
 40
0.125
  1

 41
0.8
100
AcDbAttributeDefinition
280
     0
  3
DRAWN BY
  2
DRNBY
 70
     0
280
     0
1001
AcDbBlockRepETag
1070
     1
1071
       43
1005
0
  0
ATTDEF
  5
13D3
330
42D
100
AcDbEntity
  8
0
100
AcDbText
 10
-2.5
 20
0.28125
 30
0.0
 40
0.125
  1

 41
1.568181818181818
 72
     5
 11
-1.78125
 21
0.28125
 31
0.0
100
AcDbAttributeDefinition
280
     0
  3
DRAWING DATE
  2
DATE
 70
     0
280
     0
1001
AcDbBlockRepETag
1070
     1
1071
       44
1005
0
  0
ATTDEF
  5
13D4
330
42D
100
AcDbEntity
  8
0
100
AcDbText
 10
-3.40625
 20
0.03125
 30
0.0
 40
0.125
  1

 41
0.8
100
AcDbAttributeDefinition
280
     0
  3
SCALE
  2
SCALE
 70
     0
280
     0
1001
AcDbBlockRepETag
1070
     1
1071
       45
1005
0
  0
ATTDEF
  5
13D5
330
42D
100
AcDbEntity
  8
0
100
AcDbText
 10
-2.40625
 20
0.03125
 30
0.0
 40
0.125
  1

 41
0.8
100
AcDbAttributeDefinition
280
     0
  3
APPROVED BY
  2
APRVD
 70
     0
280
     0
1001
AcDbBlockRepETag
1070
     1
1071
       46
1005
0
  0
ATTDEF
  5
13D6
330
42D
100
AcDbEntity
  8
0
100
AcDbText
 10
-0.65625
 20
0.03125
 30
0.0
 40
0.125
  1

 41
0.8
100
AcDbAttributeDefinition
280
     0
  3
SHEET
  2
SHT
 70
     0
280
     0
1001
AcDbBlockRepETag
1070
     1
1071
       47
1005
0
  0
ATTDEF
  5
13D7
330
42D
100
AcDbEntity
  8
0
100
AcDbText
 10
-0.28125
 20
0.03125
 30
0.0
 40
0.125
  1

 41
0.8
100
AcDbAttributeDefinition
280
     0
  3
OF SHEET
  2
OFSHT
 70
     0
280
     0
1001
AcDbBlockRepETag
1070
     1
1071
       48
1005
0
  0
ATTDEF
  5
13D8
330
42D
100
AcDbEntity
  8
0
100
AcDbText
 10
-3.59375
 20
0.875
 30
0.0
 40
0.1875
  1

 41
0.8
100
AcDbAttributeDefinition
280
     0
  3
DESCRIPTION (LINE 1 OF 2)
  2
DESC1
 70
     0
280
     0
1001
AcDbBlockRepETag
1070
     1
1071
       49
1005
0
  0
ATTDEF
  5
13D9
330
42D
100
AcDbEntity
  8
0
100
AcDbText
 10
-3.59375
 20
0.59375
 30
0.0
 40
0.1875
  1

 41
0.8
100
AcDbAttributeDefinition
280
     0
  3
DESCRIPTION (LINE 2 OF 2)
  2
DESC2
 70
     0
280
     0
1001
AcDbBlockRepETag
1070
     1
1071
       50
1005
0
  0
ATTDEF
  5
13DA
330
42D
100
AcDbEntity
  8
0
100
AcDbText
 10
-4.21875
 20
1.09375
 30
0.0
 40
0.125
  1
.01
 41
0.8
100
AcDbAttributeDefinition
280
     0
  3
TOLERANCE .XX
  2
TOLXX
 70
     0
280
     0
1001
AcDbBlockRepETag
1070
     1
1071
       51
1005
0
  0
ATTDEF
  5
13DB
330
42D
100
AcDbEntity
  8
0
100
AcDbText
 10
-4.21875
 20
0.84375
 30
0.0
 40
0.125
  1
.005
 41
0.8
100
AcDbAttributeDefinition
280
     0
  3
TOLERANCE .XXX
  2
TOLXXX
 70
     0
280
     0
1001
AcDbBlockRepETag
1070
     1
1071
       52
1005
0
  0
ATTDEF
  5
13DC
330
42D
100
AcDbEntity
  8
0
100
AcDbText
 10
-4.46875
 20
0.46875
 30
0.0
 40
0.125
  1
1/32
 41
0.8
100
AcDbAttributeDefinition
280
     0
  3
TOLERANCE - FRACTIONAL
  2
TOLFRAC
 70
     0
280
     0
1001
AcDbBlockRepETag
1070
     1
1071
       53
1005
0
  0
ATTDEF
  5
13DD
330
42D
100
AcDbEntity
  8
0
100
AcDbText
 10
-4.46875
 20
0.09375
 30
0.0
 40
0.125
  1
1/2%%d
 41
0.8
100
AcDbAttributeDefinition
280
     0
  3
TOLERANCE - ANGULAR
  2
TOLANG
 70
     0
280
     0
1001
AcDbBlockRepETag
1070
     1
1071
       54
1005
0
  0
ATTDEF
  5
13DE
330
42D
100
AcDbEntity
  8
0
100
AcDbText
 10
-1.59375
 20
0.09375
 30
0.0
 40
0.25
  1

 41
0.8
100
AcDbAttributeDefinition
280
     0
  3

  2
DWG.SIZE
 70
     0
280
     0
1001
AcDbBlockRepETag
1070
     1
1071
       55
1005
0
  0
SPLINE
  5
13FA
330
42D
100
AcDbEntity
  8
BORDER
 62
     7
100
AcDbSpline
210
0.0
220
0.0
230
1.0
 70
    24
 71
     3
 72
     8
 73
     4
 74
     0
 42
0.000000001
 43
0.0000000001
 40
2.0
 40
2.0
 40
2.0
 40
2.0
 40
3.0
 40
3.0
 40
3.0
 40
3.0
 10
-2.790957716731583
 20
1.430400548477676
 30
0.0
 10
-2.790957716731583
 20
1.430400548477676
 30
0.0
 10
-2.790962716590996
 20
1.430400548477676
 30
0.0
 10
-2.790962716590996
 20
1.430400548477676
 30
0.0
1001
AcDbBlockRepETag
1070
     1
1071
       56
1005
13FA
  0
SPLINE
  5
13FB
330
42D
100
AcDbEntity
  8
BORDER
 62
     7
100
AcDbSpline
210
0.0
220
0.0
230
1.0
 70
     8
 71
     3
 72
     8
 73
     4
 74
     0
 42
0.000000001
 43
0.0000000001
 40
3.0
 40
3.0
 40
3.0
 40
3.0
 40
4.0
 40
4.0
 40
4.0
 40
4.0
 10
-2.790962716590996
 20
1.430400548477676
 30
0.0
 10
-2.791787693395292
 20
1.431670512770359
 30
0.0
 10
-2.792517672870623
 20
1.433020474813753
 30
0.0
 10
-2.793192653892326
 20
1.434410435732518
 30
0.0
1001
AcDbBlockRepETag
1070
     1
1071
       57
1005
13FB
  0
SPLINE
  5
13FC
330
42D
100
AcDbEntity
  8
BORDER
 62
     7
100
AcDbSpline
210
0.0
220
0.0
230
1.0
 70
     8
 71
     3
 72
     8
 73
     4
 74
     0
 42
0.000000001
 43
0.0000000001
 40
4.0
 40
4.0
 40
4.0
 40
4.0
 40
5.0
 40
5.0
 40
5.0
 40
5.0
 10
-2.793192653892326
 20
1.434410435732518
 30
0.0
 10
-2.793377648690864
 20
1.434790425048442
 30
0.0
 10
-2.793527644473464
 20
1.435200413520881
 30
0.0
 10
-2.79370263955316
 20
1.435590402555639
 30
0.0
1001
AcDbBlockRepETag
1070
     1
1071
       58
1005
13FC
  0
SPLINE
  5
13FD
330
42D
100
AcDbEntity
  8
BORDER
 62
     7
100
AcDbSpline
210
0.0
220
0.0
230
1.0
 70
     8
 71
     3
 72
     8
 73
     4
 74
     0
 42
0.000000001
 43
0.0000000001
 40
5.0
 40
5.0
 40
5.0
 40
5.0
 40
6.0
 40
6.0
 40
6.0
 40
6.0
 10
-2.79370263955316
 20
1.435590402555639
 30
0.0
 10
-2.79415762676038
 20
1.436630373315001
 30
0.0
 10
-2.794597614389346
 20
1.437680343793202
 30
0.0
 10
-2.794977603705262
 20
1.438770313146763
 30
0.0
1001
AcDbBlockRepETag
1070
     1
1071
       59
1005
13FD
  0
SPLINE
  5
13FE
330
42D
100
AcDbEntity
  8
BORDER
 62
     7
100
AcDbSpline
210
0.0
220
0.0
230
1.0
 70
     8
 71
     3
 72
     8
 73
     4
 74
     0
 42
0.000000001
 43
0.0000000001
 40
6.0
 40
6.0
 40
6.0
 40
6.0
 40
7.0
 40
7.0
 40
7.0
 40
7.0
 10
-2.794977603705262
 20
1.438770313146763
 30
0.0
 10
-2.795147598925545
 20
1.439240299932244
 30
0.0
 10
-2.795287594989304
 20
1.439730286155402
 30
0.0
 10
-2.795437590771911
 20
1.440220272378562
 30
0.0
1001
AcDbBlockRepETag
1070
     1
1071
       60
1005
13FE
  0
SPLINE
  5
13FF
330
42D
100
AcDbEntity
  8
BORDER
 62
     7
100
AcDbSpline
210
0.0
220
0.0
230
1.0
 70
     8
 71
     3
 72
     8
 73
     4
 74
     0
 42
0.000000001
 43
0.0000000001
 40
7.0
 40
7.0
 40
7.0
 40
7.0
 40
8.0
 40
8.0
 40
8.0
 40
8.0
 10
-2.795437590771911
 20
1.440220272378562
 30
0.0
 10
-2.795777581212462
 20
1.441290242294446
 30
0.0
 10
-2.796092572355931
 20
1.442385211507426
 30
0.0
 10
-2.796357564905186
 20
1.443505180017504
 30
0.0
1001
AcDbBlockRepETag
1070
     1
1071
       61
1005
13FF
  0
SPLINE
  5
1400
330
42D
100
AcDbEntity
  8
BORDER
 62
     7
100
AcDbSpline
210
0.0
220
0.0
230
1.0
 70
     8
 71
     3
 72
     8
 73
     4
 74
     0
 42
0.000000001
 43
0.0000000001
 40
8.0
 40
8.0
 40
8.0
 40
8.0
 40
9.0
 40
9.0
 40
9.0
 40
9.0
 10
-2.796357564905186
 20
1.443505180017504
 30
0.0
 10
-2.796477561531268
 20
1.443985166521825
 30
0.0
 10
-2.796582558579075
 20
1.444465153026147
 30
0.0
 10
-2.796687555626903
 20
1.444945139530469
 30
0.0
1001
AcDbBlockRepETag
1070
     1
1071
       62
1005
1400
  0
SPLINE
  5
1401
330
42D
100
AcDbEntity
  8
BORDER
 62
     7
100
AcDbSpline
210
0.0
220
0.0
230
1.0
 70
     8
 71
     3
 72
     8
 73
     4
 74
     0
 42
0.000000001
 43
0.0000000001
 40
9.0
 40
9.0
 40
9.0
 40
9.0
 40
10.0
 40
10.0
 40
10.0
 40
10.0
 10
-2.796687555626903
 20
1.444945139530469
 30
0.0
 10
-2.796947548316751
 20
1.44615510551011
 30
0.0
 10
-2.797177541850061
 20
1.447385070927431
 30
0.0
 10
-2.797357536789178
 20
1.448635035782432
 30
0.0
1001
AcDbBlockRepETag
1070
     1
1071
       63
1005
1401
  0
SPLINE
  5
1402
330
42D
100
AcDbEntity
  8
BORDER
 62
     7
100
AcDbSpline
210
0.0
220
0.0
230
1.0
 70
     8
 71
     3
 72
     8
 73
     4
 74
     0
 42
0.000000001
 43
0.0000000001
 40
10.0
 40
10.0
 40
10.0
 40
10.0
 40
11.0
 40
11.0
 40
11.0
 40
11.0
 10
-2.797357536789178
 20
1.448635035782432
 30
0.0
 10
-2.797417535102226
 20
1.449035024536032
 30
0.0
 10
-2.797487533134109
 20
1.449435013289633
 30
0.0
 10
-2.797537531728302
 20
1.449835002043228
 30
0.0
1001
AcDbBlockRepETag
1070
     1
1071
       64
1005
1402
  0
SPLINE
  5
1403
330
42D
100
AcDbEntity
  8
BORDER
 62
     7
100
AcDbSpline
210
0.0
220
0.0
230
1.0
 70
     8
 71
     3
 72
     8
 73
     4
 74
     0
 42
0.000000001
 43
0.0000000001
 40
11.0
 40
11.0
 40
11.0
 40
11.0
 40
12.0
 40
12.0
 40
12.0
 40
12.0
 10
-2.797537531728302
 20
1.449835002043228
 30
0.0
 10
-2.797737526105102
 20
1.45132496015039
 30
0.0
 10
-2.797887521887702
 20
1.452834917695236
 30
0.0
 10
-2.797992518935522
 20
1.454364874677754
 30
0.0
1001
AcDbBlockRepETag
1070
     1
1071
       65
1005
1403
  0
SPLINE
  5
1404
330
42D
100
AcDbEntity
  8
BORDER
 62
     7
100
AcDbSpline
210
0.0
220
0.0
230
1.0
 70
     8
 71
     3
 72
     8
 73
     4
 74
     0
 42
0.000000001
 43
0.0000000001
 40
12.0
 40
12.0
 40
12.0
 40
12.0
 40
13.0
 40
13.0
 40
13.0
 40
13.0
 10
-2.797992518935522
 20
1.454364874677754
 30
0.0
 10
-2.798002518654364
 20
1.454544869616876
 30
0.0
 10
-2.798017518232626
 20
1.454714864837159
 30
0.0
 10
-2.798032517810888
 20
1.454894859776278
 30
0.0
1001
AcDbBlockRepETag
1070
     1
1071
       66
1005
1404
  0
SPLINE
  5
1405
330
42D
100
AcDbEntity
  8
BORDER
 62
     7
100
AcDbSpline
210
0.0
220
0.0
230
1.0
 70
     8
 71
     3
 72
     8
 73
     4
 74
     0
 42
0.000000001
 43
0.0000000001
 40
13.0
 40
13.0
 40
13.0
 40
13.0
 40
14.0
 40
14.0
 40
14.0
 40
14.0
 10
-2.798032517810888
 20
1.454894859776278
 30
0.0
 10
-2.798367508392026
 20
1.460354706262922
 30
0.0
 10
-2.798162514155805
 20
1.466074545439404
 30
0.0
 10
-2.797532531868881
 20
1.471814384053571
 30
0.0
1001
AcDbBlockRepETag
1070
     1
1071
       67
1005
1405
  0
SPLINE
  5
1406
330
42D
100
AcDbEntity
  8
BORDER
 62
     7
100
AcDbSpline
210
0.0
220
0.0
230
1.0
 70
     8
 71
     3
 72
     8
 73
     4
 74
     0
 42
0.000000001
 43
0.0000000001
 40
14.0
 40
14.0
 40
14.0
 40
14.0
 40
15.0
 40
15.0
 40
15.0
 40
15.0
 10
-2.797532531868881
 20
1.471814384053571
 30
0.0
 10
-2.794487617482104
 20
1.468334481897247
 30
0.0
 10
-2.792327678212664
 20
1.465864551343765
 30
0.0
 10
-2.792327678212664
 20
1.465864551343765
 30
0.0
1001
AcDbBlockRepETag
1070
     1
1071
       68
1005
1406
  0
SPLINE
  5
1407
330
42D
100
AcDbEntity
  8
BORDER
 62
     7
100
AcDbSpline
210
0.0
220
0.0
230
1.0
 70
     8
 71
     3
 72
     8
 73
     4
 74
     0
 42
0.000000001
 43
0.0000000001
 40
15.0
 40
15.0
 40
15.0
 40
15.0
 40
16.0
 40
16.0
 40
16.0
 40
16.0
 10
-2.792327678212664
 20
1.465864551343765
 30
0.0
 10
-2.776613120055593
 20
1.447855057712912
 30
0.0
 10
-2.761118555712997
 20
1.430100556912476
 30
0.0
 10
-2.745618991510987
 20
1.413571021669941
 30
0.0
1001
AcDbBlockRepETag
1070
     1
1071
       69
1005
1407
  0
SPLINE
  5
1408
330
42D
100
AcDbEntity
  8
BORDER
 62
     7
100
AcDbSpline
210
0.0
220
0.0
230
1.0
 70
     8
 71
     3
 72
     8
 73
     4
 74
     0
 42
0.000000001
 43
0.0000000001
 40
16.0
 40
16.0
 40
16.0
 40
16.0
 40
17.0
 40
17.0
 40
17.0
 40
17.0
 10
-2.745618991510987
 20
1.413571021669941
 30
0.0
 10
-2.746998952710903
 20
1.41354102251342
 30
0.0
 10
-2.748298916160102
 20
1.4134610247627
 30
0.0
 10
-2.74970887651655
 20
1.4134610247627
 30
0.0
1001
AcDbBlockRepETag
1070
     1
1071
       70
1005
1408
  0
HATCH
  5
1409
330
42D
100
AcDbEntity
  8
BORDER
 62
     7
100
AcDbHatch
 10
0.0
 20
0.0
 30
0.0
210
0.0
220
0.0
230
1.0
  2
SOLID
 70
     1
 71
     0
 91
        1
 92
        1
 93
        1
 72
     4
 94
        3
 73
     0
 74
     0
 95
       26
 96
       22
 40
0.0
 40
0.0
 40
0.0
 40
0.0
 40
1.0
 40
1.0
 40
1.0
 40
2.0
 40
2.0
 40
2.0
 40
3.0
 40
3.0
 40
3.0
 40
4.0
 40
4.0
 40
4.0
 40
5.0
 40
5.0
 40
5.0
 40
6.0
 40
6.0
 40
6.0
 40
7.0
 40
7.0
 40
7.0
 40
7.0
 10
-3.213660831676989
 20
1.504183473938674
 10
-3.16814711137669
 20
1.550722165420072
 10
-3.060680133003117
 20
1.651774324157777
 10
-2.985457248029156
 20
1.651774324157777
 10
-2.952553173186117
 20
1.651774324157777
 10
-2.921514045906725
 20
1.635114792570323
 10
-2.89097490456934
 20
1.609625509247145
 10
-2.89097490456934
 20
1.609625509247145
 10
-2.868045549269204
 20
1.676093640376675
 10
-2.868045549269204
 20
1.676093640376675
 10
-2.868045549269204
 20
1.676093640376675
 10
-3.301003375885038
 20
1.676093640376675
 10
-3.301003375885038
 20
1.676093640376675
 10
-3.301003375885038
 20
1.676093640376675
 10
-3.329452575984866
 20
1.593585960227771
 10
-3.329452575984866
 20
1.593585960227771
 10
-3.329452575984866
 20
1.593585960227771
 10
-3.215075791892843
 20
1.593585960227771
 10
-3.18281669891499
 20
1.593585960227771
 10
-3.187206575485745
 20
1.580846318425598
 10
-3.19957122783142
 20
1.54501232596243
 10
-3.213660831676989
 20
1.504183473938674
 97
        0
 97
        0
 75
     2
 76
     1
 98
        1
 10
-3.593740145066867
 20
0.4898819928401199
450
        0
451
        0
460
0.0
461
0.0
452
        0
462
0.0
453
        0
470

1001
AcDbBlockRepETag
1070
     1
1071
       71
1005
1409
  0
HATCH
  5
140A
330
42D
100
AcDbEntity
  8
BORDER
 62
     7
100
AcDbHatch
 10
0.0
 20
0.0
 30
0.0
210
0.0
220
0.0
230
1.0
  2
SOLID
 70
     1
 71
     0
 91
        1
 92
        1
 93
        1
 72
     4
 94
        3
 73
     0
 74
     0
 95
       38
 96
       34
 40
0.0
 40
0.0
 40
0.0
 40
0.0
 40
1.0
 40
1.0
 40
1.0
 40
2.0
 40
2.0
 40
2.0
 40
3.0
 40
3.0
 40
3.0
 40
4.0
 40
4.0
 40
4.0
 40
5.0
 40
5.0
 40
5.0
 40
6.0
 40
6.0
 40
6.0
 40
7.0
 40
7.0
 40
7.0
 40
8.0
 40
8.0
 40
8.0
 40
9.0
 40
9.0
 40
9.0
 40
10.0
 40
10.0
 40
10.0
 40
11.0
 40
11.0
 40
11.0
 40
11.0
 10
-2.798832495318087
 20
1.513613208804802
 10
-2.798832495318087
 20
1.513613208804802
 10
-2.790197738099735
 20
1.503733486590872
 10
-2.790197738099735
 20
1.503733486590872
 10
-2.785797861810138
 20
1.516223135422047
 10
-2.752283804117844
 20
1.603255688346056
 10
-2.673161028796279
 20
1.603255688346056
 10
-2.631052212761005
 20
1.603255688346056
 10
-2.618332570396518
 20
1.591546017584407
 10
-2.61480766950541
 20
1.586506159289045
 10
-2.613527705493893
 20
1.584676210741323
 10
-2.609627815146296
 20
1.579096367628595
 10
-2.613972692982272
 20
1.567241700943769
 10
-2.613972692982272
 20
1.567241700943769
 10
-2.621872470865881
 20
1.545672307405869
 10
-2.621872470865881
 20
1.545672307405869
 10
-2.621872470865881
 20
1.545672307405869
 10
-2.474206622755474
 20
1.545672307405869
 10
-2.474206622755474
 20
1.545672307405869
 10
-2.474206622755474
 20
1.545672307405869
 10
-2.470916715257118
 20
1.557371978448678
 10
-2.470916715257118
 20
1.557371978448678
 10
-2.462876941309751
 20
1.585876177002122
 10
-2.46648683981099
 20
1.610485485067384
 10
-2.481646413572448
 20
1.630504922185076
 10
-2.507715680588347
 20
1.664943953870068
 10
-2.566694022306705
 20
1.682403462964723
 10
-2.656926485259532
 20
1.682403462964723
 10
-2.750523853602004
 20
1.682403462964723
 10
-2.828401663927991
 20
1.652694298291056
 10
-2.879935214969975
 20
1.600015779441896
 10
-2.852950973680208
 20
1.575606465753432
 10
-2.826226725080289
 20
1.545002326243588
 10
-2.798832495318087
 20
1.513613208804802
 97
        0
 97
        0
 75
     2
 76
     1
 98
        1
 10
-3.593740145066867
 20
0.4898819928401199
450
        0
451
        0
460
0.0
461
0.0
452
        0
462
0.0
453
        0
470

1001
AcDbBlockRepETag
1070
     1
1071
       72
1005
140A
  0
HATCH
  5
140B
330
42D
100
AcDbEntity
  8
BORDER
 62
     7
100
AcDbHatch
 10
0.0
 20
0.0
 30
0.0
210
0.0
220
0.0
230
1.0
  2
SOLID
 70
     1
 71
     0
 91
        1
 92
        1
 93
        1
 72
     4
 94
        3
 73
     0
 74
     0
 95
       17
 96
       13
 40
0.0
 40
0.0
 40
0.0
 40
0.0
 40
1.0
 40
1.0
 40
1.0
 40
2.0
 40
2.0
 40
2.0
 40
3.0
 40
3.0
 40
3.0
 40
4.0
 40
4.0
 40
4.0
 40
4.0
 10
-2.41875818178763
 20
1.666953897356908
 10
-2.41875818178763
 20
1.666953897356908
 10
-2.524385211894639
 20
1.379701973958834
 10
-2.524385211894639
 20
1.379701973958834
 10
-2.450717283200305
 20
1.42493070227219
 10
-2.365654674887771
 20
1.511273274596241
 10
-2.337880455809646
 20
1.540412455296024
 10
-2.337880455809646
 20
1.540412455296024
 10
-2.291351764047085
 20
1.666953897356908
 10
-2.291351764047085
 20
1.666953897356908
 10
-2.291351764047085
 20
1.666953897356908
 10
-2.41875818178763
 20
1.666953897356908
 10
-2.41875818178763
 20
1.666953897356908
 97
        0
 97
        0
 75
     2
 76
     1
 98
        1
 10
-3.593740145066867
 20
0.4898819928401199
450
        0
451
        0
460
0.0
461
0.0
452
        0
462
0.0
453
        0
470

1001
AcDbBlockRepETag
1070
     1
1071
       73
1005
140B
  0
HATCH
  5
140C
330
42D
100
AcDbEntity
  8
BORDER
 62
     7
100
AcDbHatch
 10
0.0
 20
0.0
 30
0.0
210
0.0
220
0.0
230
1.0
  2
SOLID
 70
     1
 71
     0
 91
        2
 92
        1
 93
      248
 72
     1
 10
-2.534754920331728
 20
1.351512766548848
 11
-2.534768079347955
 21
1.351508871763043
 72
     1
 10
-2.534768079347962
 20
1.351508871763043
 11
-2.534783553991388
 21
1.351503362411486
 72
     1
 10
-2.534783553991388
 20
1.351503362411486
 11
-2.537093214024007
 21
1.35037074864042
 72
     1
 10
-2.537093214023997
 20
1.350370748640417
 11
-2.540621832208625
 21
1.348695729055684
 72
     1
 10
-2.540621832208636
 20
1.34869572905568
 11
-2.543089722908916
 21
1.347566042552115
 72
     1
 10
-2.543089722908916
 20
1.347566042552115
 11
-2.543404304401175
 21
1.347423050964726
 72
     1
 10
-2.543404304401171
 20
1.347423050964728
 11
-2.549990449141407
 21
1.34458129426431
 72
     1
 10
-2.549990449141411
 20
1.344581294264305
 11
-2.556833126828053
 21
1.341901343085305
 72
     1
 10
-2.556833126828045
 20
1.341901343085305
 11
-2.559681813092119
 21
1.340877102306999
 72
     1
 10
-2.559681813092119
 20
1.340877102306999
 11
-2.559952341308544
 21
1.340778689093127
 72
     1
 10
-2.559952341308544
 20
1.340778689093129
 11
-2.560986915583214
 21
1.340416840737695
 72
     1
 10
-2.560986915583207
 20
1.340416840737695
 11
-2.564216331709531
 21
1.339350438378978
 72
     1
 10
-2.564216331709531
 20
1.339350438378975
 11
-2.567429814621185
 21
1.338360175542057
 72
     1
 10
-2.567429814621185
 20
1.338360175542057
 11
-2.56808030191128
 21
1.338168727677887
 72
     1
 10
-2.56808030191128
 20
1.338168727677885
 11
-2.568470520208862
 21
1.338053769972628
 72
     1
 10
-2.568470520208862
 20
1.338053769972626
 11
-2.572197175888
 21
1.337030885155305
 72
     1
 10
-2.572197175888
 20
1.337030885155304
 11
-2.578475943324782
 21
1.335549752490745
 72
     1
 10
-2.578475943324782
 20
1.33554975249075
 11
-2.583468895491421
 21
1.334606842361381
 72
     1
 10
-2.583468895491421
 20
1.334606842361379
 11
-2.583972052052693
 21
1.334525197386055
 72
     1
 10
-2.583972052052693
 20
1.334525197386055
 11
-2.584474868705385
 21
1.334443892319312
 72
     1
 10
-2.584474868705385
 20
1.334443892319315
 11
-2.58704667542252
 21
1.334072107489154
 72
     1
 10
-2.58704667542252
 20
1.33407210748915
 11
-2.589927054260613
 21
1.333736663588092
 72
     1
 10
-2.589927054260613
 20
1.333736663588092
 11
-2.591590666043025
 21
1.333578351678603
 72
     1
 10
-2.591590666043025
 20
1.333578351678603
 11
-2.592120748795053
 21
1.333535713356692
 72
     1
 10
-2.592120748795039
 20
1.33353571335669
 11
-2.59304722415792
 21
1.333466357318521
 72
     1
 10
-2.59304722415792
 20
1.333466357318522
 11
-2.595967758627473
 21
1.33329195485207
 72
     1
 10
-2.595967758627487
 20
1.33329195485207
 11
-2.598861227876405
 21
1.333215276102212
 72
     1
 10
-2.598861227876398
 20
1.333215276102212
 11
-2.601603929151686
 21
1.333238661980322
 72
     1
 10
-2.601603929151686
 20
1.333238661980319
 11
-2.604314001869983
 21
1.333338900708557
 72
     1
 10
-2.604314001869987
 20
1.333338900708557
 11
-2.606068640520359
 21
1.333450278191023
 72
     1
 10
-2.606068640520362
 20
1.333450278191024
 11
-2.606739810410221
 21
1.333518780294479
 72
     1
 10
-2.606739810410218
 20
1.333518780294477
 11
-2.607576622164497
 21
1.333593158987817
 72
     1
 10
-2.607576622164494
 20
1.333593158987818
 11
-2.609619774207498
 21
1.333771349758778
 72
     1
 10
-2.609619774207502
 20
1.33377134975878
 11
-2.611660334447591
 21
1.333986335633467
 72
     1
 10
-2.611660334447577
 20
1.333986335633467
 11
-2.612626278564796
 21
1.334119732101868
 72
     1
 10
-2.612626278564803
 20
1.33411973210187
 11
-2.61327626364595
 21
1.334227016526869
 72
     1
 10
-2.613276263645936
 20
1.334227016526869
 11
-2.614525871653491
 21
1.334413881026437
 72
     1
 10
-2.614525871653505
 20
1.334413881026437
 11
-2.616591868060787
 21
1.334741271393999
 72
     1
 10
-2.61659186806078
 20
1.334741271393996
 11
-2.61853786262851
 21
1.335090814646163
 72
     1
 10
-2.618537862628507
 20
1.335090814646163
 11
-2.619084463722607
 21
1.335206938318407
 72
     1
 10
-2.619084463722607
 20
1.335206938318409
 11
-2.619628111860922
 21
1.335330837399409
 72
     1
 10
-2.619628111860919
 20
1.335330837399412
 11
-2.621354514008874
 21
1.335689992420059
 72
     1
 10
-2.621354514008878
 20
1.335689992420059
 11
-2.623525662908818
 21
1.336184897882473
 72
     1
 10
-2.623525662908818
 20
1.336184897882469
 11
-2.62502909397833
 21
1.336562999069315
 72
     1
 10
-2.625029093978326
 20
1.336562999069316
 11
-2.625435225643077
 21
1.336676361439122
 72
     1
 10
-2.62543522564308
 20
1.336676361439124
 11
-2.62589599053383
 21
1.336800067646704
 72
     1
 10
-2.625895990533834
 20
1.336800067646704
 11
-2.628207080354652
 21
1.337433738577791
 72
     1
 10
-2.628207080354656
 20
1.337433738577793
 11
-2.630513411455364
 21
1.338119075612961
 72
     1
 10
-2.630513411455368
 20
1.33811907561296
 11
-2.631434311392624
 21
1.338409455052657
 72
     1
 10
-2.631434311392624
 20
1.338409455052662
 11
-2.631702546038233
 21
1.338501505765229
 72
     1
 10
-2.631702546038233
 20
1.338501505765229
 11
-2.632688202929372
 21
1.338827114393824
 72
     1
 10
-2.632688202929358
 20
1.338827114393824
 11
-2.63512969248531
 21
1.339658747639814
 72
     1
 10
-2.635129692485321
 20
1.339658747639818
 11
-2.637567379314045
 21
1.340546210869982
 72
     1
 10
-2.637567379314042
 20
1.34054621086998
 11
-2.637749954129532
 21
1.340617009723775
 72
     1
 10
-2.637749954129517
 20
1.340617009723779
 11
-2.637890457991503
 21
1.340673665181657
 72
     1
 10
-2.637890457991503
 20
1.340673665181656
 11
-2.639561122476997
 21
1.341324779454454
 72
     1
 10
-2.639561122477005
 20
1.341324779454454
 11
-2.642111383493027
 21
1.342363933904666
 72
     1
 10
-2.642111383493023
 20
1.342363933904666
 11
-2.643936703257487
 21
1.343145023809162
 72
     1
 10
-2.643936703257487
 20
1.343145023809158
 11
-2.644051583002067
 21
1.343192890369399
 72
     1
 10
-2.644051583002067
 20
1.343192890369401
 11
-2.646499787763172
 21
1.344288238229314
 72
     1
 10
-2.646499787763175
 20
1.344288238229314
 11
-2.649110460285349
 21
1.34551946214127
 72
     1
 10
-2.649110460285342
 20
1.34551946214127
 11
-2.650189643427893
 21
1.346044482799435
 72
     1
 10
-2.650189643427893
 20
1.346044482799435
 11
-2.650193047256294
 21
1.346050448220992
 72
     1
 10
-2.650193047256294
 20
1.346050448220994
 11
-2.640347208690663
 21
1.348484954871619
 72
     1
 10
-2.64034720869067
 20
1.348484954871617
 11
-2.60245097875477
 21
1.361134476010255
 72
     1
 10
-2.602450978754767
 20
1.361134476010253
 11
-2.570122939968982
 21
1.377701316061433
 72
     1
 10
-2.570122939968975
 20
1.377701316061436
 11
-2.563286815117077
 21
1.382194293236926
 72
     1
 10
-2.563286815117074
 20
1.382194293236928
 11
-2.559323345104161
 21
1.385005691455386
 72
     1
 10
-2.559323345104161
 20
1.385005691455388
 11
-2.557540883840044
 21
1.386323136437493
 72
     1
 10
-2.55754088384004
 20
1.386323136437495
 11
-2.557535849171589
 21
1.386329055082642
 72
     1
 10
-2.557535849171593
 20
1.386329055082644
 11
-2.556940353623829
 21
1.386778208534245
 72
     1
 10
-2.556940353623829
 20
1.386778208534245
 11
-2.553906933708947
 21
1.389126502362577
 72
     1
 10
-2.553906933708944
 20
1.389126502362579
 11
-2.550949483361566
 21
1.39152365804921
 72
     1
 10
-2.550949483361563
 20
1.39152365804921
 11
-2.550333227703951
 21
1.392038372971395
 72
     1
 10
-2.550333227703951
 20
1.392038372971393
 11
-2.550146007526649
 21
1.392194179800878
 72
     1
 10
-2.550146007526642
 20
1.392194179800883
 11
-2.548652128020354
 21
1.39346152679786
 72
     1
 10
-2.548652128020364
 20
1.393461526797857
 11
-2.545876595614281
 21
1.395901740949515
 72
     1
 10
-2.545876595614274
 20
1.395901740949515
 11
-2.543554559388731
 21
1.398036458451986
 72
     1
 10
-2.543554559388738
 20
1.39803645845199
 11
-2.543447082108496
 21
1.398138643078887
 72
     1
 10
-2.5434470821085
 20
1.398138643078887
 11
-2.543336694361052
 21
1.398240827705784
 72
     1
 10
-2.543336694361045
 20
1.39824082770578
 11
-2.538974471520806
 21
1.402507634811652
 72
     1
 10
-2.538974471520809
 20
1.402507634811653
 11
-2.533824461053967
 21
1.408016976820194
 72
     1
 10
-2.533824461053953
 20
1.408016976820196
 11
-2.531042459071024
 21
1.411245405275849
 72
     1
 10
-2.531042459071024
 20
1.411245405275847
 11
-2.530853126289134
 21
1.411481087308176
 72
     1
 10
-2.530853126289144
 20
1.411481087308178
 11
-2.530474739452984
 21
1.411939969751205
 72
     1
 10
-2.530474739452976
 20
1.411939969751205
 11
-2.528472868111549
 21
1.414421333760428
 72
     1
 10
-2.528472868111556
 20
1.414421333760431
 11
-2.526528271365769
 21
1.416939747804812
 72
     1
 10
-2.526528271365755
 20
1.416939747804812
 11
-2.525586058832217
 21
1.418210280061934
 72
     1
 10
-2.525586058832224
 20
1.418210280061934
 11
-2.524974459187777
 21
1.419069072536156
 72
     1
 10
-2.524974459187774
 20
1.419069072536155
 11
-2.524037983860786
 21
1.420377500711387
 72
     1
 10
-2.5240379838608
 20
1.420377500711389
 11
-2.522644315449326
 21
1.422371958673982
 72
     1
 10
-2.522644315449326
 20
1.422371958673984
 11
-2.521321291019887
 21
1.42433911098233
 72
     1
 10
-2.52132129101988
 20
1.424339110982332
 11
-2.520617969267149
 21
1.425409538321197
 72
     1
 10
-2.520617969267149
 20
1.425409538321197
 11
-2.519923081496049
 21
1.426491947437487
 72
     1
 10
-2.519923081496045
 20
1.426491947437487
 11
-2.518894789409475
 21
1.428142213334053
 72
     1
 10
-2.518894789409472
 20
1.428142213334057
 11
-2.517753862971765
 21
1.430042537279723
 72
     1
 10
-2.517753862971773
 20
1.430042537279726
 11
-2.516788699322955
 21
1.431695586484746
 72
     1
 10
-2.516788699322944
 20
1.431695586484742
 11
-2.516102746788185
 21
1.432885379620804
 72
     1
 10
-2.516102746788185
 20
1.432885379620806
 11
-2.515425622345681
 21
1.434088375390249
 72
     1
 10
-2.515425622345667
 20
1.434088375390249
 11
-2.514376805480843
 21
1.436052939718614
 72
     1
 10
-2.51437680548085
 20
1.436052939718614
 11
-2.513361342145383
 21
1.438034584453095
 72
     1
 10
-2.51336134214538
 20
1.438034584453099
 11
-2.512628042163324
 21
1.439482909382816
 72
     1
 10
-2.512628042163328
 20
1.439482909382816
 11
-2.512032104917626
 21
1.440649344978405
 72
     1
 10
-2.512032104917629
 20
1.440649344978405
 11
-2.511252189832351
 21
1.44228031474279
 72
     1
 10
-2.511252189832362
 20
1.442280314742792
 11
-2.510060171341073
 21
1.4449264010678
 72
     1
 10
-2.510060171341066
 20
1.444926401067801
 11
-2.50891214976653
 21
1.447596642146239
 72
     1
 10
-2.508912149766537
 20
1.447596642146239
 11
-2.508644321902853
 21
1.448205201045388
 72
     1
 10
-2.508644321902856
 20
1.448205201045386
 11
-2.508403951574898
 21
1.448735594015964
 72
     1
 10
-2.508403951574898
 20
1.44873559401596
 11
-2.506786434851463
 21
1.452693885410013
 72
     1
 10
-2.506786434851463
 20
1.452693885410017
 11
-2.501391739744924
 21
1.465918817396101
 72
     1
 10
-2.501391739744917
 20
1.465918817396104
 11
-2.504571904344224
 21
1.47104440570289
 72
     1
 10
-2.504571904344224
 20
1.471044405702887
 11
-2.646865482578323
 21
1.471044405702887
 72
     1
 10
-2.64686548257832
 20
1.471044405702887
 11
-2.64861882184881
 21
1.467283172269075
 72
     1
 10
-2.648618821848813
 20
1.467283172269075
 11
-2.65067762868939
 21
1.460920628736719
 72
     1
 10
-2.650677628689379
 20
1.460920628736719
 11
-2.651299855072615
 21
1.459046577149756
 72
     1
 10
-2.651299855072622
 20
1.459046577149756
 11
-2.651904900107645
 21
1.457476636092485
 72
     1
 10
-2.651904900107645
 20
1.457476636092483
 11
-2.652476989393388
 21
1.456143821851853
 72
     1
 10
-2.652476989393392
 20
1.456143821851856
 11
-2.652690320877407
 21
1.455689036516316
 72
     1
 10
-2.652690320877404
 20
1.455689036516313
 11
-2.652908666012972
 21
1.455233826295046
 72
     1
 10
-2.652908666012969
 20
1.455233826295046
 11
-2.653413055374631
 21
1.454216945926713
 72
     1
 10
-2.653413055374635
 20
1.454216945926711
 11
-2.653995353073945
 21
1.453113912116736
 72
     1
 10
-2.653995353073945
 20
1.453113912116736
 11
-2.654463842178969
 21
1.452265685590752
 72
     1
 10
-2.654463842178977
 20
1.452265685590754
 11
-2.654808868844813
 21
1.451661088342408
 72
     1
 10
-2.65480886884481
 20
1.451661088342406
 11
-2.655206502055403
 21
1.451000364816371
 72
     1
 10
-2.655206502055406
 20
1.451000364816373
 11
-2.65580839169673
 21
1.450061245681986
 72
     1
 10
-2.65580839169673
 20
1.450061245681988
 11
-2.656440193293054
 21
1.44912756508487
 72
     1
 10
-2.656440193293057
 20
1.449127565084872
 11
-2.658478913271807
 21
1.446344591523487
 72
     1
 10
-2.658478913271807
 20
1.446344591523482
 11
-2.661129783816562
 21
1.443197696163311
 72
     1
 10
-2.661129783816562
 20
1.443197696163316
 11
-2.66277545488807
 21
1.441455526572353
 72
     1
 10
-2.662775454888077
 20
1.441455526572349
 11
-2.663008210958508
 21
1.441218658498156
 72
     1
 10
-2.663008210958508
 20
1.44121865849816
 11
-2.663631337646087
 21
1.440597458867253
 72
     1
 10
-2.66363133764608
 20
1.440597458867252
 11
-2.667130277725288
 21
1.437430922254936
 72
     1
 10
-2.667130277725277
 20
1.437430922254939
 11
-2.671039508704176
 21
1.434361429542059
 72
     1
 10
-2.671039508704183
 20
1.434361429542057
 11
-2.682942710564329
 21
1.427123573538533
 72
     1
 10
-2.682942710564333
 20
1.427123573538532
 11
-2.700495311320416
 21
1.420170214192664
 72
     1
 10
-2.700495311320423
 20
1.420170214192664
 11
-2.712274604448364
 21
1.417165596002307
 72
     1
 10
-2.71227460444836
 20
1.417165596002307
 11
-2.712240243277175
 21
1.417131234831115
 72
     1
 10
-2.712240243277165
 20
1.417131234831115
 11
-2.712942033607298
 21
1.416962572723621
 72
     1
 10
-2.712942033607305
 20
1.416962572723621
 11
-2.722053020969376
 21
1.415396440110697
 72
     1
 10
-2.722053020969376
 20
1.415396440110699
 11
-2.731840893778869
 21
1.414278731891227
 72
     1
 10
-2.73184089377888
 20
1.414278731891227
 11
-2.734570898827577
 21
1.414074923517466
 72
     1
 10
-2.73457089882757
 20
1.414074923517462
 11
-2.734600819488171
 21
1.414110828310183
 72
     1
 10
-2.734600819488171
 20
1.414110828310183
 11
-2.736651102608888
 21
1.416269228886067
 72
     1
 10
-2.736651102608895
 20
1.416269228886072
 11
-2.741946316310265
 21
1.421912185306037
 72
     1
 10
-2.741946316310254
 20
1.421912185306036
 11
-2.74704957098524
 21
1.427441305739085
 72
     1
 10
-2.747049570985247
 20
1.427441305739087
 11
-2.747862689998214
 21
1.428325750981265
 72
     1
 10
-2.747862689998214
 20
1.428325750981265
 11
-2.751364900968852
 21
1.432174034074375
 72
     1
 10
-2.751364900968866
 20
1.432174034074382
 11
-2.756404030067201
 21
1.437756767425666
 72
     1
 10
-2.756404030067194
 20
1.437756767425666
 11
-2.759886295382887
 21
1.441647464087729
 72
     1
 10
-2.759886295382891
 20
1.441647464087726
 11
-2.760323320690062
 21
1.442142880614902
 72
     1
 10
-2.760323320690062
 20
1.442142880614902
 11
-2.760759581202925
 21
1.44264063401356
 72
     1
 10
-2.760759581202918
 20
1.442640634013564
 11
-2.765795409860164
 21
1.448306859851907
 72
     1
 10
-2.765795409860167
 20
1.448306859851905
 11
-2.77088071789733
 21
1.454072155879336
 72
     1
 10
-2.770880717897334
 20
1.454072155879339
 11
-2.77291342306572
 21
1.456389077359544
 72
     1
 10
-2.772913423065716
 20
1.456389077359544
 11
-2.773243741474125
 21
1.456766273884182
 72
     1
 10
-2.773243741474139
 20
1.456766273884186
 11
-2.775040752156158
 21
1.458817835412297
 72
     1
 10
-2.775040752156144
 20
1.458817835412297
 11
-2.780374512640349
 21
1.464916272317232
 72
     1
 10
-2.780374512640356
 20
1.464916272317232
 11
-2.78572758418073
 21
1.471046235742912
 72
     1
 10
-2.785727584180726
 20
1.47104623574291
 11
-2.795434784335711
 21
1.482148501294188
 72
     1
 10
-2.795434784335718
 20
1.482148501294188
 11
-2.810428935735277
 21
1.499296805839881
 72
     1
 10
-2.810428935735274
 20
1.499296805839879
 11
-2.833008613053713
 21
1.525058649536747
 72
     1
 10
-2.833008613053713
 20
1.525058649536749
 11
-2.866924104198091
 21
1.562023714991624
 72
     1
 10
-2.866924104198091
 20
1.562023714991626
 11
-2.892175801541238
 21
1.586605225766357
 72
     1
 10
-2.892175801541227
 20
1.586605225766355
 11
-2.892204708583015
 21
1.586576318724571
 72
     1
 10
-2.892204708583015
 20
1.586576318724574
 11
-2.895215328779229
 21
1.589293298254577
 72
     1
 10
-2.895215328779229
 20
1.589293298254577
 11
-2.898564758620992
 21
1.592260125323146
 72
     1
 10
-2.898564758620992
 20
1.592260125323145
 11
-2.920034816257683
 21
1.609117818672528
 72
     1
 10
-2.920034816257675
 20
1.609117818672528
 11
-2.956318221400664
 21
1.62843141493202
 72
     1
 10
-2.956318221400664
 20
1.628431414932022
 11
-3.003320864733428
 21
1.631394449812948
 72
     1
 10
-3.003320864733431
 20
1.631394449812948
 11
-3.108956850517316
 21
1.571993967395421
 72
     1
 10
-3.108956850517316
 20
1.571993967395421
 11
-3.206718641615186
 21
1.485337469403996
 72
     1
 10
-3.206718641615175
 20
1.485337469403996
 11
-3.221201055754359
 21
1.470875299904337
 72
     1
 10
-3.221201055754363
 20
1.470875299904337
 11
-3.225354231591037
 21
1.466652420979881
 72
     1
 10
-3.22535423159104
 20
1.466652420979881
 11
-3.228688099428115
 21
1.460633098949537
 72
     1
 10
-3.228688099428111
 20
1.460633098949537
 11
-3.231432881899301
 21
1.452669125390229
 72
     1
 10
-3.231432881899301
 20
1.452669125390228
 11
-3.237533890760559
 21
1.434977210212581
 72
     1
 10
-3.237533890760559
 20
1.434977210212581
 11
-3.258808199505953
 21
1.373321091798109
 72
     1
 10
-3.258808199505956
 20
1.373321091798107
 11
-3.269751836750153
 21
1.341601104373708
 72
     1
 10
-3.269751836750153
 20
1.341601104373715
 11
-3.231926243100055
 21
1.340623072732086
 72
     1
 10
-3.231926243100048
 20
1.34062307273208
 11
-3.149263485663183
 21
1.34062307273208
 72
     1
 10
-3.14926348566319
 20
1.34062307273208
 11
-3.130392422051418
 21
1.340726466002285
 72
     1
 10
-3.130392422051414
 20
1.340726466002287
 11
-3.13007322476697
 21
1.341652202470733
 72
     1
 10
-3.130073224766967
 20
1.341652202470735
 11
-3.127880137933374
 21
1.348015350579844
 72
     1
 10
-3.127880137933381
 20
1.348015350579844
 11
-3.088652409592825
 21
1.461719255681774
 72
     1
 10
-3.08865240959281
 20
1.461719255681774
 11
-3.04698226815455
 21
1.582503583959541
 72
     1
 10
-3.04698226815455
 20
1.582503583959542
 11
-3.011042756770102
 21
1.593580960368353
 72
     1
 10
-3.011042756770102
 20
1.593580960368351
 11
-2.933531051777105
 21
1.593580960368351
 72
     1
 10
-2.933531051777102
 20
1.593580960368351
 11
-2.910457184097772
 21
1.591342134555544
 72
     1
 10
-2.910457184097765
 20
1.591342134555544
 11
-2.903732879801307
 21
1.585668186620022
 72
     1
 10
-2.90373287980131
 20
1.585668186620019
 11
-2.898669431520445
 21
1.578445120572006
 72
     1
 10
-2.898669431520453
 20
1.578445120572006
 11
-2.916186673760822
 21
1.551756141341432
 72
     1
 10
-2.916186673760819
 20
1.55175614134143
 11
-2.930037152200284
 21
1.522411881265268
 72
     1
 10
-2.930037152200284
 20
1.522411881265265
 11
-2.942938417038661
 21
1.471599197237607
 72
     1
 10
-2.942938417038647
 20
1.471599197237603
 11
-2.938266223799544
 21
1.420001634178719
 72
     1
 10
-2.938266223799544
 20
1.420001634178724
 11
-2.909641328734544
 21
1.375772835776359
 72
     1
 10
-2.909641328734544
 20
1.375772835776357
 11
-2.850452234176231
 21
1.344534804252512
 72
     1
 10
-2.850452234176238
 20
1.344534804252512
 11
-2.765840622333584
 21
1.334323259013123
 72
     1
 10
-2.765840622333577
 20
1.334323259013125
 11
-2.759999616185289
 21
1.334350634452318
 72
     1
 10
-2.759999616185297
 20
1.334350634452318
 11
-2.754217520442693
 21
1.334427679032684
 72
     1
 10
-2.754217520442693
 20
1.334427679032684
 11
-2.751383856767205
 21
1.334484537931587
 72
     1
 10
-2.751383856767198
 20
1.334484537931585
 11
-2.749998500328885
 21
1.334525446435865
 72
     1
 10
-2.749998500328878
 20
1.334525446435865
 11
-2.7476746885151
 21
1.334586717937462
 72
     1
 10
-2.747674688515097
 20
1.334586717937463
 11
-2.743396084041297
 21
1.334704850461617
 72
     1
 10
-2.743396084041307
 20
1.334704850461617
 11
-2.739155209419823
 21
1.334858333478036
 72
     1
 10
-2.739155209419827
 20
1.334858333478036
 11
-2.737420113574778
 21
1.334933499242291
 72
     1
 10
-2.737420113574778
 20
1.334933499242291
 11
-2.735763231737923
 21
1.335013756062679
 72
     1
 10
-2.735763231737934
 20
1.335013756062677
 11
-2.732695814982754
 21
1.335159209672882
 72
     1
 10
-2.73269581498274
 20
1.335159209672884
 11
-2.728799175011523
 21
1.335365598952948
 72
     1
 10
-2.728799175011523
 20
1.335365598952948
 11
-2.725545058182888
 21
1.335558979988753
 72
     1
 10
-2.725545058182888
 20
1.335558979988759
 11
-2.723903055142457
 21
1.335665765140547
 72
     1
 10
-2.723903055142457
 20
1.335665765140545
 11
-2.722265088516408
 21
1.335775651958122
 72
     1
 10
-2.722265088516408
 20
1.335775651958122
 11
-2.718581972698192
 21
1.336041993051376
 72
     1
 10
-2.718581972698189
 20
1.336041993051376
 11
-2.714763296268895
 21
1.336332012185764
 72
     1
 10
-2.714763296268898
 20
1.336332012185762
 11
-2.712296288415537
 21
1.336538683521382
 72
     1
 10
-2.712296288415544
 20
1.336538683521384
 11
-2.710804722077828
 21
1.336675255761136
 72
     1
 10
-2.710804722077831
 20
1.336675255761134
 11
-2.708760150315058
 21
1.336865791142592
 72
     1
 10
-2.70876015031505
 20
1.336865791142592
 11
-2.70486019519571
 21
1.337240728691464
 72
     1
 10
-2.704860195195706
 20
1.337240728691464
 11
-2.70099830983727
 21
1.337643113858126
 72
     1
 10
-2.700998309837274
 20
1.337643113858124
 11
-2.699405095584882
 21
1.337816901632601
 72
     1
 10
-2.699405095584879
 20
1.337816901632605
 11
-2.698124229753016
 21
1.337957405494588
 72
     1
 10
-2.698124229753013
 20
1.337957405494586
 11
-2.695358107768232
 21
1.338284499569235
 72
     1
 10
-2.695358107768242
 20
1.338284499569235
 11
-2.691307911659986
 21
1.338792329223801
 72
     1
 10
-2.691307911659983
 20
1.338792329223801
 11
-2.687852317155691
 21
1.339246548935513
 72
     1
 10
-2.687852317155694
 20
1.339246548935513
 11
-2.686876678313694
 21
1.339374279719134
 72
     1
 10
-2.686876678313694
 20
1.339374279719132
 11
-2.685901124448839
 21
1.33950201050275
 72
     1
 10
-2.685901124448839
 20
1.33950201050275
 11
-2.682080180997374
 21
1.340056999933628
 72
     1
 10
-2.682080180997367
 20
1.340056999933631
 11
-2.677741746863986
 21
1.340726438966383
 72
     1
 10
-2.677741746863986
 20
1.340726438966383
 11
-2.675269046136467
 21
1.34112542678706
 72
     1
 10
-2.675269046136463
 20
1.341125426787057
 11
-2.674727962709731
 21
1.341209001549161
 72
     1
 10
-2.674727962709724
 20
1.341209001549161
 11
-2.673597636373052
 21
1.34139596298819
 72
     1
 10
-2.673597636373067
 20
1.34139596298819
 11
-2.668770958062893
 21
1.342241181532926
 72
     1
 10
-2.668770958062893
 20
1.34224118153293
 11
-2.664003763754127
 21
1.343129908375837
 72
     1
 10
-2.664003763754116
 20
1.343129908375841
 11
-2.642149383160827
 21
1.333289524579157
 72
     1
 10
-2.642149383160834
 20
1.333289524579159
 11
-2.614998830038285
 21
1.325963834624706
 72
     1
 10
-2.614998830038281
 20
1.325963834624703
 11
-2.585271782430449
 21
1.325834472426761
 72
     1
 10
-2.585271782430446
 20
1.325834472426766
 11
-2.551559223691985
 21
1.334884824275658
 72
     1
 10
-2.551559223691981
 20
1.334884824275656
 11
-2.519306791036257
 21
1.349752816033008
 72
     1
 10
-2.519306791036257
 20
1.349752816033007
 11
-2.411703997995147
 21
1.349752816033007
 72
     1
 10
-2.411703997995147
 20
1.349752816033007
 11
-2.396620323563873
 21
1.380657296714034
 72
     1
 10
-2.39662032356388
 20
1.380657296714035
 11
-2.367952577549928
 21
1.458625195727153
 72
     1
 10
-2.367952577549921
 20
1.458625195727154
 11
-2.359476766805858
 21
1.481676638238235
 72
     1
 10
-2.359476766805869
 20
1.481676638238242
 11
-2.355290561691312
 21
1.493059733357826
 72
     1
 10
-2.355290561691305
 20
1.493059733357826
 11
-2.352610483183077
 21
1.500348140241431
 72
     1
 10
-2.352610483183084
 20
1.500348140241429
 11
-2.352613981178819
 21
1.500345702587287
 72
     1
 10
-2.352613981178812
 20
1.500345702587285
 11
-2.35261098209629
 21
1.500351700752327
 72
     1
 10
-2.352610982096287
 20
1.500351700752327
 11
-2.364549545488063
 21
1.487653862933617
 72
     1
 10
-2.364549545488067
 20
1.487653862933616
 11
-2.435777706425696
 21
1.420217775349078
 72
     1
 10
-2.435777706425696
 20
1.420217775349076
 11
-2.534754920331732
 21
1.351512766548847
 97
        0
 92
        1
 93
       42
 72
     1
 10
-2.776678118228055
 20
1.447975980238888
 11
-2.761125222192191
 21
1.430472953849266
 72
     1
 10
-2.761125222192191
 20
1.430472953849269
 11
-2.74561899151098
 21
1.413571021669943
 72
     1
 10
-2.745618991510987
 20
1.413571021669941
 11
-2.747652684330077
 21
1.413504773532624
 72
     1
 10
-2.747652684330077
 20
1.413504773532624
 11
-2.749708876516546
 21
1.413461024762701
 72
     1
 10
-2.749708876516542
 20
1.4134610247627
 11
-2.756247622709146
 21
1.413667274107664
 72
     1
 10
-2.756247622709146
 20
1.413667274107664
 11
-2.762282185546901
 21
1.414287338977958
 72
     1
 10
-2.762282185546901
 20
1.41428733897796
 11
-2.767819478415667
 21
1.415323194626687
 72
     1
 10
-2.767819478415674
 20
1.415323194626683
 11
-2.772866414701326
 21
1.416776816306949
 72
     1
 10
-2.772866414701326
 20
1.416776816306951
 11
-2.77742970203419
 21
1.418650206705931
 72
     1
 10
-2.777429702034197
 20
1.418650206705931
 11
-2.781514648906995
 21
1.420945999494428
 72
     1
 10
-2.781514648906991
 20
1.420945999494428
 11
-2.785127016474621
 21
1.423667459326878
 72
     1
 10
-2.785127016474625
 20
1.423667459326876
 11
-2.788272730496384
 21
1.426817878291789
 72
     1
 10
-2.788272730496373
 20
1.426817878291789
 11
-2.790982391198522
 21
1.430433472474058
 72
     1
 10
-2.790982391198525
 20
1.430433472474058
 11
-2.792133933660135
 21
1.432360493370328
 72
     1
 10
-2.792133933660146
 20
1.432360493370326
 11
-2.793192653892319
 21
1.43441043573252
 72
     1
 10
-2.793192653892319
 20
1.434410435732523
 11
-2.793451396617303
 21
1.434996669249505
 72
     1
 10
-2.7934513966173
 20
1.434996669249503
 11
-2.793702639553156
 21
1.435590402555639
 72
     1
 10
-2.79370263955316
 20
1.435590402555639
 11
-2.794368245838445
 21
1.437161608378374
 72
     1
 10
-2.794368245838448
 20
1.437161608378376
 11
-2.794977603705262
 21
1.438770313146759
 72
     1
 10
-2.794977603705255
 20
1.438770313146759
 11
-2.7952150970277
 21
1.439487792973501
 72
     1
 10
-2.7952150970277
 20
1.439487792973501
 11
-2.795437590771832
 21
1.440220272378532
 72
     1
 10
-2.795437590771825
 20
1.440220272378534
 11
-2.795925702047775
 21
1.441843976725188
 72
     1
 10
-2.795925702047782
 20
1.441843976725188
 11
-2.796357564905196
 21
1.443505180017485
 72
     1
 10
-2.796357564905186
 20
1.443505180017485
 11
-2.79652818510787
 21
1.444225159773957
 72
     1
 10
-2.796528185107874
 20
1.444225159773958
 11
-2.796687555626903
 21
1.444945139530451
 72
     1
 10
-2.796687555626903
 20
1.444945139530453
 11
-2.797052545364564
 21
1.446775088078224
 72
     1
 10
-2.797052545364564
 20
1.446775088078224
 11
-2.797357536789185
 21
1.448635035782375
 72
     1
 10
-2.797357536789185
 20
1.448635035782375
 11
-2.797451284153307
 21
1.449235018912949
 72
     1
 10
-2.797451284153311
 20
1.449235018912952
 11
-2.797537531728302
 21
1.449835002043208
 72
     1
 10
-2.797537531728295
 20
1.44983500204321
 11
-2.79780064933027
 21
1.45208493878221
 72
     1
 10
-2.797800649330277
 20
1.45208493878221
 11
-2.797992518935529
 21
1.454364874677761
 72
     1
 10
-2.797992518935529
 20
1.454364874677757
 11
-2.798010643425925
 21
1.454629867227019
 72
     1
 10
-2.798010643425925
 20
1.454629867227025
 11
-2.798032517810884
 21
1.45489485977629
 72
     1
 10
-2.798032517810888
 20
1.45489485977629
 11
-2.798191772592417
 21
1.460432481853892
 72
     1
 10
-2.798191772592417
 20
1.460432481853892
 11
-2.798016592332736
 21
1.466090100557586
 72
     1
 10
-2.798016592332736
 20
1.466090100557586
 11
-2.797532531868885
 21
1.471814384053569
 72
     1
 10
-2.797532531868881
 20
1.471814384053571
 11
-2.795821979964113
 21
1.469859319023724
 72
     1
 10
-2.795821979964117
 20
1.469859319023724
 11
-2.79438502036681
 21
1.468216725208188
 72
     1
 10
-2.794385020366803
 20
1.468216725208188
 11
-2.793282851356252
 21
1.466956680636597
 72
     1
 10
-2.793282851356252
 20
1.466956680636593
 11
-2.792576671211772
 21
1.466149263338577
 72
     1
 10
-2.792576671211776
 20
1.466149263338577
 11
-2.792327678212661
 21
1.465864551343766
 72
     1
 10
-2.792327678212664
 20
1.465864551343768
 11
-2.776678118228055
 21
1.447975980238895
 97
        0
 75
     2
 76
     1
 98
        1
 10
-3.593740145066867
 20
0.4898819928401199
450
        0
451
        0
460
0.0
461
0.0
452
        0
462
0.0
453
        0
470

1001
AcDbBlockRepETag
1070
     1
1071
       74
1005
140C
  0
ENDBLK
  5
47D
330
42D
100
AcDbEntity
  8
0
100
AcDbBlockEnd
  0
BLOCK
  5
533
330
52A
100
AcDbEntity
  8
0
100
AcDbBlockBegin
  2
REVISE12
 70
     2
 10
0.0
 20
0.0
 30
0.0
  3
REVISE12
  1

  0
ATTDEF
  5
52B
330
52A
100
AcDbEntity
  8
0
100
AcDbText
 10
0.03125
 20
0.0625000000000009
 30
0.0
 40
0.125
  1

 41
0.9
 72
     5
 11
0.21875
 21
0.0625000000000009
 31
0.0
100
AcDbAttributeDefinition
280
     0
  3
REVISION NO.
  2
NO
 70
     8
280
     0
  0
ATTDEF
  5
52C
330
52A
100
AcDbEntity
  8
0
100
AcDbText
 10
0.3125
 20
0.0625000000000009
 30
0.0
 40
0.125
  1

100
AcDbAttributeDefinition
280
     0
  3
REVISION
  2
REV
 70
     8
280
     0
  0
ATTDEF
  5
52D
330
52A
100
AcDbEntity
  8
0
100
AcDbText
 10
2.8125
 20
0.0625000000000009
 30
0.0
 40
0.125
  1

 41
1.125
 72
     5
 11
3.46875
 21
0.0625000000000009
 31
0.0
100
AcDbAttributeDefinition
280
     0
  3
REVISION DATE
  2
RDATE
 70
     8
280
     0
  0
ATTDEF
  5
52E
330
52A
100
AcDbEntity
  8
0
100
AcDbText
 10
3.53125
 20
0.0625000000000009
 30
0.0
 40
0.125
  1

100
AcDbAttributeDefinition
280
     0
  3
REVISION BY
  2
BY
 70
     8
280
     0
  0
LINE
  5
52F
330
52A
100
AcDbEntity
  8
0
100
AcDbLine
 10
0.0
 20
0.0
 30
0.0
 11
0.0
 21
0.2500000000000009
 31
0.0
  0
LINE
  5
530
330
52A
100
AcDbEntity
  8
0
100
AcDbLine
 10
0.25
 20
0.2500000000000009
 30
0.0
 11
0.25
 21
0.0000000000000009
 31
0.0
  0
LINE
  5
531
330
52A
100
AcDbEntity
  8
0
100
AcDbLine
 10
2.75
 20
0.2500000000000009
 30
0.0
 11
2.75
 21
0.0000000000000009
 31
0.0
  0
LINE
  5
532
330
52A
100
AcDbEntity
  8
0
100
AcDbLine
 10
3.5
 20
0.2500000000000009
 30
0.0
 11
3.5
 21
0.0000000000000009
 31
0.0
  0
ENDBLK
  5
534
330
52A
100
AcDbEntity
  8
0
100
AcDbBlockEnd
  0
BLOCK
  5
716
330
70B
100
AcDbEntity
  8
0
 62
     7
100
AcDbBlockBegin
  2
*D5
 70
     1
 10
0.0
 20
0.0
 30
0.0
  3
*D5
  1

  0
LINE
  5
1433
330
70B
100
AcDbEntity
  8
DIM
 62
     0
440
 16777216
370
    -2
100
AcDbLine
 10
12.57276959221632
 20
5.755452988856917
 30
0.0
 11
12.57276959221632
 21
4.481466046410436
 31
0.0
  0
LINE
  5
1434
330
70B
100
AcDbEntity
  8
DIM
 62
     0
440
 16777216
370
    -2
100
AcDbLine
 10
13.10276959221632
 20
6.805090124288683
 30
0.0
 11
13.10276959221632
 21
4.481466046410435
 31
0.0
  0
LINE
  5
1435
330
70B
100
AcDbEntity
  8
DIM
 62
     0
440
 16777216
370
    -2
100
AcDbLine
 10
12.39276959221632
 20
4.661466046410436
 30
0.0
 11
12.21276959221632
 21
4.661466046410436
 31
0.0
  0
LINE
  5
1436
330
70B
100
AcDbEntity
  8
DIM
 62
     0
440
 16777216
370
    -2
100
AcDbLine
 10
13.28276959221632
 20
4.661466046410436
 30
0.0
 11
13.63912283412429
 21
4.661466046410436
 31
0.0
  0
SOLID
  5
1437
330
70B
100
AcDbEntity
  8
DIM
 62
     0
440
 16777216
100
AcDbTrace
 10
12.39276959221632
 20
4.691466046410436
 30
0.0
 11
12.39276959221632
 21
4.631466046410436
 31
0.0
 12
12.57276959221632
 22
4.661466046410436
 32
0.0
 13
12.57276959221632
 23
4.661466046410436
 33
0.0
  0
SOLID
  5
1438
330
70B
100
AcDbEntity
  8
DIM
 62
     0
440
 16777216
100
AcDbTrace
 10
13.28276959221632
 20
4.691466046410436
 30
0.0
 11
13.28276959221632
 21
4.631466046410436
 31
0.0
 12
13.10276959221632
 22
4.661466046410436
 32
0.0
 13
13.10276959221632
 23
4.661466046410436
 33
0.0
  0
MTEXT
  5
1439
330
70B
100
AcDbEntity
  8
DIM
 62
     0
440
 16777216
370
    25
100
AcDbMText
 10
13.90912283412428
 20
4.661466046410436
 30
0.0
 40
0.18
 41
0.0
 46
0.0
 71
     5
 72
     1
  1
\A1;.53
 73
     1
 44
1.0
  0
POINT
  5
143A
330
70B
100
AcDbEntity
  8
Defpoints
 62
     0
440
 16777216
100
AcDbPoint
 10
12.57276959221632
 20
5.817952988856917
 30
0.0
  0
POINT
  5
143B
330
70B
100
AcDbEntity
  8
Defpoints
 62
     0
440
 16777216
100
AcDbPoint
 10
13.10276959221632
 20
6.867590124288683
 30
0.0
  0
POINT
  5
143C
330
70B
100
AcDbEntity
  8
Defpoints
 62
     0
440
 16777216
100
AcDbPoint
 10
13.10276959221632
 20
4.661466046410436
 30
0.0
  0
ENDBLK
  5
717
330
70B
100
AcDbEntity
  8
0
 62
     7
100
AcDbBlockEnd
  0
BLOCK
  5
C0B
330
C00
100
AcDbEntity
  8
0
 62
     7
100
AcDbBlockBegin
  2
*D6
 70
     1
 10
0.0
 20
0.0
 30
0.0
  3
*D6
  1

  0
LINE
  5
1429
330
C00
100
AcDbEntity
  8
DIM
 62
     0
440
 16777216
370
    -2
100
AcDbLine
 10
12.51026959221632
 20
5.822427858663054
 30
0.0
 11
14.43345520808536
 21
5.822427858663053
 31
0.0
  0
LINE
  5
142A
330
C00
100
AcDbEntity
  8
DIM
 62
     0
440
 16777216
370
    -2
100
AcDbLine
 10
12.51026959221632
 20
8.347427858663056
 30
0.0
 11
14.43345520808536
 21
8.347427858663056
 31
0.0
  0
LINE
  5
142B
330
C00
100
AcDbEntity
  8
DIM
 62
     0
440
 16777216
370
    -2
100
AcDbLine
 10
14.25345520808536
 20
6.002427858663053
 30
0.0
 11
14.25345520808536
 21
6.842576018602638
 31
0.0
  0
LINE
  5
142C
330
C00
100
AcDbEntity
  8
DIM
 62
     0
440
 16777216
370
    -2
100
AcDbLine
 10
14.25345520808536
 20
8.167427858663057
 30
0.0
 11
14.25345520808536
 21
7.202576018602638
 31
0.0
  0
SOLID
  5
142D
330
C00
100
AcDbEntity
  8
DIM
 62
     0
440
 16777216
100
AcDbTrace
 10
14.22345520808536
 20
6.002427858663053
 30
0.0
 11
14.28345520808536
 21
6.002427858663053
 31
0.0
 12
14.25345520808536
 22
5.822427858663053
 32
0.0
 13
14.25345520808536
 23
5.822427858663053
 33
0.0
  0
SOLID
  5
142E
330
C00
100
AcDbEntity
  8
DIM
 62
     0
440
 16777216
100
AcDbTrace
 10
14.22345520808536
 20
8.167427858663057
 30
0.0
 11
14.28345520808536
 21
8.167427858663057
 31
0.0
 12
14.25345520808536
 22
8.347427858663056
 32
0.0
 13
14.25345520808536
 23
8.347427858663056
 33
0.0
  0
MTEXT
  5
142F
330
C00
100
AcDbEntity
  8
DIM
 62
     0
440
 16777216
370
    25
100
AcDbMText
 10
14.25345520808536
 20
7.022576018602641
 30
0.0
 40
0.18
 41
0.0
 46
0.0
 71
     5
 72
     1
  1
\A1;2.53
 73
     1
 44
1.0
  0
POINT
  5
1430
330
C00
100
AcDbEntity
  8
Defpoints
 62
     0
440
 16777216
100
AcDbPoint
 10
12.44776959221632
 20
5.822427858663054
 30
0.0
  0
POINT
  5
1431
330
C00
100
AcDbEntity
  8
Defpoints
 62
     0
440
 16777216
100
AcDbPoint
 10
12.44776959221632
 20
8.347427858663056
 30
0.0
  0
POINT
  5
1432
330
C00
100
AcDbEntity
  8
Defpoints
 62
     0
440
 16777216
100
AcDbPoint
 10
14.25345520808536
 20
8.347427858663056
 30
0.0
  0
ENDBLK
  5
C0C
330
C00
100
AcDbEntity
  8
0
 62
     7
100
AcDbBlockEnd
  0
BLOCK
  5
CC6
330
CBB
100
AcDbEntity
  8
0
100
AcDbBlockBegin
  2
*D7
 70
     1
 10
0.0
 20
0.0
 30
0.0
  3
*D7
  1

  0
LINE
  5
141F
330
CBB
100
AcDbEntity
  8
DIM
 62
     0
440
 16777216
370
    -2
100
AcDbLine
 10
5.152769592216326
 20
5.74833145725099
 30
0.0
 11
5.152769592216326
 21
4.480825454072987
 31
0.0
  0
LINE
  5
1420
330
CBB
100
AcDbEntity
  8
DIM
 62
     0
440
 16777216
370
    -2
100
AcDbLine
 10
12.57276959221633
 20
5.884927858663054
 30
0.0
 11
12.57276959221633
 21
4.480825454072987
 31
0.0
  0
LINE
  5
1421
330
CBB
100
AcDbEntity
  8
DIM
 62
     0
440
 16777216
370
    -2
100
AcDbLine
 10
5.332769592216326
 20
4.660825454072987
 30
0.0
 11
8.502769592216328
 21
4.660825454072987
 31
0.0
  0
LINE
  5
1422
330
CBB
100
AcDbEntity
  8
DIM
 62
     0
440
 16777216
370
    -2
100
AcDbLine
 10
12.39276959221633
 20
4.660825454072987
 30
0.0
 11
9.222769592216327
 21
4.660825454072987
 31
0.0
  0
SOLID
  5
1423
330
CBB
100
AcDbEntity
  8
DIM
 62
     0
440
 16777216
100
AcDbTrace
 10
5.332769592216326
 20
4.690825454072987
 30
0.0
 11
5.332769592216326
 21
4.630825454072986
 31
0.0
 12
5.152769592216326
 22
4.660825454072987
 32
0.0
 13
5.152769592216326
 23
4.660825454072987
 33
0.0
  0
SOLID
  5
1424
330
CBB
100
AcDbEntity
  8
DIM
 62
     0
440
 16777216
100
AcDbTrace
 10
12.39276959221633
 20
4.690825454072987
 30
0.0
 11
12.39276959221633
 21
4.630825454072986
 31
0.0
 12
12.57276959221633
 22
4.660825454072987
 32
0.0
 13
12.57276959221633
 23
4.660825454072987
 33
0.0
  0
MTEXT
  5
1425
330
CBB
100
AcDbEntity
  8
DIM
 62
     0
440
 16777216
370
    25
100
AcDbMText
 10
8.862769592216327
 20
4.660825454072987
 30
0.0
 40
0.18
 41
0.0
 46
0.0
 71
     5
 72
     1
  1
\A1;7.42
 73
     1
 44
1.0
  0
POINT
  5
1426
330
CBB
100
AcDbEntity
  8
Defpoints
 62
     0
440
 16777216
100
AcDbPoint
 10
5.152769592216326
 20
5.81083145725099
 30
0.0
  0
POINT
  5
1427
330
CBB
100
AcDbEntity
  8
Defpoints
 62
     0
440
 16777216
100
AcDbPoint
 10
12.57276959221633
 20
5.947427858663054
 30
0.0
  0
POINT
  5
1428
330
CBB
100
AcDbEntity
  8
Defpoints
 62
     0
440
 16777216
100
AcDbPoint
 10
12.57276959221633
 20
4.660825454072987
 30
0.0
  0
ENDBLK
  5
CC7
330
CBB
100
AcDbEntity
  8
0
100
AcDbBlockEnd
  0
BLOCK
  5
1078
330
106D
100
AcDbEntity
  8
0
100
AcDbBlockBegin
  2
*D8
 70
     1
 10
0.0
 20
0.0
 30
0.0
  3
*D8
  1

  0
LINE
  5
1415
330
106D
100
AcDbEntity
  8
DIM
 62
     0
440
 16777216
370
    -2
100
AcDbLine
 10
5.152769592216326
 20
5.74833145725099
 30
0.0
 11
5.152769592216326
 21
4.480883575503806
 31
0.0
  0
LINE
  5
1416
330
106D
100
AcDbEntity
  8
DIM
 62
     0
440
 16777216
370
    -2
100
AcDbLine
 10
4.402769592216324
 20
6.452352109942133
 30
0.0
 11
4.402769592216324
 21
4.480883575503806
 31
0.0
  0
LINE
  5
1417
330
106D
100
AcDbEntity
  8
DIM
 62
     0
440
 16777216
370
    -2
100
AcDbLine
 10
4.972769592216327
 20
4.660883575503806
 30
0.0
 11
4.582769592216323
 21
4.660883575503806
 31
0.0
  0
LINE
  5
1418
330
106D
100
AcDbEntity
  8
DIM
 62
     0
440
 16777216
370
    -2
100
AcDbLine
 10
4.402769592216324
 20
4.660883575503806
 30
0.0
 11
4.222769592216323
 21
4.660883575503806
 31
0.0
  0
SOLID
  5
1419
330
106D
100
AcDbEntity
  8
DIM
 62
     0
440
 16777216
100
AcDbTrace
 10
4.972769592216327
 20
4.690883575503806
 30
0.0
 11
4.972769592216327
 21
4.630883575503806
 31
0.0
 12
5.152769592216326
 22
4.660883575503806
 32
0.0
 13
5.152769592216326
 23
4.660883575503806
 33
0.0
  0
SOLID
  5
141A
330
106D
100
AcDbEntity
  8
DIM
 62
     0
440
 16777216
100
AcDbTrace
 10
4.582769592216323
 20
4.690883575503806
 30
0.0
 11
4.582769592216323
 21
4.630883575503806
 31
0.0
 12
4.402769592216324
 22
4.660883575503806
 32
0.0
 13
4.402769592216324
 23
4.660883575503806
 33
0.0
  0
MTEXT
  5
141B
330
106D
100
AcDbEntity
  8
DIM
 62
     0
440
 16777216
370
    25
100
AcDbMText
 10
3.952769592216323
 20
4.660883575503806
 30
0.0
 40
0.18
 41
0.0
 46
0.0
 71
     5
 72
     1
  1
\A1;.75
 73
     1
 44
1.0
  0
POINT
  5
141C
330
106D
100
AcDbEntity
  8
Defpoints
 62
     0
440
 16777216
100
AcDbPoint
 10
5.152769592216326
 20
5.81083145725099
 30
0.0
  0
POINT
  5
141D
330
106D
100
AcDbEntity
  8
Defpoints
 62
     0
440
 16777216
100
AcDbPoint
 10
4.402769592216324
 20
6.514852109942133
 30
0.0
  0
POINT
  5
141E
330
106D
100
AcDbEntity
  8
Defpoints
 62
     0
440
 16777216
100
AcDbPoint
 10
4.402769592216324
 20
4.660883575503806
 30
0.0
  0
ENDBLK
  5
1079
330
106D
100
AcDbEntity
  8
0
100
AcDbBlockEnd
  0
BLOCK
  5
1184
330
1183
100
AcDbEntity
  8
0
100
AcDbBlockBegin
  2
nut
 70
     0
 10
0.0
 20
0.0
 30
0.0
  3
nut
  1

  0
LINE
  5
1186
330
1183
100
AcDbEntity
  8
0
100
AcDbLine
 10
0.2044750676435871
 20
-0.2203070197410355
 30
0.0
 11
0.0255249323564186
 21
-0.2203070197410364
 31
0.0
  0
LINE
  5
1187
330
1183
100
AcDbEntity
  8
0
100
AcDbLine
 10
0.2044750676435854
 20
0.2203070197410311
 30
0.0
 11
0.0255249323564186
 21
0.2203070197410293
 31
0.0
  0
LINE
  5
1188
330
1183
100
AcDbEntity
  8
0
100
AcDbLine
 10
0.2122464558491988
 20
0.4406140394820595
 30
0.0
 11
0.0177535441508017
 21
0.4406140394820604
 31
0.0
  0
LINE
  5
1189
330
1183
100
AcDbEntity
  8
0
100
AcDbLine
 10
0.2122464558492005
 20
-0.4406140394820675
 30
0.0
 11
0.0177535441508034
 21
-0.4406140394820684
 31
0.0
  0
LINE
  5
118A
330
1183
100
AcDbEntity
  8
0
100
AcDbLine
 10
0.0177535441508034
 20
-0.4406140394820684
 30
0.0
 11
0.0
 21
-0.3755616537228334
 31
0.0
  0
ARC
  5
118B
330
1183
100
AcDbEntity
  8
0
100
AcDbCircle
 10
0.2502906852122351
 20
-0.3304605296115506
 30
0.0
 40
0.2503066906689392
100
AcDbArc
 50
153.8913862442107
 51
206.1086137557896
  0
LINE
  5
118C
330
1183
100
AcDbEntity
  8
0
100
AcDbLine
 10
0.0
 20
0.3755616537228299
 30
0.0
 11
0.0
 21
-0.3755616537228299
 31
0.0
  0
ARC
  5
118D
330
1183
100
AcDbEntity
  8
0
100
AcDbCircle
 10
0.9635031433610556
 20
-0.0000000000000009
 30
0.0
 40
0.9635031433610558
100
AcDbArc
 50
166.78227161072
 51
193.2177283892801
  0
LINE
  5
118E
330
1183
100
AcDbEntity
  8
0
100
AcDbLine
 10
0.0177535441508034
 20
0.4406140394820595
 30
0.0
 11
0.0
 21
0.3755616537228246
 31
0.0
  0
ARC
  5
118F
330
1183
100
AcDbEntity
  8
0
100
AcDbCircle
 10
0.2502906852122351
 20
0.3304605296115461
 30
0.0
 40
0.2503066906689392
100
AcDbArc
 50
153.8913862442107
 51
206.1086137557896
  0
ARC
  5
1190
330
1183
100
AcDbEntity
  8
0
100
AcDbCircle
 10
-0.0202906852122311
 20
-0.3304605296115506
 30
0.0
 40
0.2503066906689392
100
AcDbArc
 50
333.8913862442104
 51
26.1086137557893
  0
LINE
  5
1191
330
1183
100
AcDbEntity
  8
0
100
AcDbLine
 10
0.2122464558492005
 20
-0.4406140394820684
 30
0.0
 11
0.230000000000004
 21
-0.3755616537228334
 31
0.0
  0
ARC
  5
1192
330
1183
100
AcDbEntity
  8
0
100
AcDbCircle
 10
-0.7335031433610518
 20
-0.0000000000000009
 30
0.0
 40
0.9635031433610558
100
AcDbArc
 50
346.7822716107199
 51
13.21772838928001
  0
LINE
  5
1193
330
1183
100
AcDbEntity
  8
0
100
AcDbLine
 10
0.230000000000004
 20
0.3755616537228299
 30
0.0
 11
0.230000000000004
 21
-0.3755616537228299
 31
0.0
  0
ARC
  5
1194
330
1183
100
AcDbEntity
  8
0
100
AcDbCircle
 10
-0.0202906852122311
 20
0.3304605296115461
 30
0.0
 40
0.2503066906689392
100
AcDbArc
 50
333.8913862442104
 51
26.1086137557893
  0
LINE
  5
1195
330
1183
100
AcDbEntity
  8
0
100
AcDbLine
 10
0.2122464558492005
 20
0.4406140394820595
 30
0.0
 11
0.230000000000004
 21
0.3755616537228246
 31
0.0
  0
ENDBLK
  5
1185
330
1183
100
AcDbEntity
  8
0
100
AcDbBlockEnd
  0
BLOCK
  5
1199
330
1197
100
AcDbEntity
  8
0
100
AcDbBlockBegin
  2
A$C5FFD3D1B
 70
     0
 10
0.0
 20
0.0
 30
0.0
  3
A$C5FFD3D1B
  1

  0
INSERT
  5
1198
330
1197
100
AcDbEntity
  8
0
100
AcDbBlockReference
  2
nut
 10
0.0
 20
0.0000000000000018
 30
0.0
  0
ENDBLK
  5
119A
330
1197
100
AcDbEntity
  8
0
100
AcDbBlockEnd
  0
BLOCK
  5
119F
330
119C
100
AcDbEntity
  8
0
100
AcDbBlockBegin
  2
A$C087148CE
 70
     0
 10
0.0
 20
0.0
 30
0.0
  3
A$C087148CE
  1

  0
CIRCLE
  5
119D
330
119C
100
AcDbEntity
  8
0
100
AcDbCircle
 10
0.0
 20
0.0
 30
0.0
 40
0.375
  0
LWPOLYLINE
  5
119E
330
119C
100
AcDbEntity
  8
0
100
AcDbPolyline
 90
        6
 70
     1
 43
0.0
 10
0.3815829514555453
 20
0.2203070197410311
 10
0.0
 20
0.4406140394820631
 10
-0.3815829514555453
 20
0.2203070197410311
 10
-0.3815829514555453
 20
-0.2203070197410328
 10
0.0
 20
-0.4406140394820648
 10
0.3815829514555453
 20
-0.2203070197410328
  0
ENDBLK
  5
11A0
330
119C
100
AcDbEntity
  8
0
100
AcDbBlockEnd
  0
ENDSEC
  0
SECTION
  2
ENTITIES
  0
LINE
  5
675
102
{ACAD_REACTORS
330
C18
102
}
330
1F
100
AcDbEntity
  8
BORDER
 62
     7
370
    25
100
AcDbLine
 10
12.44776959221632
 20
5.822427858663054
 30
0.0
 11
5.256769592216327
 21
5.822427858663056
 31
0.0
  0
LINE
  5
676
102
{ACAD_REACTORS
330
C18
102
}
330
1F
100
AcDbEntity
  8
BORDER
 62
     7
370
    25
100
AcDbLine
 10
12.44776959221632
 20
8.347427858663056
 30
0.0
 11
5.256769592216326
 21
8.347427858663056
 31
0.0
  0
LINE
  5
69B
102
{ACAD_REACTORS
330
1085
102
}
330
1F
100
AcDbEntity
  8
BORDER
 62
     7
370
    25
100
AcDbLine
 10
5.152769592216325
 20
8.35902426007512
 30
0.0
 11
5.152769592216326
 21
5.81083145725099
 31
0.0
  0
LINE
  5
6CE
330
1F
100
AcDbEntity
  8
BORDER
 62
     7
370
    25
100
AcDbLine
 10
13.10276959221632
 20
7.282790723231291
 30
0.0
 11
13.10276959221632
 21
6.88706499409482
 31
0.0
  0
LINE
  5
6CF
330
1F
100
AcDbEntity
  8
BORDER
 62
     7
370
    25
100
AcDbLine
 10
12.57276959221632
 20
7.298927858663056
 30
0.0
 11
13.08663245678456
 21
7.298927858663055
 31
0.0
  0
LINE
  5
6D0
330
1F
100
AcDbEntity
  8
BORDER
 62
     7
370
    25
100
AcDbLine
 10
12.57276959221633
 20
6.870927858663056
 30
0.0
 11
13.08663245678456
 21
6.870927858663057
 31
0.0
  0
LINE
  5
6D9
330
1F
100
AcDbEntity
  8
BORDER
 62
     7
370
    25
100
AcDbLine
 10
5.256769592216326
 20
8.35902426007512
 30
0.0
 11
5.256769592216327
 21
5.810831457250991
 31
0.0
  0
LINE
  5
6DA
330
1F
100
AcDbEntity
  8
BORDER
 62
     7
370
    25
100
AcDbLine
 10
5.802769592216325
 20
8.332427858663056
 30
0.0
 11
5.802769592216327
 21
5.837427858663056
 31
0.0
  0
LINE
  5
6DB
330
1F
100
AcDbEntity
  8
BORDER
 62
     7
370
    25
100
AcDbLine
 10
5.849658586175582
 20
8.332427858663056
 30
0.0
 11
5.849658586175582
 21
5.837427858663056
 31
0.0
  0
LINE
  5
6DC
330
1F
100
AcDbEntity
  8
BORDER
 62
     7
370
    25
100
AcDbLine
 10
13.02208397724753
 20
7.298927858663054
 30
0.0
 11
13.02208397724753
 21
6.870927858663057
 31
0.0
  0
LINE
  5
6DF
330
1F
100
AcDbEntity
  8
BORDER
 62
     7
370
    25
100
AcDbLine
 10
13.05758566275941
 20
7.256999636940768
 30
0.0
 11
13.05758566275941
 21
6.912856080385342
 31
0.0
  0
LINE
  5
6E0
330
1F
100
AcDbEntity
  8
BORDER
 62
     7
370
    25
100
AcDbLine
 10
12.97690004779062
 20
7.256999636940768
 30
0.0
 11
12.97690004779062
 21
6.912856080385342
 31
0.0
  0
LINE
  5
6E1
330
1F
100
AcDbEntity
  8
BORDER
 62
     7
370
    25
100
AcDbLine
 10
12.94139836227875
 20
7.298927858663054
 30
0.0
 11
12.94139836227875
 21
6.870927858663057
 31
0.0
  0
LINE
  5
6E6
330
1F
100
AcDbEntity
  8
BORDER
 62
     7
370
    25
100
AcDbLine
 10
12.6186559024036
 20
7.298927858663054
 30
0.0
 11
12.6186559024036
 21
6.870927858663057
 31
0.0
  0
LINE
  5
6E7
330
1F
100
AcDbEntity
  8
BORDER
 62
     7
370
    25
100
AcDbLine
 10
12.65415758791548
 20
7.256999636940768
 30
0.0
 11
12.65415758791548
 21
6.912856080385342
 31
0.0
  0
LINE
  5
6E8
330
1F
100
AcDbEntity
  8
BORDER
 62
     7
370
    25
100
AcDbLine
 10
12.69934151737239
 20
7.298927858663054
 30
0.0
 11
12.69934151737239
 21
6.870927858663057
 31
0.0
  0
LINE
  5
6E9
330
1F
100
AcDbEntity
  8
BORDER
 62
     7
370
    25
100
AcDbLine
 10
12.73484320288427
 20
7.256999636940768
 30
0.0
 11
12.73484320288426
 21
6.912856080385342
 31
0.0
  0
LINE
  5
6EA
330
1F
100
AcDbEntity
  8
BORDER
 62
     7
370
    25
100
AcDbLine
 10
13.08663245678456
 20
7.298927858663054
 30
0.0
 11
13.08663245678456
 21
6.870927858663057
 31
0.0
  0
LINE
  5
6EB
330
1F
100
AcDbEntity
  8
BORDER
 62
     7
370
    25
100
AcDbLine
 10
13.08663245678456
 20
6.870927858663057
 30
0.0
 11
13.10276959221632
 21
6.88706499409482
 31
0.0
  0
LINE
  5
6EC
330
1F
100
AcDbEntity
  8
BORDER
 62
     7
370
    25
100
AcDbLine
 10
13.08663245678456
 20
7.298927858663054
 30
0.0
 11
13.10276959221632
 21
7.282790723231291
 31
0.0
  0
DIMENSION
  5
70A
330
1F
100
AcDbEntity
  8
DIM
370
    25
100
AcDbDimension
280
     0
  2
*D5
 10
13.10276959221632
 20
4.661466046410436
 30
0.0
 11
13.90912283412428
 21
4.661466046410436
 31
0.0
 70
   160
 71
     5
 42
0.5299999999999976
 73
     0
 74
     0
 75
     0
  3
Standard
100
AcDbAlignedDimension
 13
12.57276959221632
 23
5.817952988856917
 33
0.0
 14
13.10276959221632
 24
6.867590124288683
 34
0.0
100
AcDbRotatedDimension
  0
CIRCLE
  5
8E9
330
1F
100
AcDbEntity
  8
BORDER
 62
     7
370
    25
100
AcDbCircle
 10
16.37676153829197
 20
7.084927858663057
 30
0.0
 40
0.215
  0
TEXT
  5
926
330
1F
100
AcDbEntity
  8
NOTES
370
    25
100
AcDbText
 10
4.242423795820265
 20
3.469370168389357
 30
0.0
 40
0.2
  1
5 KVAR 480 VOLT
100
AcDbText
  0
TEXT
  5
927
330
1F
100
AcDbEntity
  8
NOTES
370
    25
100
AcDbText
 10
4.229268386408946
 20
3.050807486163392
 30
0.0
 40
0.2
  1
3 PHASE 60 HZ
100
AcDbText
  0
LINE
  5
A61
102
{ACAD_REACTORS
330
CD3
102
}
330
1F
100
AcDbEntity
  8
BORDER
 62
     7
370
    25
100
AcDbLine
 10
5.152769592216326
 20
5.81083145725099
 30
0.0
 11
5.256769592216327
 21
5.810831457250991
 31
0.0
  0
LINE
  5
A62
330
1F
100
AcDbEntity
  8
BORDER
 62
     7
370
    25
100
AcDbLine
 10
5.152769592216326
 20
8.35902426007512
 30
0.0
 11
5.256769592216327
 21
8.35902426007512
 31
0.0
  0
CIRCLE
  5
A63
330
1F
100
AcDbEntity
  8
BORDER
 62
     7
370
    25
100
AcDbCircle
 10
16.37676153829197
 20
7.084927858663057
 30
0.0
 40
0.1933181975482725
  0
LEADER
  5
A6F
330
1F
100
AcDbEntity
  8
NOTES
370
    25
100
AcDbLeader
  3
Standard
 76
     3
 10
13.07848571353591
 20
7.308533349484376
 30
0.0
 10
14.04756668189131
 20
9.117337232342572
 30
0.0
 10
14.50906286844586
 20
9.117337232342572
 30
0.0
  0
TEXT
  5
A70
330
1F
100
AcDbEntity
  8
NOTES
370
    25
100
AcDbText
 10
14.66192383711668
 20
8.988233500865975
 30
0.0
 40
0.2
  1
M12 THD.
100
AcDbText
  0
LINE
  5
AFD
330
1F
100
AcDbEntity
  8
NOTES
370
    25
100
AcDbLine
 10
11.54645273429782
 20
3.043470312725627
 30
0.0
 11
17.58394799199192
 21
3.043470312725627
 31
0.0
  0
LINE
  5
AFE
330
1F
100
AcDbEntity
  8
NOTES
370
    25
100
AcDbLine
 10
17.58394799199192
 20
3.043470312725627
 30
0.0
 11
17.58394799199192
 21
1.043470312725627
 31
0.0
  0
LINE
  5
AFF
330
1F
100
AcDbEntity
  8
NOTES
370
    25
100
AcDbLine
 10
11.54645273429782
 20
3.043470312725627
 30
0.0
 11
11.54645273429782
 21
1.043470312725627
 31
0.0
  0
TEXT
  5
B00
330
1F
100
AcDbEntity
  8
NOTES
370
    25
100
AcDbText
 10
11.91509921927123
 20
2.671584483173184
 30
0.0
 40
0.2
  1
VOLTS
100
AcDbText
  0
TEXT
  5
B01
330
1F
100
AcDbEntity
  8
NOTES
370
    25
100
AcDbText
 10
13.775596244061
 20
2.671584483173184
 30
0.0
 40
0.2
  1
50 HZ
100
AcDbText
  0
TEXT
  5
B02
330
1F
100
AcDbEntity
  8
NOTES
370
    25
100
AcDbText
 10
15.76377442399095
 20
2.671584483173184
 30
0.0
 40
0.2
  1
60 HZ
100
AcDbText
  0
LINE
  5
B03
330
1F
100
AcDbEntity
  8
NOTES
370
    25
100
AcDbLine
 10
13.02390629366704
 20
3.043470312725627
 30
0.0
 11
13.02390629366704
 21
1.043470312725627
 31
0.0
  0
LINE
  5
B04
330
1F
100
AcDbEntity
  8
NOTES
370
    25
100
AcDbLine
 10
15.21272630166709
 20
3.043470312725627
 30
0.0
 11
15.21272630166709
 21
1.043470312725627
 31
0.0
  0
LINE
  5
B20
330
1F
100
AcDbEntity
  8
NOTES
370
    25
100
AcDbLine
 10
11.54645273429782
 20
2.543470312725627
 30
0.0
 11
17.58394799199192
 21
2.543470312725627
 31
0.0
  0
LINE
  5
B21
330
1F
100
AcDbEntity
  8
NOTES
370
    25
100
AcDbLine
 10
11.54645273429782
 20
2.543470312725627
 30
0.0
 11
17.20090448159705
 21
2.543470312725627
 31
0.0
  0
TEXT
  5
B23
330
1F
100
AcDbEntity
  8
NOTES
370
    25
100
AcDbText
 10
13.24663138780631
 20
2.171584483173184
 30
0.0
 40
0.2
  1
5.00 KVAR
100
AcDbText
  0
TEXT
  5
B24
330
1F
100
AcDbEntity
  8
NOTES
370
    25
100
AcDbText
 10
11.91509921927123
 20
2.171584483173184
 30
0.0
 40
0.2
  1
525
100
AcDbText
  0
LINE
  5
B25
330
1F
100
AcDbEntity
  8
NOTES
370
    25
100
AcDbLine
 10
11.54645273429782
 20
2.043470312725627
 30
0.0
 11
17.58394799199192
 21
2.043470312725627
 31
0.0
  0
TEXT
  5
B28
330
1F
100
AcDbEntity
  8
NOTES
370
    25
100
AcDbText
 10
11.91509921927123
 20
1.671584483173184
 30
0.0
 40
0.2
  1
480
100
AcDbText
  0
LINE
  5
B29
330
1F
100
AcDbEntity
  8
NOTES
370
    25
100
AcDbLine
 10
11.54645273429782
 20
1.543470312725627
 30
0.0
 11
17.58394799199192
 21
1.543470312725627
 31
0.0
  0
LINE
  5
B2B
330
1F
100
AcDbEntity
  8
NOTES
370
    25
100
AcDbLine
 10
11.54645273429782
 20
1.043470312725627
 30
0.0
 11
17.58394799199192
 21
1.043470312725627
 31
0.0
  0
TEXT
  5
B2F
330
1F
100
AcDbEntity
  8
NOTES
370
    25
100
AcDbText
 10
13.24690707124618
 20
1.671584483173184
 30
0.0
 40
0.2
  1
4.20 KVAR
100
AcDbText
  0
TEXT
  5
B32
330
1F
100
AcDbEntity
  8
NOTES
370
    25
100
AcDbText
 10
4.227501578144149
 20
2.639359125933872
 30
0.0
 40
0.2
  1
3 * 19.2 uF
100
AcDbText
  0
TEXT
  5
B33
330
1F
100
AcDbEntity
  8
NOTES
370
    25
100
AcDbText
 10
4.212579360468019
 20
3.91785562555443
 30
0.0
 40
0.2
  1
CAP P/N 16447
100
AcDbText
  0
TEXT
  5
BB3
330
1F
100
AcDbEntity
  8
NOTES
370
    25
100
AcDbText
 10
11.95830180425598
 20
9.378338818022687
 30
0.0
 40
0.2
  1
DECAL
100
AcDbText
  0
TEXT
  5
BB4
330
1F
100
AcDbEntity
  8
NOTES
370
    25
100
AcDbText
 10
4.227501578144142
 20
2.173622744720887
 30
0.0
 40
0.2
  1
PhMKP 525.3.05.00
100
AcDbText
  0
ARC
  5
BD5
330
1F
100
AcDbEntity
  8
BORDER
 62
     7
370
    25
100
AcDbCircle
 10
12.44776959221632
 20
5.947427858663054
 30
0.0
 40
0.125
100
AcDbArc
 50
270.0
 51
0.0000000000000254
  0
ARC
  5
BF4
330
1F
100
AcDbEntity
  8
BORDER
 62
     7
370
    25
100
AcDbCircle
 10
12.44776959221632
 20
8.222427858663056
 30
0.0
 40
0.125
100
AcDbArc
 50
0.0000000000000254
 51
90.0
  0
DIMENSION
  5
BFF
102
{ACAD_XDICTIONARY
360
C0D
102
}
102
{ACAD_REACTORS
330
C18
102
}
330
1F
100
AcDbEntity
  8
DIM
370
    25
100
AcDbDimension
280
     0
  2
*D6
 10
14.25345520808536
 20
8.347427858663056
 30
0.0
 11
14.25345520808536
 21
7.022576018602641
 31
0.0
 70
   160
 71
     5
 42
2.525000000000003
 73
     0
 74
     0
 75
     0
  3
Standard
100
AcDbAlignedDimension
 13
12.44776959221632
 23
5.822427858663054
 33
0.0
 14
12.44776959221632
 24
8.347427858663056
 34
0.0
 50
90.0
100
AcDbRotatedDimension
  0
DIMENSION
  5
CBA
102
{ACAD_XDICTIONARY
360
CC8
102
}
102
{ACAD_REACTORS
330
CD3
102
}
330
1F
100
AcDbEntity
  8
DIM
370
    25
100
AcDbDimension
280
     0
  2
*D7
 10
12.57276959221633
 20
4.660825454072987
 30
0.0
 11
8.862769592216327
 21
4.660825454072987
 31
0.0
 70
    32
 71
     5
 42
7.419999999999999
 73
     0
 74
     0
 75
     0
  3
Standard
100
AcDbAlignedDimension
 13
5.152769592216326
 23
5.81083145725099
 33
0.0
 14
12.57276959221633
 24
5.947427858663054
 34
0.0
100
AcDbRotatedDimension
  0
TEXT
  5
D1B
330
1F
100
AcDbEntity
  8
NOTES
370
    25
100
AcDbText
 10
8.027639103297076
 20
3.489357545157133
 30
0.0
 40
0.2
  1
CASE MAX. 65%%D C
100
AcDbText
  0
TEXT
  5
DB5
330
1F
100
AcDbEntity
  8
NOTES
370
    25
100
AcDbText
 10
15.49289882471251
 20
2.171584483173184
 30
0.0
 40
0.2
  1
6.00 KVAR
100
AcDbText
  0
TEXT
  5
DB6
330
1F
100
AcDbEntity
  8
NOTES
370
    25
100
AcDbText
 10
15.49317450815238
 20
1.671584483173184
 30
0.0
 40
0.2
  1
5.00 KVAR
100
AcDbText
  0
TEXT
  5
E32
330
1F
100
AcDbEntity
  8
NOTES
370
    25
100
AcDbText
 10
15.49317450815238
 20
1.214440370806403
 30
0.0
 40
0.2
  1
5.40 KVAR
100
AcDbText
  0
TEXT
  5
E33
330
1F
100
AcDbEntity
  8
NOTES
370
    25
100
AcDbText
 10
13.24690707124618
 20
1.214440370806403
 30
0.0
 40
0.2
  1
4.50 KVAR
100
AcDbText
  0
TEXT
  5
E34
330
1F
100
AcDbEntity
  8
NOTES
370
    25
100
AcDbText
 10
11.91509921927123
 20
1.214440370806403
 30
0.0
 40
0.2
  1
500
100
AcDbText
  0
LINE
  5
E5F
330
1F
100
AcDbEntity
  8
BORDER
 62
     7
370
    25
100
AcDbLine
 10
12.57276959221633
 20
5.947427858663054
 30
0.0
 11
12.57276959221632
 21
8.222427858663056
 31
0.0
  0
LEADER
  5
E61
330
1F
100
AcDbEntity
  8
NOTES
370
    25
100
AcDbLeader
  3
Standard
 76
     3
 10
10.91749036749447
 20
8.347427858663056
 30
0.0
 10
11.59296189283527
 20
9.443973670847938
 30
0.0
 10
11.88414470456623
 20
9.443973670847938
 30
0.0
  0
CIRCLE
  5
E6F
330
1F
100
AcDbEntity
  8
BORDER
 62
     7
370
    25
100
AcDbCircle
 10
2.341403583066451
 20
7.084927858663057
 30
0.0
 40
1.262499999999999
  0
CIRCLE
  5
E70
330
1F
100
AcDbEntity
  8
BORDER
 62
     7
370
    25
100
AcDbCircle
 10
2.341403583066451
 20
7.084927858663057
 30
0.0
 40
1.159760789972196
  0
CIRCLE
  5
E75
330
1F
100
AcDbEntity
  8
BORDER
 62
     7
370
    25
100
AcDbCircle
 10
16.37676153829197
 20
7.084927858663057
 30
0.0
 40
1.262499999999999
  0
LINE
  5
EB2
330
1F
100
AcDbEntity
  8
BORDER
 62
     7
370
    25
100
AcDbLine
 10
12.57276959221632
 20
8.359024260075125
 30
0.0
 11
12.57276959221633
 21
5.810831457250995
 31
0.0
  0
LINE
  5
F82
330
1F
100
AcDbEntity
  8
BORDER
 62
     7
370
    25
100
AcDbLine
 10
4.402769592216324
 20
7.655003607383976
 30
0.0
 11
4.402769592216324
 21
7.084927858663055
 31
0.0
  0
ARC
  5
F83
330
1F
100
AcDbEntity
  8
0
370
    25
100
AcDbCircle
 10
2.341403583066452
 20
7.084927858663059
 30
0.0
 40
0.65
100
AcDbArc
 50
106.0304091383303
 51
219.7745507502703
  0
ARC
  5
F84
330
1F
100
AcDbEntity
  8
0
370
    25
100
AcDbCircle
 10
2.341403583066452
 20
7.084927858663059
 30
0.0
 40
0.5560000000000001
100
AcDbArc
 50
196.2945577018346
 51
216.1612978653897
  0
LINE
  5
F85
330
1F
100
AcDbEntity
  8
0
370
    25
100
AcDbLine
 10
1.730479531175003
 20
7.136927858663058
 30
0.0
 11
2.041362041479831
 21
7.136927858663058
 31
0.0
  0
LINE
  5
F86
330
1F
100
AcDbEntity
  8
0
370
    25
100
AcDbLine
 10
1.730479531175003
 20
7.032927858663058
 30
0.0
 11
2.041362041479833
 21
7.032927858663058
 31
0.0
  0
LINE
  5
F89
330
1F
100
AcDbEntity
  8
0
370
    25
100
AcDbLine
 10
2.446358913348873
 20
7.370715823237383
 30
0.0
 11
2.601832288015385
 21
7.640003607383974
 31
0.0
  0
LINE
  5
F8A
330
1F
100
AcDbEntity
  8
0
370
    25
100
AcDbLine
 10
2.512592164389363
 20
7.277435179189977
 30
0.0
 11
2.691898930008968
 21
7.588003607383973
 31
0.0
  0
LINE
  5
F8B
330
1F
100
AcDbEntity
  8
0
370
    25
100
AcDbLine
 10
2.446358913348875
 20
6.799139894088731
 30
0.0
 11
2.601832288015383
 21
6.529852109942142
 31
0.0
  0
LINE
  5
F8C
330
1F
100
AcDbEntity
  8
0
370
    25
100
AcDbLine
 10
2.512592164389364
 20
6.892420538136137
 30
0.0
 11
2.691898930008967
 21
6.581852109942142
 31
0.0
  0
LINE
  5
F8D
330
1F
100
AcDbEntity
  8
0
370
    25
100
AcDbLine
 10
1.710401205891848
 20
7.240927858663058
 30
0.0
 11
1.807737020501398
 21
7.240927858663058
 31
0.0
  0
LINE
  5
F8E
330
1F
100
AcDbEntity
  8
0
370
    25
100
AcDbLine
 10
1.710401205891848
 20
6.928927858663058
 30
0.0
 11
1.807737020501398
 21
6.928927858663058
 31
0.0
  0
LINE
  5
F8F
330
1F
100
AcDbEntity
  8
0
370
    25
100
AcDbLine
 10
2.473136901358607
 20
6.544759058331404
 30
0.0
 11
2.52180480866338
 21
6.460463770181482
 31
0.0
  0
LINE
  5
F90
330
1F
100
AcDbEntity
  8
0
370
    25
100
AcDbLine
 10
2.74333682733935
 20
6.700759058331404
 30
0.0
 11
2.792004734644125
 21
6.616463770181481
 31
0.0
  0
LINE
  5
F91
330
1F
100
AcDbEntity
  8
0
370
    25
100
AcDbLine
 10
2.743336827339351
 20
7.469096658994712
 30
0.0
 11
2.792004734644125
 21
7.553391947144635
 31
0.0
  0
LINE
  5
F92
330
1F
100
AcDbEntity
  8
0
370
    25
100
AcDbLine
 10
2.473136901358608
 20
7.625096658994711
 30
0.0
 11
2.521804808663381
 21
7.709391947144634
 31
0.0
  0
ARC
  5
F94
330
1F
100
AcDbEntity
  8
0
370
    25
100
AcDbCircle
 10
2.341403583066452
 20
7.084927858663059
 30
0.0
 40
0.5560000000000001
100
AcDbArc
 50
76.29455770183446
 51
96.16129786538978
  0
ARC
  5
F95
330
1F
100
AcDbEntity
  8
0
370
    25
100
AcDbCircle
 10
2.341403583066452
 20
7.084927858663059
 30
0.0
 40
0.5560000000000001
100
AcDbArc
 50
316.2945577018348
 51
336.1612978653898
  0
LINE
  5
F96
330
1F
100
AcDbEntity
  8
0
370
    25
100
AcDbLine
 10
2.512592164389363
 20
6.892420538136136
 30
0.0
 11
2.512592164389363
 21
7.277435179189977
 31
0.0
  0
LINE
  5
F97
330
1F
100
AcDbEntity
  8
0
370
    25
100
AcDbLine
 10
2.041362041479832
 20
7.032927858663058
 30
0.0
 11
2.446358913348874
 21
6.799139894088731
 31
0.0
  0
LINE
  5
F98
330
1F
100
AcDbEntity
  8
0
370
    25
100
AcDbLine
 10
2.041362041479833
 20
7.136927858663058
 30
0.0
 11
2.446358913348874
 21
7.370715823237385
 31
0.0
  0
ARC
  5
F99
330
1F
100
AcDbEntity
  8
0
370
    25
100
AcDbCircle
 10
2.341403583066452
 20
7.084927858663059
 30
0.0
 40
0.641320044804246
100
AcDbArc
 50
57.93761156343081
 51
62.06238843656902
  0
ARC
  5
F9B
330
1F
100
AcDbEntity
  8
0
370
    25
100
AcDbCircle
 10
2.665918167895434
 20
7.603003607383975
 30
0.0
 40
0.03
100
AcDbArc
 50
330.0
 51
57.93761156343073
  0
ARC
  5
F9C
330
1F
100
AcDbEntity
  8
0
370
    25
100
AcDbCircle
 10
2.627813050128919
 20
7.625003607383975
 30
0.0
 40
0.03
100
AcDbArc
 50
62.06238843656831
 51
149.9999999999994
  0
ARC
  5
F9D
330
1F
100
AcDbEntity
  8
0
370
    25
100
AcDbCircle
 10
2.341403583066452
 20
7.084927858663059
 30
0.0
 40
0.641320044804246
100
AcDbArc
 50
177.9376115634308
 51
182.062388436569
  0
ARC
  5
F9F
330
1F
100
AcDbEntity
  8
0
370
    25
100
AcDbCircle
 10
2.341403583066452
 20
7.084927858663059
 30
0.0
 40
0.641320044804246
100
AcDbArc
 50
297.9376115634309
 51
302.0623884365692
  0
ARC
  5
FA1
330
1F
100
AcDbEntity
  8
0
370
    25
100
AcDbCircle
 10
1.730479531175004
 20
7.062927858663059
 30
0.0
 40
0.03
100
AcDbArc
 50
182.0623884365688
 51
269.9999999999999
  0
ARC
  5
FA2
330
1F
100
AcDbEntity
  8
0
370
    25
100
AcDbCircle
 10
1.730479531175004
 20
7.106927858663059
 30
0.0
 40
0.03
100
AcDbArc
 50
89.99999999999994
 51
177.9376115634311
  0
ARC
  5
FA3
330
1F
100
AcDbEntity
  8
0
370
    25
100
AcDbCircle
 10
2.627813050128918
 20
6.544852109942142
 30
0.0
 40
0.03
100
AcDbArc
 50
209.9999999999988
 51
297.9376115634313
  0
ARC
  5
FA4
330
1F
100
AcDbEntity
  8
0
370
    25
100
AcDbCircle
 10
2.665918167895435
 20
6.566852109942141
 30
0.0
 40
0.03
100
AcDbArc
 50
302.0623884365692
 51
30.00000000000015
  0
LINE
  5
FC1
330
1F
100
AcDbEntity
  8
0
370
    25
100
AcDbLine
 10
2.578502947330493
 20
6.904927858663059
 30
0.0
 11
2.588763499928195
 21
6.904927858663059
 31
0.0
  0
LINE
  5
FC2
330
1F
100
AcDbEntity
  8
0
370
    25
100
AcDbLine
 10
2.578502947330496
 20
7.264927858663059
 30
0.0
 11
2.804304218802407
 21
7.264927858663058
 31
0.0
  0
LINE
  5
FE7
330
1F
100
AcDbEntity
  8
0
370
    25
100
AcDbLine
 10
2.804304218802406
 20
6.957426482567871
 30
0.0
 11
2.804304218802406
 21
7.264927858663059
 31
0.0
  0
LINE
  5
FE9
330
1F
100
AcDbEntity
  8
0
370
    25
100
AcDbLine
 10
2.578502947330496
 20
7.244748674719567
 30
0.0
 11
2.804304218802407
 21
7.244748674719567
 31
0.0
  0
LINE
  5
FEA
330
1F
100
AcDbEntity
  8
0
370
    25
100
AcDbLine
 10
2.578502947330496
 20
6.925107042606549
 30
0.0
 11
2.588763499928195
 21
6.92510704260655
 31
0.0
  0
LINE
  5
FEC
330
1F
100
AcDbEntity
  8
0
370
    25
100
AcDbLine
 10
2.578502947330495
 20
6.904927858663058
 30
0.0
 11
2.578502947330497
 21
7.264927858663058
 31
0.0
  0
CIRCLE
  5
FED
330
1F
100
AcDbEntity
  8
0
370
    25
100
AcDbCircle
 10
2.691403583066452
 20
7.084927858663058
 30
0.0
 40
0.0863161291233468
  0
CIRCLE
  5
FFC
330
1F
100
AcDbEntity
  8
0
370
    25
100
AcDbCircle
 10
2.166403583066451
 20
7.388036749987612
 30
0.0
 40
0.0863161291233468
  0
LINE
  5
FFD
330
1F
100
AcDbEntity
  8
0
370
    25
100
AcDbLine
 10
2.066969328253231
 20
7.20026193133686
 30
0.0
 11
1.954068692517277
 21
7.395811568638362
 31
0.0
  0
LINE
  5
FFE
330
1F
100
AcDbEntity
  8
0
370
    25
100
AcDbLine
 10
2.084445014175933
 20
7.210351523308606
 30
0.0
 11
1.971544378439977
 21
7.405901160610106
 31
0.0
  0
LINE
  5
FFF
330
1F
100
AcDbEntity
  8
0
370
    25
100
AcDbLine
 10
2.361262787692928
 20
7.370172339365114
 30
0.0
 11
2.356132511394077
 21
7.379058238571589
 31
0.0
  0
LINE
  5
1000
330
1F
100
AcDbEntity
  8
0
370
    25
100
AcDbLine
 10
2.37873847361563
 20
7.380261931336859
 30
0.0
 11
2.37360819731678
 21
7.389147830543334
 31
0.0
  0
LINE
  5
1001
330
1F
100
AcDbEntity
  8
0
370
    25
100
AcDbLine
 10
2.220372695914381
 20
7.549562256685957
 30
0.0
 11
1.954068692517277
 21
7.395811568638362
 31
0.0
  0
LINE
  5
1002
330
1F
100
AcDbEntity
  8
0
370
    25
100
AcDbLine
 10
2.37873847361563
 20
7.38026193133686
 30
0.0
 11
2.066969328253232
 21
7.200261931336861
 31
0.0
  0
CIRCLE
  5
1003
330
1F
100
AcDbEntity
  8
0
370
    25
100
AcDbCircle
 10
2.166403583066453
 20
6.781818967338505
 30
0.0
 40
0.0863161291233468
  0
LINE
  5
1004
330
1F
100
AcDbEntity
  8
0
370
    25
100
AcDbLine
 10
2.378738473615629
 20
6.789593785989255
 30
0.0
 11
2.265837837879673
 21
6.594044148687755
 31
0.0
  0
LINE
  5
1005
330
1F
100
AcDbEntity
  8
0
370
    25
100
AcDbLine
 10
2.361262787692927
 20
6.799683377961001
 30
0.0
 11
2.248362151956971
 21
6.6041337406595
 31
0.0
  0
LINE
  5
1006
330
1F
100
AcDbEntity
  8
0
370
    25
100
AcDbLine
 10
2.084445014175933
 20
6.95950419401751
 30
0.0
 11
2.079314737877083
 21
6.950618294811038
 31
0.0
  0
LINE
  5
1007
330
1F
100
AcDbEntity
  8
0
370
    25
100
AcDbLine
 10
2.066969328253231
 20
6.969593785989259
 30
0.0
 11
2.06183905195438
 21
6.960707886782783
 31
0.0
  0
LINE
  5
1009
330
1F
100
AcDbEntity
  8
0
370
    25
100
AcDbLine
 10
2.06696932825323
 20
6.969593785989255
 30
0.0
 11
2.378738473615629
 21
6.789593785989255
 31
0.0
  0
LINE
  5
100A
330
1F
100
AcDbEntity
  8
0
370
    25
100
AcDbLine
 10
4.902769592216326
 20
7.734927858663063
 30
0.0
 11
5.152769592216325
 21
7.73492785866306
 31
0.0
  0
LINE
  5
100E
330
1F
100
AcDbEntity
  8
0
370
    25
100
AcDbLine
 10
4.582769592216324
 20
7.244748674719568
 30
0.0
 11
4.902769592216325
 21
7.244748674719568
 31
0.0
  0
LINE
  5
100F
330
1F
100
AcDbEntity
  8
0
370
    25
100
AcDbLine
 10
4.582769592216324
 20
7.264927858663059
 30
0.0
 11
4.902769592216325
 21
7.264927858663059
 31
0.0
  0
LINE
  5
1012
330
1F
100
AcDbEntity
  8
BORDER
 62
     7
370
    25
100
AcDbLine
 10
4.582769592216327
 20
7.264927858663061
 30
0.0
 11
4.582769592216327
 21
7.244748674719569
 31
0.0
  0
LINE
  5
1014
330
1F
100
AcDbEntity
  8
0
370
    25
100
AcDbLine
 10
4.902769592216325
 20
7.553391947144635
 30
0.0
 11
5.087182751738782
 21
7.553391947144635
 31
0.0
  0
LINE
  5
1015
330
1F
100
AcDbEntity
  8
0
370
    25
100
AcDbLine
 10
4.902769592216326
 20
7.70939194714463
 30
0.0
 11
5.152769592216325
 21
7.709391947144633
 31
0.0
  0
LINE
  5
1016
330
1F
100
AcDbEntity
  8
0
370
    25
100
AcDbLine
 10
4.402769592216324
 20
7.655003607383977
 30
0.0
 11
5.087182751738783
 21
7.655003607383978
 31
0.0
  0
LINE
  5
1017
330
1F
100
AcDbEntity
  8
0
370
    25
100
AcDbLine
 10
4.402769592216324
 20
7.588003607383977
 30
0.0
 11
5.087182751738783
 21
7.588003607383976
 31
0.0
  0
LINE
  5
1018
330
1F
100
AcDbEntity
  8
BORDER
 62
     7
370
    25
100
AcDbLine
 10
4.902769592216325
 20
7.553391947144635
 30
0.0
 11
4.902769592216326
 21
7.084927858663055
 31
0.0
  0
LINE
  5
1039
330
1F
100
AcDbEntity
  8
0
370
    25
100
AcDbLine
 10
2.571403583066452
 20
7.084927858663058
 30
0.0
 11
2.811403583066452
 21
7.084927858663058
 31
0.0
  0
LINE
  5
103A
330
1F
100
AcDbEntity
  8
0
370
    25
100
AcDbLine
 10
2.691403583066452
 20
6.964927858663058
 30
0.0
 11
2.691403583066452
 21
7.204927858663058
 31
0.0
  0
LINE
  5
103B
330
1F
100
AcDbEntity
  8
0
370
    25
100
AcDbLine
 10
2.046403583066453
 20
6.781818967338505
 30
0.0
 11
2.286403583066453
 21
6.781818967338505
 31
0.0
  0
LINE
  5
103C
330
1F
100
AcDbEntity
  8
0
370
    25
100
AcDbLine
 10
2.166403583066453
 20
6.661818967338505
 30
0.0
 11
2.166403583066453
 21
6.901818967338505
 31
0.0
  0
LINE
  5
103D
330
1F
100
AcDbEntity
  8
0
370
    25
100
AcDbLine
 10
2.046403583066451
 20
7.388036749987612
 30
0.0
 11
2.286403583066451
 21
7.388036749987612
 31
0.0
  0
LINE
  5
103E
330
1F
100
AcDbEntity
  8
0
370
    25
100
AcDbLine
 10
2.166403583066451
 20
7.268036749987612
 30
0.0
 11
2.166403583066451
 21
7.508036749987613
 31
0.0
  0
LINE
  5
1049
330
1F
100
AcDbEntity
  8
BORDER
 62
     7
370
    25
100
AcDbLine
 10
5.087182751738783
 20
7.709391947144631
 30
0.0
 11
5.087182751738783
 21
7.655003607383978
 31
0.0
  0
LINE
  5
104B
330
1F
100
AcDbEntity
  8
BORDER
 62
     7
370
    25
100
AcDbLine
 10
4.902769592216327
 20
7.734927858663064
 30
0.0
 11
4.902769592216327
 21
7.655003607383976
 31
0.0
  0
LINE
  5
104C
330
1F
100
AcDbEntity
  8
BORDER
 62
     7
370
    25
100
AcDbLine
 10
5.087182751738783
 20
7.588003607383977
 30
0.0
 11
5.087182751738783
 21
7.553391947144634
 31
0.0
  0
LINE
  5
104D
330
1F
100
AcDbEntity
  8
0
370
    25
100
AcDbLine
 10
4.402769592216325
 20
7.277435179189982
 30
0.0
 11
4.902769592216326
 21
7.277435179189984
 31
0.0
  0
LINE
  5
1052
330
1F
100
AcDbEntity
  8
0
370
    25
100
AcDbLine
 10
4.402769592216324
 20
6.581852109942134
 30
0.0
 11
5.087182751738783
 21
6.581852109942134
 31
0.0
  0
LINE
  5
1053
102
{ACAD_REACTORS
330
1085
102
}
330
1F
100
AcDbEntity
  8
0
370
    25
100
AcDbLine
 10
4.402769592216324
 20
6.514852109942133
 30
0.0
 11
5.087182751738783
 21
6.514852109942133
 31
0.0
  0
LINE
  5
1058
330
1F
100
AcDbEntity
  8
BORDER
 62
     7
370
    25
100
AcDbLine
 10
4.902769592216325
 20
6.616463770181476
 30
0.0
 11
4.902769592216326
 21
7.084927858663055
 31
0.0
  0
LINE
  5
1059
330
1F
100
AcDbEntity
  8
0
370
    25
100
AcDbLine
 10
4.902769592216325
 20
6.616463770181476
 30
0.0
 11
5.087182751738782
 21
6.616463770181476
 31
0.0
  0
LINE
  5
105A
330
1F
100
AcDbEntity
  8
BORDER
 62
     7
370
    25
100
AcDbLine
 10
5.087182751738783
 20
6.581852109942134
 30
0.0
 11
5.087182751738783
 21
6.616463770181477
 31
0.0
  0
LINE
  5
105B
330
1F
100
AcDbEntity
  8
0
370
    25
100
AcDbLine
 10
4.902769592216326
 20
6.460463770181481
 30
0.0
 11
5.152769592216325
 21
6.460463770181477
 31
0.0
  0
LINE
  5
105C
330
1F
100
AcDbEntity
  8
0
370
    25
100
AcDbLine
 10
4.902769592216326
 20
6.434927858663048
 30
0.0
 11
5.152769592216325
 21
6.43492785866305
 31
0.0
  0
LINE
  5
105D
330
1F
100
AcDbEntity
  8
BORDER
 62
     7
370
    25
100
AcDbLine
 10
4.902769592216327
 20
6.434927858663047
 30
0.0
 11
4.902769592216327
 21
6.514852109942134
 31
0.0
  0
LINE
  5
105E
330
1F
100
AcDbEntity
  8
BORDER
 62
     7
370
    25
100
AcDbLine
 10
5.087182751738783
 20
6.46046377018148
 30
0.0
 11
5.087182751738783
 21
6.514852109942133
 31
0.0
  0
LINE
  5
1063
330
1F
100
AcDbEntity
  8
0
  6
HIDDEN
370
    25
100
AcDbLine
 10
5.087182751738783
 20
7.553391947144634
 30
0.0
 11
5.087182751738783
 21
6.616463770181477
 31
0.0
  0
LINE
  5
1064
330
1F
100
AcDbEntity
  8
0
370
    25
100
AcDbLine
 10
4.973435736269991
 20
7.244748674719568
 30
0.0
 11
5.067182751738783
 21
7.244748674719568
 31
0.0
  0
LINE
  5
1065
330
1F
100
AcDbEntity
  8
0
370
    25
100
AcDbLine
 10
4.975328509202071
 20
7.264927858663059
 30
0.0
 11
5.087182751738783
 21
7.264927858663059
 31
0.0
  0
LINE
  5
1066
330
1F
100
AcDbEntity
  8
0
370
    25
100
AcDbLine
 10
4.979114003525737
 20
7.277435179189985
 30
0.0
 11
5.087182751738783
 21
7.277435179189984
 31
0.0
  0
LINE
  5
1067
330
1F
100
AcDbEntity
  8
0
370
    25
100
AcDbLine
 10
4.988577713564666
 20
6.925107042606541
 30
0.0
 11
5.067182751738783
 21
6.925107042606541
 31
0.0
  0
LINE
  5
1068
330
1F
100
AcDbEntity
  8
0
370
    25
100
AcDbLine
 10
4.999934196535676
 20
6.904927858663049
 30
0.0
 11
5.087182751738783
 21
6.904927858663049
 31
0.0
  0
LINE
  5
1069
330
1F
100
AcDbEntity
  8
0
370
    25
100
AcDbLine
 10
4.99425592927993
 20
6.892420538136128
 30
0.0
 11
5.087182751738783
 21
6.892420538136128
 31
0.0
  0
LINE
  5
106A
330
1F
100
AcDbEntity
  8
0
  6
HIDDEN
370
    25
100
AcDbLine
 10
5.067182751738783
 20
7.244748674719568
 30
0.0
 11
5.067182751738783
 21
6.925107042606541
 31
0.0
  0
CIRCLE
  5
106B
330
1F
100
AcDbEntity
  8
0
370
    25
100
AcDbCircle
 10
2.341403583066452
 20
7.084927858663059
 30
0.0
 40
0.0528966634827395
  0
DIMENSION
  5
106C
102
{ACAD_XDICTIONARY
360
107A
102
}
102
{ACAD_REACTORS
330
1085
102
}
330
1F
100
AcDbEntity
  8
DIM
370
    25
100
AcDbDimension
280
     0
  2
*D8
 10
4.402769592216324
 20
4.660883575503806
 30
0.0
 11
3.952769592216323
 21
4.660883575503806
 31
0.0
 70
    32
 71
     5
 42
0.7500000000000027
 73
     0
 74
     0
 75
     0
  3
Standard
100
AcDbAlignedDimension
 13
5.152769592216326
 23
5.81083145725099
 33
0.0
 14
4.402769592216324
 24
6.514852109942133
 34
0.0
100
AcDbRotatedDimension
  0
LINE
  5
1090
330
1F
100
AcDbEntity
  8
0
370
    25
100
AcDbLine
 10
16.2553206219624
 20
7.074428531422786
 30
0.0
 11
16.50799077042409
 21
7.074428531422786
 31
0.0
  0
LINE
  5
1091
330
1F
100
AcDbEntity
  8
0
370
    25
100
AcDbLine
 10
16.27322105825047
 20
7.03861142726199
 30
0.0
 11
16.49009033413601
 21
7.03861142726199
 31
0.0
  0
LINE
  5
1092
330
1F
100
AcDbEntity
  8
0
370
    25
100
AcDbLine
 10
16.29112149453856
 20
7.002794323101196
 30
0.0
 11
16.47218989784793
 21
7.002794323101196
 31
0.0
  0
LINE
  5
1094
330
1F
100
AcDbEntity
  8
0
370
    25
100
AcDbLine
 10
16.30902193082664
 20
6.9669772189404
 30
0.0
 11
16.45428946155985
 21
6.9669772189404
 31
0.0
  0
LINE
  5
1098
330
1F
100
AcDbEntity
  8
0
370
    25
100
AcDbLine
 10
16.38165569619324
 20
7.074428531422786
 30
0.0
 11
16.38165569619324
 21
7.21925892090987
 31
0.0
  0
LINE
  5
109B
330
1F
100
AcDbEntity
  8
0
370
    25
100
AcDbLine
 10
3.068611271332402
 20
7.644488522394395
 30
0.0
 11
3.007286806144054
 21
7.679894218878796
 31
0.0
  0
LINE
  5
109C
330
1F
100
AcDbEntity
  8
0
370
    25
100
AcDbLine
 10
3.188611271332402
 20
7.852334619302659
 30
0.0
 11
3.127286806144054
 21
7.887740315787062
 31
0.0
  0
LINE
  5
109E
330
1F
100
AcDbEntity
  8
0
370
    25
100
AcDbLine
 10
2.462393488683295
 20
7.994488522394393
 30
0.0
 11
2.582393488683296
 21
8.202334619302657
 31
0.0
  0
LINE
  5
109F
330
1F
100
AcDbEntity
  8
0
370
    25
100
AcDbLine
 10
3.068611271332402
 20
7.644488522394395
 30
0.0
 11
3.188611271332402
 21
7.852334619302659
 31
0.0
  0
LINE
  5
10A0
330
1F
100
AcDbEntity
  8
0
370
    25
100
AcDbLine
 10
2.523717953871641
 20
7.959082825909991
 30
0.0
 11
2.643717953871642
 21
8.166928922818255
 31
0.0
  0
LINE
  5
10A1
330
1F
100
AcDbEntity
  8
0
370
    25
100
AcDbLine
 10
3.007286806144054
 20
7.679894218878795
 30
0.0
 11
3.127286806144053
 21
7.887740315787061
 31
0.0
  0
LINE
  5
10A2
330
1F
100
AcDbEntity
  8
0
370
    25
100
AcDbLine
 10
3.022787257252555
 20
7.706741787738958
 30
0.0
 11
2.539218404980143
 21
7.985930394770152
 31
0.0
  0
LINE
  5
10A3
330
1F
100
AcDbEntity
  8
0
370
    25
100
AcDbLine
 10
3.111786355035553
 20
7.8608927469269
 30
0.0
 11
2.628217502763141
 21
8.140081353958096
 31
0.0
  0
LINE
  5
10A4
330
1F
100
AcDbEntity
  8
0
370
    25
100
AcDbLine
 10
2.523717953871642
 20
7.959082825909991
 30
0.0
 11
2.462393488683295
 21
7.994488522394393
 31
0.0
  0
LINE
  5
10A5
330
1F
100
AcDbEntity
  8
0
370
    25
100
AcDbLine
 10
2.643717953871642
 20
8.166928922818255
 30
0.0
 11
2.582393488683296
 21
8.202334619302657
 31
0.0
  0
LINE
  5
10A6
330
1F
100
AcDbEntity
  8
0
370
    25
100
AcDbLine
 10
2.522393488683295
 20
8.098411570848526
 30
0.0
 11
2.415137454569517
 21
8.16033587101633
 31
0.0
  0
LINE
  5
10A7
330
1F
100
AcDbEntity
  8
0
370
    25
100
AcDbLine
 10
3.388381367227064
 20
7.598433236056328
 30
0.0
 11
3.128611271332402
 21
7.748411570848527
 31
0.0
  0
LINE
  5
10A8
330
1F
100
AcDbEntity
  8
0
370
    25
100
AcDbLine
 10
2.41233231708253
 20
7.411505211514223
 30
0.0
 11
2.220624479693492
 21
7.74355292608119
 31
0.0
  0
LINE
  5
10A9
330
1F
100
AcDbEntity
  8
0
370
    25
100
AcDbLine
 10
2.328143055351487
 20
7.362898518590929
 30
0.0
 11
2.136435217962449
 21
7.694946233157896
 31
0.0
  0
LINE
  5
10AA
330
1F
100
AcDbEntity
  8
0
370
    25
100
AcDbLine
 10
2.328143055351487
 20
7.362898518590929
 30
0.0
 11
2.41233231708253
 21
7.411505211514223
 31
0.0
  0
LINE
  5
10AB
330
1F
100
AcDbEntity
  8
0
370
    25
100
AcDbLine
 10
2.136435217962449
 20
7.694946233157896
 30
0.0
 11
2.220624479693492
 21
7.74355292608119
 31
0.0
  0
LINE
  5
10AC
330
1F
100
AcDbEntity
  8
0
370
    25
100
AcDbLine
 10
2.17852984882797
 20
7.719249579619543
 30
0.0
 11
2.133418615337498
 21
7.797384526786934
 31
0.0
  0
LINE
  5
10AD
330
1F
100
AcDbEntity
  8
0
370
    25
100
AcDbLine
 10
2.133418615337498
 20
7.922384526786933
 30
0.0
 11
2.244384279096462
 21
8.114582695543276
 31
0.0
  0
ARC
  5
10AE
330
1F
100
AcDbEntity
  8
0
370
    25
100
AcDbCircle
 10
2.352637454569516
 20
8.052082695543276
 30
0.0
 40
0.125
100
AcDbArc
 50
59.99999999999983
 51
149.9999999999999
  0
ARC
  5
10AF
330
1F
100
AcDbEntity
  8
0
370
    25
100
AcDbCircle
 10
2.241671790810553
 20
7.859884526786933
 30
0.0
 40
0.125
100
AcDbArc
 50
150.0000000000001
 51
209.9999999999996
  0
ARC
  5
10B0
330
1F
100
AcDbEntity
  8
0
370
    25
100
AcDbCircle
 10
2.341403583066452
 20
7.084927858663059
 30
0.0
 40
0.5560000000000001
100
AcDbArc
 50
106.743016962857
 51
163.7054422981652
  0
LINE
  5
10C4
330
1F
100
AcDbEntity
  8
0
370
    25
100
AcDbLine
 10
1.873501725665113
 20
6.626714206725056
 30
0.0
 11
1.828390493240035
 21
6.548579258942559
 31
0.0
  0
LINE
  5
10C5
330
1F
100
AcDbEntity
  8
0
370
    25
100
AcDbLine
 10
1.915596356530635
 20
6.602410860263409
 30
0.0
 11
1.831407094799591
 21
6.651017553186703
 31
0.0
  0
ARC
  5
10C6
330
1F
100
AcDbEntity
  8
0
370
    25
100
AcDbCircle
 10
1.720137317766982
 20
6.611079258942561
 30
0.0
 40
0.125
100
AcDbArc
 50
270.0000000000001
 51
329.9999999999996
  0
LINE
  5
10C7
330
1F
100
AcDbEntity
  8
0
370
    25
100
AcDbLine
 10
1.72013731776698
 20
6.48607925894256
 30
0.0
 11
1.498205989183657
 21
6.486079258327453
 31
0.0
  0
LINE
  5
10C8
330
1F
100
AcDbEntity
  8
0
370
    25
100
AcDbLine
 10
2.023114932188631
 20
6.983065267753669
 30
0.0
 11
1.831407094799591
 21
6.651017553186703
 31
0.0
  0
LINE
  5
10C9
330
1F
100
AcDbEntity
  8
0
370
    25
100
AcDbLine
 10
2.107304193919674
 20
6.934458574830376
 30
0.0
 11
1.915596356530635
 21
6.602410860263409
 31
0.0
  0
LINE
  5
10CA
330
1F
100
AcDbEntity
  8
0
370
    25
100
AcDbLine
 10
2.107304193919674
 20
6.934458574830376
 30
0.0
 11
2.023114932188631
 21
6.983065267753669
 31
0.0
  0
LINE
  5
10CB
330
1F
100
AcDbEntity
  8
0
370
    25
100
AcDbLine
 10
2.972179174706272
 20
6.908819789644576
 30
0.0
 11
3.062401640621824
 21
6.908819790259682
 31
0.0
  0
LINE
  5
10CC
330
1F
100
AcDbEntity
  8
0
370
    25
100
AcDbLine
 10
2.972179174706272
 20
6.95742648256787
 30
0.0
 11
2.972179174706272
 21
6.860213096721283
 31
0.0
  0
LINE
  5
10CF
330
1F
100
AcDbEntity
  8
0
370
    25
100
AcDbLine
 10
2.588763499928195
 20
6.860213096721285
 30
0.0
 11
2.972179174706272
 21
6.860213096721283
 31
0.0
  0
LINE
  5
10D0
330
1F
100
AcDbEntity
  8
0
370
    25
100
AcDbLine
 10
2.588763499928195
 20
6.95742648256787
 30
0.0
 11
2.972179174706272
 21
6.95742648256787
 31
0.0
  0
LINE
  5
10D1
330
1F
100
AcDbEntity
  8
0
370
    25
100
AcDbLine
 10
2.588763499928195
 20
6.95742648256787
 30
0.0
 11
2.588763499928195
 21
6.860213096721285
 31
0.0
  0
LINE
  5
10D2
330
1F
100
AcDbEntity
  8
0
370
    25
100
AcDbLine
 10
3.170654816094878
 20
6.971319790259684
 30
0.0
 11
3.434134542526894
 21
7.427680060283238
 31
0.0
  0
ARC
  5
10D3
330
1F
100
AcDbEntity
  8
0
370
    25
100
AcDbCircle
 10
3.062401640621824
 20
7.033819790259683
 30
0.0
 40
0.125
100
AcDbArc
 50
270.0000000000004
 51
329.9999999999999
  0
ARC
  5
10D4
330
1F
100
AcDbEntity
  8
0
370
    25
100
AcDbCircle
 10
2.341403583066452
 20
7.084927858663059
 30
0.0
 40
0.65
100
AcDbArc
 50
346.0304091383302
 51
99.77455075027034
  0
ARC
  5
10D5
330
1F
100
AcDbEntity
  8
0
370
    25
100
AcDbCircle
 10
2.341403583066452
 20
7.084927858663059
 30
0.0
 40
0.5560000000000001
100
AcDbArc
 50
346.743016962857
 51
43.70544229816537
  0
ARC
  5
10D6
330
1F
100
AcDbEntity
  8
0
370
    25
100
AcDbCircle
 10
3.325881367227064
 20
7.490180060583273
 30
0.0
 40
0.125
100
AcDbArc
 50
329.9999998411987
 51
59.99999999999991
  0
LINE
  5
10D7
330
1F
100
AcDbEntity
  8
0
370
    25
100
AcDbLine
 10
2.972179174706272
 20
6.904381697282115
 30
0.0
 11
3.062401640621824
 21
6.904381697897221
 31
0.0
  0
ARC
  5
10D8
330
1F
100
AcDbEntity
  8
0
370
    25
100
AcDbCircle
 10
3.062401642326239
 20
6.77938169789722
 30
0.0
 40
0.125
100
AcDbArc
 50
30.00000078124654
 51
90.00000078124598
  0
LINE
  5
10D9
330
1F
100
AcDbEntity
  8
0
370
    25
100
AcDbLine
 10
1.49320598918366
 20
6.734927858663058
 30
0.0
 11
1.25320598918366
 21
6.73492785866306
 31
0.0
  0
LINE
  5
10DA
330
1F
100
AcDbEntity
  8
0
370
    25
100
AcDbLine
 10
1.493205989183659
 20
6.805739251631862
 30
0.0
 11
1.49320598918366
 21
6.734927858663058
 31
0.0
  0
LINE
  5
10DB
330
1F
100
AcDbEntity
  8
0
370
    25
100
AcDbLine
 10
1.49320598918366
 20
6.805739251631862
 30
0.0
 11
1.25320598918366
 21
6.805739251631863
 31
0.0
  0
LINE
  5
10DC
330
1F
100
AcDbEntity
  8
0
370
    25
100
AcDbLine
 10
1.25320598918366
 20
6.805739251631863
 30
0.0
 11
1.25320598918366
 21
6.73492785866306
 31
0.0
  0
LINE
  5
10DD
330
1F
100
AcDbEntity
  8
0
370
    25
100
AcDbLine
 10
1.284206891400662
 20
7.364116465694253
 30
0.0
 11
1.284206891400661
 21
6.805739251631862
 31
0.0
  0
LINE
  5
10DE
330
1F
100
AcDbEntity
  8
0
370
    25
100
AcDbLine
 10
1.462205086966656
 20
7.364116465694253
 30
0.0
 11
1.462205086966657
 21
6.805739251631862
 31
0.0
  0
LINE
  5
10DF
330
1F
100
AcDbEntity
  8
0
370
    25
100
AcDbLine
 10
1.493205989183659
 20
7.434927858663058
 30
0.0
 11
1.253205989183659
 21
7.434927858663058
 31
0.0
  0
LINE
  5
10E0
330
1F
100
AcDbEntity
  8
0
370
    25
100
AcDbLine
 10
1.493205989183661
 20
7.364116465694253
 30
0.0
 11
1.25320598918366
 21
7.364116465694253
 31
0.0
  0
LINE
  5
10E1
330
1F
100
AcDbEntity
  8
0
370
    25
100
AcDbLine
 10
1.493205989183659
 20
7.434927858663058
 30
0.0
 11
1.493205989183659
 21
7.364116465694253
 31
0.0
  0
LINE
  5
10E2
330
1F
100
AcDbEntity
  8
0
370
    25
100
AcDbLine
 10
1.253205989183659
 20
7.434927858663058
 30
0.0
 11
1.253205989183658
 21
7.364116465694253
 31
0.0
  0
LINE
  5
10E3
330
1F
100
AcDbEntity
  8
0
370
    25
100
AcDbLine
 10
1.37320598918366
 20
7.734884528247455
 30
0.0
 11
1.373205989183659
 21
7.434927858663058
 31
0.0
  0
LINE
  5
10E4
330
1F
100
AcDbEntity
  8
0
370
    25
100
AcDbLine
 10
1.373205989183659
 20
6.734927858663059
 30
0.0
 11
1.373205989183658
 21
6.611079258327454
 31
0.0
  0
ARC
  5
10E5
330
1F
100
AcDbEntity
  8
0
370
    25
100
AcDbCircle
 10
1.498205989183662
 20
7.734884528247457
 30
0.0
 40
0.125
100
AcDbArc
 50
89.99999984119872
 51
179.9999999999999
  0
ARC
  5
10E6
330
1F
100
AcDbEntity
  8
0
370
    25
100
AcDbCircle
 10
1.498205989183658
 20
6.611079258327454
 30
0.0
 40
0.125
100
AcDbArc
 50
179.9999999999998
 51
269.9999999999999
  0
LINE
  5
10E7
330
1F
100
AcDbEntity
  8
0
370
    25
100
AcDbLine
 10
1.72013731776698
 20
6.48607925894256
 30
0.0
 11
1.498205989183657
 21
6.486079258327453
 31
0.0
  0
LINE
  5
10E8
330
1F
100
AcDbEntity
  8
0
370
    25
100
AcDbLine
 10
2.018612830864092
 20
7.859884526805091
 30
0.0
 11
1.49820598953011
 21
7.859884528247455
 31
0.0
  0
LINE
  5
10E9
330
1F
100
AcDbEntity
  8
0
370
    25
100
AcDbLine
 10
3.0686112713324
 20
6.525367194931724
 30
0.0
 11
3.188611271332399
 21
6.317521098023458
 31
0.0
  0
LINE
  5
10EA
330
1F
100
AcDbEntity
  8
0
370
    25
100
AcDbLine
 10
3.007286806144054
 20
6.489961498447321
 30
0.0
 11
3.0686112713324
 21
6.525367194931724
 31
0.0
  0
LINE
  5
10EB
330
1F
100
AcDbEntity
  8
0
370
    25
100
AcDbLine
 10
3.007286806144055
 20
6.489961498447322
 30
0.0
 11
3.127286806144053
 21
6.282115401539057
 31
0.0
  0
LINE
  5
10EC
330
1F
100
AcDbEntity
  8
0
370
    25
100
AcDbLine
 10
3.127286806144053
 20
6.282115401539057
 30
0.0
 11
3.188611271332399
 21
6.317521098023458
 31
0.0
  0
LINE
  5
10ED
330
1F
100
AcDbEntity
  8
0
370
    25
100
AcDbLine
 10
2.628217502763141
 20
6.029774363368022
 30
0.0
 11
3.111786355035555
 21
6.308962970399217
 31
0.0
  0
LINE
  5
10EE
330
1F
100
AcDbEntity
  8
0
370
    25
100
AcDbLine
 10
2.539218404980145
 20
6.183925322555965
 30
0.0
 11
3.022787257252555
 21
6.46311392958716
 31
0.0
  0
LINE
  5
10EF
330
1F
100
AcDbEntity
  8
0
370
    25
100
AcDbLine
 10
2.462393488683296
 20
6.175367194931723
 30
0.0
 11
2.582393488683294
 21
5.967521098023458
 31
0.0
  0
LINE
  5
10F0
330
1F
100
AcDbEntity
  8
0
370
    25
100
AcDbLine
 10
2.52371795387164
 20
6.210772891416127
 30
0.0
 11
2.643717953871642
 21
6.002926794507862
 31
0.0
  0
LINE
  5
10F1
330
1F
100
AcDbEntity
  8
0
370
    25
100
AcDbLine
 10
2.462393488683296
 20
6.175367194931723
 30
0.0
 11
2.523717953871642
 21
6.210772891416126
 31
0.0
  0
LINE
  5
10F2
330
1F
100
AcDbEntity
  8
0
370
    25
100
AcDbLine
 10
2.582393488683294
 20
5.967521098023458
 30
0.0
 11
2.643717953871643
 21
6.00292679450786
 31
0.0
  0
LINE
  5
10F3
330
1F
100
AcDbEntity
  8
0
370
    25
100
AcDbLine
 10
2.262623392788632
 20
5.921465811685393
 30
0.0
 11
2.522393488683295
 21
6.07144414647759
 31
0.0
  0
LINE
  5
10F4
330
1F
100
AcDbEntity
  8
0
370
    25
100
AcDbLine
 10
3.128611271332401
 20
6.421444146477591
 30
0.0
 11
3.235867305446182
 21
6.483368446645391
 31
0.0
  0
ARC
  5
10F5
330
1F
100
AcDbEntity
  8
0
370
    25
100
AcDbCircle
 10
2.200123392788633
 20
6.029718987158449
 30
0.0
 40
0.125
100
AcDbArc
 50
209.9999998411987
 51
299.9999999999999
  0
ARC
  5
10F6
330
1F
100
AcDbEntity
  8
0
370
    25
100
AcDbCircle
 10
3.173367305446184
 20
6.591621622118447
 30
0.0
 40
0.125
100
AcDbArc
 50
299.9999999999998
 51
29.99999999999992
  0
LINE
  5
10F7
330
1F
100
AcDbEntity
  8
0
370
    25
100
AcDbLine
 10
3.170654816094878
 20
6.846319790259682
 30
0.0
 11
3.281620480919237
 21
6.654121622118445
 31
0.0
  0
LINE
  5
10F8
330
1F
100
AcDbEntity
  8
0
370
    25
100
AcDbLine
 10
1.831384275099796
 20
6.418393876329486
 30
0.0
 11
2.091870217142352
 21
5.967218987458483
 31
0.0
  0
LINE
  5
10F9
330
1F
100
AcDbEntity
  8
0
370
    25
100
AcDbLine
 10
2.171977239491653
 20
7.719249579619543
 30
0.0
 11
2.126866005564592
 21
7.797384527543123
 31
0.0
  0
ARC
  5
10FB
330
1F
100
AcDbEntity
  8
0
370
    25
100
AcDbCircle
 10
2.018612830517641
 20
7.734884526805091
 30
0.0
 40
0.125
100
AcDbArc
 50
30.00000039062277
 51
89.99999984119865
  0
ARC
  5
10FC
330
1F
100
AcDbEntity
  8
0
370
    25
100
AcDbCircle
 10
2.341403583066452
 20
7.084927858663059
 30
0.0
 40
0.65
100
AcDbArc
 50
226.0304091383308
 51
339.7745507502703
  0
ARC
  5
10FD
330
1F
100
AcDbEntity
  8
0
370
    25
100
AcDbCircle
 10
2.341403583066452
 20
7.084927858663059
 30
0.0
 40
0.5560000000000001
100
AcDbArc
 50
226.7430169628569
 51
283.7054422981653
  0
LINE
  5
10FE
330
1F
100
AcDbEntity
  8
0
370
    25
100
AcDbLine
 10
1.999533834482568
 20
6.747794836735351
 30
0.0
 11
2.265837837879673
 21
6.594044148687756
 31
0.0
  0
LINE
  5
10FF
330
1F
100
AcDbEntity
  8
0
370
    25
100
AcDbLine
 10
1.877992398711289
 20
6.624121515433004
 30
0.0
 11
1.831384274846918
 21
6.543393875291418
 31
0.0
  0
ARC
  5
1100
330
1F
100
AcDbEntity
  8
0
370
    25
100
AcDbCircle
 10
1.939637450746076
 20
6.480893876029451
 30
0.0
 40
0.125
100
AcDbArc
 50
150.0000003906229
 51
209.9999998411989
  0
LINE
  5
110D
330
1F
100
AcDbEntity
  8
0
370
    25
100
AcDbLine
 10
4.268723821197038
 20
7.03622900303693
 30
0.0
 11
4.268723821197043
 21
7.746353368250788
 31
0.0
  0
LINE
  5
1110
330
1F
100
AcDbEntity
  8
0
370
    25
100
AcDbLine
 10
4.455876645811184
 20
6.959835695960221
 30
0.0
 11
4.902769592216326
 21
6.959835695960221
 31
0.0
  0
LINE
  5
1111
330
1F
100
AcDbEntity
  8
0
370
    25
100
AcDbLine
 10
4.455876645811184
 20
6.862622310113636
 30
0.0
 11
4.902769592216326
 21
6.862622310113632
 31
0.0
  0
LINE
  5
1112
330
1F
100
AcDbEntity
  8
0
370
    25
100
AcDbLine
 10
4.455876645811184
 20
6.862622310113636
 30
0.0
 11
4.455876645811184
 21
6.959835695960221
 31
0.0
  0
LINE
  5
1113
330
1F
100
AcDbEntity
  8
BORDER
 62
     7
370
    25
100
AcDbLine
 10
4.402769592216325
 20
6.514852109942133
 30
0.0
 11
4.402769592216324
 21
7.084927858663055
 31
0.0
  0
LINE
  5
1114
330
1F
100
AcDbEntity
  8
0
370
    25
100
AcDbLine
 10
4.455876645811184
 20
6.911229003036929
 30
0.0
 11
4.393723821197038
 21
6.911229003036929
 31
0.0
  0
ARC
  5
1115
330
1F
100
AcDbEntity
  8
0
370
    25
100
AcDbCircle
 10
4.393723821197038
 20
7.036229003036929
 30
0.0
 40
0.125
100
AcDbArc
 50
179.9999999999996
 51
270.0
  0
ELLIPSE
  5
1119
330
1F
100
AcDbEntity
  8
0
370
    25
100
AcDbEllipse
 10
4.270541764896442
 20
7.746353368250787
 30
0.0
 11
-0.1205427936305341
 21
0.0
 31
0.0
210
0.0
220
0.0
230
1.0
 40
0.83943334537249
 41
0.0
 42
6.283185307179586
  0
ELLIPSE
  5
111A
330
1F
100
AcDbEntity
  8
0
370
    25
100
AcDbEllipse
 10
4.270541764896442
 20
7.784492930287893
 30
0.0
 11
-0.1205427936305341
 21
0.0
 31
0.0
210
0.0
220
0.0
230
1.0
 40
0.83943334537249
 41
3.141592653589793
 42
6.283185307179586
  0
LINE
  5
111D
330
1F
100
AcDbEntity
  8
0
370
    25
100
AcDbLine
 10
4.391084558526976
 20
7.746353368250787
 30
0.0
 11
4.391084558526976
 21
7.784492930287893
 31
0.0
  0
LINE
  5
111E
330
1F
100
AcDbEntity
  8
0
370
    25
100
AcDbLine
 10
4.149998971265908
 20
7.746353368250787
 30
0.0
 11
4.149998971265908
 21
7.784492930287893
 31
0.0
  0
ELLIPSE
  5
111F
330
1F
100
AcDbEntity
  8
0
370
    25
100
AcDbEllipse
 10
4.270541764896442
 20
8.061412630678052
 30
0.0
 11
-0.1205427936305341
 21
0.0
 31
0.0
210
0.0
220
0.0
230
1.0
 40
0.83943334537249
 41
2.394999042727355
 42
6.966796716832088
  0
ELLIPSE
  5
1120
330
1F
100
AcDbEntity
  8
0
370
    25
100
AcDbEllipse
 10
4.270541764896442
 20
8.099552192715158
 30
0.0
 11
-0.1205427936305341
 21
0.0
 31
0.0
210
0.0
220
0.0
230
1.0
 40
0.83943334537249
 41
3.141592653589793
 42
6.283185307179586
  0
LINE
  5
1121
330
1F
100
AcDbEntity
  8
0
370
    25
100
AcDbLine
 10
4.149998971265908
 20
8.061412630678052
 30
0.0
 11
4.149998971265908
 21
8.099552192715158
 31
0.0
  0
LINE
  5
1122
330
1F
100
AcDbEntity
  8
0
370
    25
100
AcDbLine
 10
4.391084558526976
 20
8.061412630678052
 30
0.0
 11
4.391084558526976
 21
8.099552192715158
 31
0.0
  0
ELLIPSE
  5
1123
330
1F
100
AcDbEntity
  8
0
370
    25
100
AcDbEllipse
 10
4.268053142187497
 20
8.061356645686661
 30
0.0
 11
-0.0909678223290982
 21
0.0
 31
0.0
210
0.0
220
0.0
230
1.0
 40
0.5201966790609586
 41
3.141592653589793
 42
6.283185307179586
  0
LINE
  5
1125
330
1F
100
AcDbEntity
  8
0
370
    25
100
AcDbLine
 10
4.177085319858399
 20
8.061356645686661
 30
0.0
 11
4.177085319858399
 21
7.85233461930266
 31
0.0
  0
LINE
  5
1126
330
1F
100
AcDbEntity
  8
0
370
    25
100
AcDbLine
 10
4.359020964516595
 20
8.061356645686661
 30
0.0
 11
4.359020964516595
 21
7.85233461930266
 31
0.0
  0
ARC
  5
1127
330
1F
100
AcDbEntity
  8
0
370
    25
100
AcDbCircle
 10
4.393723821197038
 20
7.753518041631583
 30
0.0
 40
0.125
100
AcDbArc
 50
233.0877545133642
 51
270.0
  0
LINE
  5
1128
330
1F
100
AcDbEntity
  8
0
370
    25
100
AcDbLine
 10
4.402769592216324
 20
7.628518041631582
 30
0.0
 11
4.393723821197038
 21
7.628518041631583
 31
0.0
  0
ELLIPSE
  5
1129
330
1F
100
AcDbEntity
  8
0
370
    25
100
AcDbEllipse
 10
4.270541764896442
 20
6.108443086648065
 30
0.0
 11
-0.1205427936305341
 21
0.0
 31
0.0
210
0.0
220
0.0
230
-1.0
 40
0.83943334537249
 41
2.394999042727355
 42
6.966796716832088
  0
ELLIPSE
  5
112A
330
1F
100
AcDbEntity
  8
0
370
    25
100
AcDbEllipse
 10
4.268053142187497
 20
6.108499071639457
 30
0.0
 11
-0.0909678223290982
 21
0.0
 31
0.0
210
0.0
220
0.0
230
-1.0
 40
0.5201966790609586
 41
3.141592653589793
 42
6.283185307179586
  0
ELLIPSE
  5
112B
330
1F
100
AcDbEntity
  8
0
370
    25
100
AcDbEllipse
 10
4.270541764896442
 20
6.07030352461096
 30
0.0
 11
-0.1205427936305341
 21
0.0
 31
0.0
210
0.0
220
0.0
230
-1.0
 40
0.83943334537249
 41
3.141592653589793
 42
6.283185307179586
  0
LINE
  5
112C
330
1F
100
AcDbEntity
  8
0
370
    25
100
AcDbLine
 10
4.177085319858399
 20
6.108499071639457
 30
0.0
 11
4.177085319858399
 21
6.317521098023457
 31
0.0
  0
LINE
  5
112D
330
1F
100
AcDbEntity
  8
0
370
    25
100
AcDbLine
 10
4.149998971265908
 20
6.108443086648065
 30
0.0
 11
4.149998971265908
 21
6.07030352461096
 31
0.0
  0
LINE
  5
112E
330
1F
100
AcDbEntity
  8
0
370
    25
100
AcDbLine
 10
4.359020964516595
 20
6.108499071639457
 30
0.0
 11
4.359020964516595
 21
6.317521098023457
 31
0.0
  0
LINE
  5
112F
330
1F
100
AcDbEntity
  8
0
370
    25
100
AcDbLine
 10
4.391084558526976
 20
6.108443086648065
 30
0.0
 11
4.391084558526976
 21
6.07030352461096
 31
0.0
  0
ELLIPSE
  5
1130
330
1F
100
AcDbEntity
  8
0
370
    25
100
AcDbEllipse
 10
4.270541764896442
 20
6.423502349075331
 30
0.0
 11
-0.1205427936305341
 21
0.0
 31
0.0
210
0.0
220
0.0
230
-1.0
 40
0.83943334537249
 41
0.0
 42
6.283185307179586
  0
ELLIPSE
  5
1131
330
1F
100
AcDbEntity
  8
0
370
    25
100
AcDbEllipse
 10
4.270541764896442
 20
6.385362787038225
 30
0.0
 11
-0.1205427936305341
 21
0.0
 31
0.0
210
0.0
220
0.0
230
-1.0
 40
0.83943334537249
 41
3.141592653589793
 42
6.283185307179586
  0
ARC
  5
1132
330
1F
100
AcDbEntity
  8
0
370
    25
100
AcDbCircle
 10
4.393723821197038
 20
6.416337675694535
 30
0.0
 40
0.125
100
AcDbArc
 50
90.00000000000003
 51
126.9122454866357
  0
LINE
  5
1133
330
1F
100
AcDbEntity
  8
0
370
    25
100
AcDbLine
 10
4.268723821197038
 20
7.133626714289188
 30
0.0
 11
4.268723821197039
 21
7.036229003036928
 31
0.0
  0
ARC
  5
1136
330
1F
100
AcDbEntity
  8
0
370
    25
100
AcDbCircle
 10
4.393723821197038
 20
6.786229003036929
 30
0.0
 40
0.125
100
AcDbArc
 50
90.00000000000003
 51
180.0000000000003
  0
LINE
  5
1137
330
1F
100
AcDbEntity
  8
0
370
    25
100
AcDbLine
 10
4.26872382119704
 20
6.786229003036928
 30
0.0
 11
4.268723821197043
 21
6.42350234907533
 31
0.0
  0
TEXT
  5
1139
330
1F
100
AcDbEntity
  8
NOTES
370
    25
100
AcDbText
 10
4.227501578144142
 20
1.698408374218349
 30
0.0
 40
0.2
  1
VISHAY  33313
100
AcDbText
  0
TEXT
  5
113A
330
1F
100
AcDbEntity
  8
0
370
    25
100
AcDbText
 10
10.68316624325377
 20
5.904943337025186
 30
0.0
 40
0.0665
  1
Performance and Protection for Drives
 50
90.0
100
AcDbText
  0
LINE
  5
113B
330
1F
100
AcDbEntity
  8
BORDER
 62
     7
370
    25
100
AcDbLine
 10
10.53392480486694
 20
5.822427858663056
 30
0.0
 11
11.53063766148784
 21
5.822427858663056
 31
0.0
  0
LINE
  5
113C
330
1F
100
AcDbEntity
  8
BORDER
 62
     7
370
    25
100
AcDbLine
 10
11.53063766148784
 20
5.822427858663056
 30
0.0
 11
11.53063766148784
 21
8.347427858663056
 31
0.0
  0
LINE
  5
113D
330
1F
100
AcDbEntity
  8
BORDER
 62
     7
370
    25
100
AcDbLine
 10
11.53063766148784
 20
8.347427858663056
 30
0.0
 11
10.53392480486694
 21
8.347427858663056
 31
0.0
  0
LINE
  5
113E
330
1F
100
AcDbEntity
  8
BORDER
 62
     7
370
    25
100
AcDbLine
 10
10.53392480486694
 20
8.347427858663056
 30
0.0
 11
10.53392480486694
 21
5.822427858663056
 31
0.0
  0
LINE
  5
113F
330
1F
100
AcDbEntity
  8
BORDER
 62
     7
370
    25
100
AcDbLine
 10
10.75542753003525
 20
8.347427858663056
 30
0.0
 11
10.75542753003525
 21
5.822427858663056
 31
0.0
  0
TEXT
  5
1140
330
1F
100
AcDbEntity
  8
0
370
    25
100
AcDbText
 10
10.96822336203378
 20
5.905576531174074
 30
0.0
 40
0.0665
  1
KCAP Power Factor Correction Capacitor
 50
90.0
100
AcDbText
  0
INSERT
  5
119B
330
1F
100
AcDbEntity
  8
0
370
    25
100
AcDbBlockReference
  2
A$C5FFD3D1B
 10
12.717073082594
 20
7.084927858663056
 30
0.0
  0
INSERT
  5
11A1
330
1F
100
AcDbEntity
  8
0
370
    25
100
AcDbBlockReference
  2
A$C087148CE
 10
16.37676153829197
 20
7.084927858663057
 30
0.0
  0
TEXT
  5
11CF
330
1F
100
AcDbEntity
  8
NOTES
370
    25
100
AcDbText
 10
8.060434332208927
 20
3.018035233540263
 30
0.0
 40
0.2
  1
NON-PCB
100
AcDbText
  0
TEXT
  5
11EC
330
1F
100
AcDbEntity
  8
NOTES
370
    25
100
AcDbText
 10
1.522899793413778
 20
5.322586395756506
 30
0.0
 40
0.2
  1
DELTA
100
AcDbText
  0
TEXT
  5
11ED
330
1F
100
AcDbEntity
  8
NOTES
370
    25
100
AcDbText
 10
1.504890057505875
 20
4.944495959564957
 30
0.0
 40
0.2
  1
CONNECTIONS
100
AcDbText
  0
LINE
  5
11EE
330
1F
100
AcDbEntity
  8
DIM
370
    25
100
AcDbLine
 10
4.154332486982667
 20
3.996786437888943
 30
0.0
 11
6.729724883503344
 21
3.996786437888943
 31
0.0
  0
TEXT
  5
11EF
330
1F
100
AcDbEntity
  8
NOTES
370
    25
100
AcDbText
 10
4.227501578144142
 20
1.284309330960844
 30
0.0
 40
0.2
  1
ARTICLE NO. 5341-44326-02
100
AcDbText
  0
LWPOLYLINE
  5
11F0
330
1F
100
AcDbEntity
  8
DIM
370
    25
100
AcDbPolyline
 90
        3
 70
     1
 43
0.0
 10
3.794137728401977
 20
1.65622664794041
 10
3.544662744814755
 20
1.22412330114993
 10
4.043612711989199
 20
1.22412330114993
  0
TEXT
  5
11F1
330
1F
100
AcDbEntity
  8
DIM
370
    25
100
AcDbText
 10
3.704089048862464
 20
1.314144818814821
 30
0.0
 40
0.2
  1
A
100
AcDbText
  0
LWPOLYLINE
  5
11F2
330
1F
100
AcDbEntity
  8
DIM
370
    25
100
AcDbPolyline
 90
        3
 70
     1
 43
0.0
 10
3.794137728401977
 20
4.212838100951017
 10
3.544662744814755
 20
3.780734754160537
 10
4.043612711989199
 20
3.780734754160537
  0
TEXT
  5
11F3
330
1F
100
AcDbEntity
  8
DIM
370
    25
100
AcDbText
 10
3.704089048862464
 20
3.870756271825428
 30
0.0
 40
0.2
  1
A
100
AcDbText
  0
LWPOLYLINE
  5
11F4
330
1F
100
AcDbEntity
  8
DIM
370
    25
100
AcDbPolyline
 90
        3
 70
     1
 43
0.0
 10
1.200735595973405
 20
5.707195500851561
 10
0.9512606123861836
 20
5.275092154061081
 10
1.450210579560627
 20
5.275092154061081
  0
TEXT
  5
11F5
330
1F
100
AcDbEntity
  8
DIM
370
    25
100
AcDbText
 10
1.110686916433891
 20
5.365113671725971
 30
0.0
 40
0.2
  1
A
100
AcDbText
  0
LINE
  5
1302
330
1F
100
AcDbEntity
  8
BORDER
370
    25
100
AcDbLine
 10
-0.273386821905536
 20
-1.818805395436486
 30
0.0
 11
18.92661317809446
 21
-1.818805395436486
 31
0.0
  0
LINE
  5
1303
330
1F
100
AcDbEntity
  8
BORDER
370
    25
100
AcDbLine
 10
18.92661317809446
 20
-1.818805395436486
 30
0.0
 11
18.92661317809446
 21
10.18119460456351
 31
0.0
  0
LINE
  5
1304
330
1F
100
AcDbEntity
  8
BORDER
370
    25
100
AcDbLine
 10
18.92661317809446
 20
10.18119460456351
 30
0.0
 11
-0.273386821905536
 21
10.18119460456351
 31
0.0
  0
LINE
  5
1305
330
1F
100
AcDbEntity
  8
BORDER
370
    25
100
AcDbLine
 10
-0.273386821905536
 20
10.18119460456351
 30
0.0
 11
-0.273386821905536
 21
-1.818805395436486
 31
0.0
  0
INSERT
  5
1306
330
1F
100
AcDbEntity
  8
BORDER
370
    25
100
AcDbBlockReference
 66
     1
  2
TITLEB
 10
18.92661317809446
 20
-1.818805395436486
 30
0.0
 41
1.199999999999999
 42
1.199999999999999
 43
1.199999999999999
1001
MASTER-TITLE
1002
{
1000
MGTITLE
1002
}
  0
ATTRIB
  5
1307
330
1306
100
AcDbEntity
  8
0
100
AcDbText
 10
17.38911317809446
 20
-1.518805395436486
 30
0.0
 40
0.225
  1
KCAP5A6A
 41
0.8000000000000001
100
AcDbAttribute
280
     0
  2
DWGNO
 70
     0
280
     0
  0
ATTRIB
  5
1308
330
1306
100
AcDbEntity
  8
0
100
AcDbText
 10
14.91411317809447
 20
-1.481305395436486
 30
0.0
 40
0.15
  1
RJC
 41
0.8
100
AcDbAttribute
280
     0
  2
DRNBY
 70
     0
280
     0
  0
ATTRIB
  5
1309
330
1306
100
AcDbEntity
  8
0
100
AcDbText
 10
15.92661317809446
 20
-1.481305395436486
 30
0.0
 40
0.15
  1
11/1/06
 41
1.04545454545455
 72
     5
 11
16.78911317809447
 21
-1.481305395436486
 31
0.0
100
AcDbAttribute
280
     0
  2
DATE
 70
     0
280
     0
  0
ATTRIB
  5
130A
330
1306
100
AcDbEntity
  8
0
100
AcDbText
 10
14.83911317809446
 20
-1.781305395436486
 30
0.0
 40
0.15
  1
---
 41
0.8
100
AcDbAttribute
280
     0
  2
SCALE
 70
     0
280
     0
  0
ATTRIB
  5
130B
330
1306
100
AcDbEntity
  8
0
100
AcDbText
 10
16.03911317809447
 20
-1.781305395436486
 30
0.0
 40
0.15
  1

 41
0.8
100
AcDbAttribute
280
     0
  2
APRVD
 70
     0
280
     0
  0
ATTRIB
  5
130C
330
1306
100
AcDbEntity
  8
0
100
AcDbText
 10
18.13911317809446
 20
-1.781305395436486
 30
0.0
 40
0.15
  1
1
 41
0.8
100
AcDbAttribute
280
     0
  2
SHT
 70
     0
280
     0
  0
ATTRIB
  5
130D
330
1306
100
AcDbEntity
  8
0
100
AcDbText
 10
18.58911317809446
 20
-1.781305395436486
 30
0.0
 40
0.15
  1
 1
 41
0.8
100
AcDbAttribute
280
     0
  2
OFSHT
 70
     0
280
     0
  0
ATTRIB
  5
130E
330
1306
100
AcDbEntity
  8
0
100
AcDbText
 10
14.61411317809446
 20
-0.7688053954364868
 30
0.0
 40
0.225
  1
CAPACITOR, HI-ENDURANCE
 41
0.8000000000000001
100
AcDbAttribute
280
     0
  2
DESC1
 70
     0
280
     0
  0
ATTRIB
  5
130F
330
1306
100
AcDbEntity
  8
0
100
AcDbText
 10
14.61411317809446
 20
-1.106305395436486
 30
0.0
 40
0.225
  1
5 KVAR, 480 V., 60 HZ.
 41
0.8000000000000001
100
AcDbAttribute
280
     0
  2
DESC2
 70
     0
280
     0
  0
ATTRIB
  5
1310
330
1306
100
AcDbEntity
  8
0
100
AcDbText
 10
13.86411317809446
 20
-0.5063053954364867
 30
0.0
 40
0.15
  1
.02
 41
0.8
100
AcDbAttribute
280
     0
  2
TOLXX
 70
     0
280
     0
  0
ATTRIB
  5
1311
330
1306
100
AcDbEntity
  8
0
100
AcDbText
 10
13.86411317809446
 20
-0.8063053954364868
 30
0.0
 40
0.15
  1
.010
 41
0.8
100
AcDbAttribute
280
     0
  2
TOLXXX
 70
     0
280
     0
  0
ATTRIB
  5
1312
330
1306
100
AcDbEntity
  8
0
100
AcDbText
 10
13.56411317809447
 20
-1.256305395436486
 30
0.0
 40
0.15
  1
1/32
 41
0.8
100
AcDbAttribute
280
     0
  2
TOLFRAC
 70
     0
280
     0
  0
ATTRIB
  5
1313
330
1306
100
AcDbEntity
  8
0
100
AcDbText
 10
13.56411317809447
 20
-1.706305395436486
 30
0.0
 40
0.15
  1
1/2%%d
 41
0.8
100
AcDbAttribute
280
     0
  2
TOLANG
 70
     0
280
     0
  0
ATTRIB
  5
1314
330
1306
100
AcDbEntity
  8
0
100
AcDbText
 10
17.01411317809446
 20
-1.706305395436486
 30
0.0
 40
0.3
  1
B
 41
0.8
100
AcDbAttribute
280
     0
  2
DWG.SIZE
 70
     0
280
     0
  0
SEQEND
  5
1315
330
1306
100
AcDbEntity
  8
BORDER
  0
LWPOLYLINE
  5
1316
330
1F
100
AcDbEntity
  8
BORDER
370
    25
100
AcDbPolyline
 90
        3
 70
     0
 43
0.0
 10
8.426613178094463
 20
-1.818805395436486
 10
18.92661317809446
 20
-1.818805395436486
 10
18.92661317809446
 20
0.2811946045635136
  0
LINE
  5
1317
330
1F
100
AcDbEntity
  8
BORDER
370
    25
100
AcDbLine
 10
18.92661317809446
 20
0.2811946045635132
 30
0.0
 11
8.426613178094463
 21
0.2811946045635132
 31
0.0
  0
LINE
  5
1318
330
1F
100
AcDbEntity
  8
BORDER
370
    25
100
AcDbLine
 10
8.426613178094463
 20
-1.818805395436486
 30
0.0
 11
8.426613178094463
 21
0.2811946045635132
 31
0.0
  0
LINE
  5
1319
330
1F
100
AcDbEntity
  8
BORDER
370
    25
100
AcDbLine
 10
18.92661317809446
 20
0.2811946045635141
 30
0.0
 11
8.426613178094463
 21
0.2811946045635141
 31
0.0
  0
LINE
  5
131A
330
1F
100
AcDbEntity
  8
BORDER
370
    25
100
AcDbLine
 10
8.426613178094463
 20
-1.818805395436485
 30
0.0
 11
8.426613178094463
 21
0.2811946045635141
 31
0.0
  0
INSERT
  5
131B
330
1F
100
AcDbEntity
  8
BORDER
370
    25
100
AcDbBlockReference
 66
     1
  2
REVISE12
 10
8.426613178094463
 20
-1.218805395436486
 30
0.0
 41
1.199999999999999
 42
1.199999999999999
 43
1.199999999999999
  0
ATTRIB
  5
131C
330
131B
100
AcDbEntity
  8
0
100
AcDbText
 10
8.464113178094464
 20
-1.143805395436485
 30
0.0
 40
0.15
  1

 41
0.9
 72
     5
 11
8.689113178094466
 21
-1.143805395436485
 31
0.0
100
AcDbAttribute
280
     0
  2
NO
 70
     8
280
     0
  0
ATTRIB
  5
131D
330
131B
100
AcDbEntity
  8
0
100
AcDbText
 10
8.801613178094463
 20
-1.143805395436485
 30
0.0
 40
0.15
  1
ADDED "DELTA CONN."
100
AcDbAttribute
280
     0
  2
REV
 70
     8
280
     0
  0
ATTRIB
  5
131E
330
131B
100
AcDbEntity
  8
0
100
AcDbText
 10
11.80161317809446
 20
-1.143805395436485
 30
0.0
 40
0.15
  1
3/14/09
 41
0.8513513513513528
 72
     5
 11
12.58911317809446
 21
-1.143805395436485
 31
0.0
100
AcDbAttribute
280
     0
  2
RDATE
 70
     8
280
     0
  0
ATTRIB
  5
131F
330
131B
100
AcDbEntity
  8
0
100
AcDbText
 10
12.66411317809447
 20
-1.143805395436485
 30
0.0
 40
0.15
  1
RJC
100
AcDbAttribute
280
     0
  2
BY
 70
     8
280
     0
  0
SEQEND
  5
1320
330
131B
100
AcDbEntity
  8
BORDER
  0
INSERT
  5
1321
330
1F
100
AcDbEntity
  8
BORDER
370
    25
100
AcDbBlockReference
 66
     1
  2
REVISE12
 10
8.426613178094463
 20
-0.9188053954364869
 30
0.0
 41
1.199999999999999
 42
1.199999999999999
 43
1.199999999999999
  0
ATTRIB
  5
1322
330
1321
100
AcDbEntity
  8
0
100
AcDbText
 10
8.464113178094464
 20
-0.8438053954364859
 30
0.0
 40
0.15
  1

 41
0.9
 72
     5
 11
8.689113178094466
 21
-0.8438053954364859
 31
0.0
100
AcDbAttribute
280
     0
  2
NO
 70
     8
280
     0
  0
ATTRIB
  5
1323
330
1321
100
AcDbEntity
  8
0
100
AcDbText
 10
8.801613178094463
 20
-0.8438053954364859
 30
0.0
 40
0.15
  1
ADDED ARTICLE NO.
100
AcDbAttribute
280
     0
  2
REV
 70
     8
280
     0
  0
ATTRIB
  5
1324
330
1321
100
AcDbEntity
  8
0
100
AcDbText
 10
11.80161317809446
 20
-0.8438053954364859
 30
0.0
 40
0.15
  1

 41
1.125
 72
     5
 11
12.58911317809446
 21
-0.8438053954364859
 31
0.0
100
AcDbAttribute
280
     0
  2
RDATE
 70
     8
280
     0
  0
ATTRIB
  5
1325
330
1321
100
AcDbEntity
  8
0
100
AcDbText
 10
12.66411317809447
 20
-0.8438053954364859
 30
0.0
 40
0.15
  1

100
AcDbAttribute
280
     0
  2
BY
 70
     8
280
     0
  0
SEQEND
  5
1326
330
1321
100
AcDbEntity
  8
BORDER
  0
INSERT
  5
1327
330
1F
100
AcDbEntity
  8
BORDER
370
    25
100
AcDbBlockReference
 66
     1
  2
REVISE12
 10
8.426613178094463
 20
-0.6188053954364868
 30
0.0
 41
1.199999999999999
 42
1.199999999999999
 43
1.199999999999999
  0
ATTRIB
  5
1328
330
1327
100
AcDbEntity
  8
0
100
AcDbText
 10
8.464113178094464
 20
-0.5438053954364857
 30
0.0
 40
0.15
  1
A
 41
2.250000000000014
 72
     5
 11
8.689113178094466
 21
-0.5438053954364857
 31
0.0
100
AcDbAttribute
280
     0
  2
NO
 70
     8
280
     0
  0
ATTRIB
  5
1329
330
1327
100
AcDbEntity
  8
0
100
AcDbText
 10
8.801613178094463
 20
-0.5438053954364857
 30
0.0
 40
0.15
  1
DELETED P/N 16447
100
AcDbAttribute
280
     0
  2
REV
 70
     8
280
     0
  0
ATTRIB
  5
132A
330
1327
100
AcDbEntity
  8
0
100
AcDbText
 10
11.80161317809446
 20
-0.5438053954364857
 30
0.0
 40
0.15
  1

 41
1.125
 72
     5
 11
12.58911317809446
 21
-0.5438053954364857
 31
0.0
100
AcDbAttribute
280
     0
  2
RDATE
 70
     8
280
     0
  0
ATTRIB
  5
132B
330
1327
100
AcDbEntity
  8
0
100
AcDbText
 10
12.66411317809447
 20
-0.5438053954364857
 30
0.0
 40
0.15
  1

100
AcDbAttribute
280
     0
  2
BY
 70
     8
280
     0
  0
SEQEND
  5
132C
330
1327
100
AcDbEntity
  8
BORDER
  0
INSERT
  5
132D
330
1F
100
AcDbEntity
  8
BORDER
370
    25
100
AcDbBlockReference
 66
     1
  2
REVISE12
 10
8.426613178094463
 20
-0.3188053954364867
 30
0.0
 41
1.199999999999999
 42
1.199999999999999
 43
1.199999999999999
  0
ATTRIB
  5
132E
330
132D
100
AcDbEntity
  8
0
100
AcDbText
 10
8.464113178094464
 20
-0.2438053954364856
 30
0.0
 40
0.15
  1

 41
0.9
 72
     5
 11
8.689113178094466
 21
-0.2438053954364856
 31
0.0
100
AcDbAttribute
280
     0
  2
NO
 70
     8
280
     0
  0
ATTRIB
  5
132F
330
132D
100
AcDbEntity
  8
0
100
AcDbText
 10
8.801613178094463
 20
-0.2438053954364856
 30
0.0
 40
0.15
  1

100
AcDbAttribute
280
     0
  2
REV
 70
     8
280
     0
  0
ATTRIB
  5
1330
330
132D
100
AcDbEntity
  8
0
100
AcDbText
 10
11.80161317809446
 20
-0.2438053954364856
 30
0.0
 40
0.15
  1

 41
1.125
 72
     5
 11
12.58911317809446
 21
-0.2438053954364856
 31
0.0
100
AcDbAttribute
280
     0
  2
RDATE
 70
     8
280
     0
  0
ATTRIB
  5
1331
330
132D
100
AcDbEntity
  8
0
100
AcDbText
 10
12.66411317809447
 20
-0.2438053954364856
 30
0.0
 40
0.15
  1

100
AcDbAttribute
280
     0
  2
BY
 70
     8
280
     0
  0
SEQEND
  5
1332
330
132D
100
AcDbEntity
  8
BORDER
  0
INSERT
  5
1333
330
1F
100
AcDbEntity
  8
BORDER
370
    25
100
AcDbBlockReference
 66
     1
  2
REVISE12
 10
8.426613178094463
 20
-0.0188053954364869
 30
0.0
 41
1.199999999999999
 42
1.199999999999999
 43
1.199999999999999
  0
ATTRIB
  5
1334
330
1333
100
AcDbEntity
  8
0
100
AcDbText
 10
8.464113178094464
 20
0.0561946045635131
 30
0.0
 40
0.15
  1

 41
0.9
 72
     5
 11
8.689113178094466
 21
0.0561946045635131
 31
0.0
100
AcDbAttribute
280
     0
  2
NO
 70
     8
280
     0
  0
ATTRIB
  5
1335
330
1333
100
AcDbEntity
  8
0
100
AcDbText
 10
8.801613178094463
 20
0.0561946045635131
 30
0.0
 40
0.15
  1

100
AcDbAttribute
280
     0
  2
REV
 70
     8
280
     0
  0
ATTRIB
  5
1336
330
1333
100
AcDbEntity
  8
0
100
AcDbText
 10
11.80161317809446
 20
0.0561946045635131
 30
0.0
 40
0.15
  1

 41
1.125
 72
     5
 11
12.58911317809446
 21
0.0561946045635131
 31
0.0
100
AcDbAttribute
280
     0
  2
RDATE
 70
     8
280
     0
  0
ATTRIB
  5
1337
330
1333
100
AcDbEntity
  8
0
100
AcDbText
 10
12.66411317809447
 20
0.0561946045635131
 30
0.0
 40
0.15
  1

100
AcDbAttribute
280
     0
  2
BY
 70
     8
280
     0
  0
SEQEND
  5
1338
330
1333
100
AcDbEntity
  8
BORDER
  0
INSERT
  5
1339
330
1F
100
AcDbEntity
  8
BORDER
370
    25
100
AcDbBlockReference
 66
     1
  2
REVISE12
 10
8.426613178094463
 20
-0.0188053954364858
 30
0.0
 41
1.199999999999999
 42
1.199999999999999
 43
1.199999999999999
  0
ATTRIB
  5
133A
330
1339
100
AcDbEntity
  8
0
100
AcDbText
 10
8.464113178094464
 20
0.0561946045635142
 30
0.0
 40
0.15
  1

 41
0.9
 72
     5
 11
8.689113178094466
 21
0.0561946045635142
 31
0.0
100
AcDbAttribute
280
     0
  2
NO
 70
     8
280
     0
  0
ATTRIB
  5
133B
330
1339
100
AcDbEntity
  8
0
100
AcDbText
 10
8.801613178094463
 20
0.0561946045635142
 30
0.0
 40
0.15
  1

100
AcDbAttribute
280
     0
  2
REV
 70
     8
280
     0
  0
ATTRIB
  5
133C
330
1339
100
AcDbEntity
  8
0
100
AcDbText
 10
11.80161317809446
 20
0.0561946045635142
 30
0.0
 40
0.15
  1

 41
1.125
 72
     5
 11
12.58911317809446
 21
0.0561946045635142
 31
0.0
100
AcDbAttribute
280
     0
  2
RDATE
 70
     8
280
     0
  0
ATTRIB
  5
133D
330
1339
100
AcDbEntity
  8
0
100
AcDbText
 10
12.66411317809447
 20
0.0561946045635142
 30
0.0
 40
0.15
  1

100
AcDbAttribute
280
     0
  2
BY
 70
     8
280
     0
  0
SEQEND
  5
133E
330
1339
100
AcDbEntity
  8
BORDER
  0
INSERT
  5
133F
330
1F
100
AcDbEntity
  8
BORDER
370
    25
100
AcDbBlockReference
 66
     1
  2
REVISE12
 10
8.426613178094463
 20
-1.518805395436486
 30
0.0
 41
1.199999999999999
 42
1.199999999999999
 43
1.199999999999999
  0
ATTRIB
  5
1340
330
133F
100
AcDbEntity
  8
0
100
AcDbText
 10
8.464113178094464
 20
-1.443805395436485
 30
0.0
 40
0.15
  1

 41
0.9
 72
     5
 11
8.689113178094466
 21
-1.443805395436485
 31
0.0
100
AcDbAttribute
280
     0
  2
NO
 70
     8
280
     0
  0
ATTRIB
  5
1341
330
133F
100
AcDbEntity
  8
0
100
AcDbText
 10
8.801613178094463
 20
-1.443805395436485
 30
0.0
 40
0.15
  1
RELEASED
100
AcDbAttribute
280
     0
  2
REV
 70
     8
280
     0
  0
ATTRIB
  5
1342
330
133F
100
AcDbEntity
  8
0
100
AcDbText
 10
11.80161317809446
 20
-1.443805395436485
 30
0.0
 40
0.15
  1
11/22/06
 41
0.7682926829268306
 72
     5
 11
12.58911317809446
 21
-1.443805395436485
 31
0.0
100
AcDbAttribute
280
     0
  2
RDATE
 70
     8
280
     0
  0
ATTRIB
  5
1343
330
133F
100
AcDbEntity
  8
0
100
AcDbText
 10
12.66411317809447
 20
-1.443805395436485
 30
0.0
 40
0.15
  1
RJC
100
AcDbAttribute
280
     0
  2
BY
 70
     8
280
     0
  0
SEQEND
  5
1344
330
133F
100
AcDbEntity
  8
BORDER
  0
VIEWPORT
  5
2E
330
1B
100
AcDbEntity
 67
     1
  8
0
100
AcDbViewport
 10
8.003278156021053
 20
5.830918580439004
 30
0.0
 40
18.24091401831676
 41
8.210792628610466
 68
     1
 69
     1
 12
8.003278156021053
 22
5.830918580439004
 13
0.0
 23
0.0
 14
0.5
 24
0.5
 15
0.5
 25
0.5
 16
0.0
 26
0.0
 36
1.0
 17
0.0
 27
0.0
 37
0.0
 42
50.0
 43
0.0
 44
0.0
 45
8.210792628610466
 50
0.0
 51
0.0
 72
   100
 90
    32832
  1

281
     0
 71
     1
 74
     0
110
0.0
120
0.0
130
0.0
111
1.0
121
0.0
131
0.0
112
0.0
122
1.0
132
0.0
 79
     0
146
0.0
170
     0
 61
     5
348
11DB
292
     1
282
     1
141
0.0
142
0.0
 63
   250
421
  3355443
  0
VIEWPORT
  5
5FA
330
1B
100
AcDbEntity
 67
     1
  8
VIEWPORT
100
AcDbViewport
 10
8.002968540179434
 20
5.830983021882691
 30
0.0
 40
15.91415875685889
 41
8.15230391457333
 68
     2
 69
     2
 12
9.260092920042939
 22
5.311100771460206
 13
0.0
 23
0.0
 14
0.5
 24
0.5
 15
0.5
 25
0.5
 16
0.0
 26
0.0
 36
1.0
 17
0.0
 27
0.0
 37
0.0
 42
50.0
 43
0.0
 44
0.0
 45
8.912129729082618
 50
0.0
 51
0.0
 72
   100
 90
    32832
  1

281
     0
 71
     1
 74
     0
110
0.0
120
0.0
130
0.0
111
1.0
121
0.0
131
0.0
112
0.0
122
1.0
132
0.0
 79
     0
146
0.0
170
     0
 61
     5
348
11DB
292
     1
282
     1
141
0.0
142
0.0
 63
   250
421
  3355443
  0
ENDSEC
  0
SECTION
  2
OBJECTS
  0
DICTIONARY
  5
C
330
0
100
AcDbDictionary
281
     1
  3
ACAD_CIP_PREVIOUS_PRODUCT_INFO
350
14BF
  3
ACAD_COLOR
350
11E6
  3
ACAD_DETAILVIEWSTYLE
350
14BB
  3
ACAD_GROUP
350
D
  3
ACAD_LAYOUT
350
1A
  3
ACAD_MATERIAL
350
11D1
  3
ACAD_MLEADERSTYLE
350
14B7
  3
ACAD_MLINESTYLE
350
17
  3
ACAD_PLOTSETTINGS
350
19
  3
ACAD_PLOTSTYLENAME
350
E
  3
ACAD_SCALELIST
350
14A5
  3
ACAD_SECTIONVIEWSTYLE
350
14B9
  3
ACAD_TABLESTYLE
350
11E7
  3
ACAD_VISUALSTYLE
350
11D5
  3
ACDB_RECOMPOSE_DATA
350
1503
  3
AcDbVariableDictionary
350
261
  0
DICTIONARY
  5
1223
330
8
100
AcDbDictionary
280
     1
281
     1
  0
DICTIONARY
  5
124C
330
2
100
AcDbDictionary
280
     1
281
     1
  3
ACAD_LAYERFILTERS
360
1414
  3
ACAD_LAYERSTATES
360
124D
  3
ACLYDICTIONARY
360
1413
  0
DICTIONARY
  5
14D1
330
10
100
AcDbDictionary
280
     1
281
     1
  3
ADSK_XREC_LAYER_RECONCILED
360
14D2
  0
DICTIONARY
  5
14D3
330
274
100
AcDbDictionary
280
     1
281
     1
  3
ADSK_XREC_LAYER_RECONCILED
360
14D4
  0
DICTIONARY
  5
14D5
330
573
100
AcDbDictionary
280
     1
281
     1
  3
ADSK_XREC_LAYER_RECONCILED
360
14D6
  0
DICTIONARY
  5
14D7
330
C55
100
AcDbDictionary
280
     1
281
     1
  3
ADSK_XREC_LAYER_RECONCILED
360
14D8
  0
DICTIONARY
  5
14D9
330
D12
100
AcDbDictionary
280
     1
281
     1
  3
ADSK_XREC_LAYER_RECONCILED
360
14DA
  0
DICTIONARY
  5
13E0
330
42D
100
AcDbDictionary
280
     1
281
     1
  0
DICTIONARY
  5
C0D
330
BFF
100
AcDbDictionary
280
     1
281
     1
  3
ACAD_DIMASSOC
360
C18
  0
DICTIONARY
  5
CC8
330
CBA
100
AcDbDictionary
280
     1
281
     1
  3
ACAD_DIMASSOC
360
CD3
  0
DICTIONARY
  5
107A
330
106C
100
AcDbDictionary
280
     1
281
     1
  3
ACAD_DIMASSOC
360
1085
  0
XRECORD
  5
14BF
102
{ACAD_REACTORS
330
C
102
}
330
C
100
AcDbXrecord
280
     1
300
AMECH_PP
300
2014
300
86133PDSU_2014_0F
  0
DICTIONARY
  5
11E6
102
{ACAD_REACTORS
330
C
102
}
330
C
100
AcDbDictionary
281
     1
  0
DICTIONARY
  5
14BB
102
{ACAD_REACTORS
330
C
102
}
330
C
100
AcDbDictionary
281
     1
  3
Imperial24
350
14BC
  0
DICTIONARY
  5
D
102
{ACAD_REACTORS
330
C
102
}
330
C
100
AcDbDictionary
281
     1
  0
DICTIONARY
  5
1A
102
{ACAD_REACTORS
330
C
102
}
330
C
100
AcDbDictionary
281
     1
  3
Model
350
22
  3
TCI-B
350
1E
  0
DICTIONARY
  5
11D1
102
{ACAD_REACTORS
330
C
102
}
330
C
100
AcDbDictionary
281
     1
  3
ByBlock
350
11D3
  3
ByLayer
350
11D2
  3
Global
350
11D4
  0
DICTIONARY
  5
14B7
102
{ACAD_REACTORS
330
C
102
}
330
C
100
AcDbDictionary
281
     1
  3
Standard
350
14B8
  0
DICTIONARY
  5
17
102
{ACAD_REACTORS
330
C
102
}
330
C
100
AcDbDictionary
281
     1
  3
Standard
350
18
  0
DICTIONARY
  5
19
102
{ACAD_REACTORS
330
C
102
}
330
C
100
AcDbDictionary
281
     1
  3
P3-M-L-E
350
60E
  0
ACDBDICTIONARYWDFLT
  5
E
102
{ACAD_REACTORS
330
C
102
}
330
C
100
AcDbDictionary
281
     1
  3
Normal
350
F
100
AcDbDictionaryWithDefault
340
F
  0
DICTIONARY
  5
14A5
102
{ACAD_REACTORS
330
C
102
}
330
C
100
AcDbDictionary
281
     1
  3
A0
350
14A6
  3
A1
350
14A7
  3
A2
350
14A8
  3
A3
350
14A9
  3
A4
350
14AA
  3
A5
350
14AB
  3
A6
350
14AC
  3
A7
350
14AD
  3
A8
350
14AE
  3
A9
350
14AF
  3
B0
350
14B0
  3
B1
350
14B1
  3
B2
350
14B2
  3
B3
350
14B3
  3
B4
350
14B4
  3
B5
350
14B5
  3
B6
350
14B6
  0
DICTIONARY
  5
14B9
102
{ACAD_REACTORS
330
C
102
}
330
C
100
AcDbDictionary
281
     1
  3
Imperial24
350
14BA
  0
DICTIONARY
  5
11E7
102
{ACAD_REACTORS
330
C
102
}
330
C
100
AcDbDictionary
281
     1
  3
Standard
350
11E8
  0
DICTIONARY
  5
11D5
102
{ACAD_REACTORS
330
C
102
}
330
C
100
AcDbDictionary
281
     1
  3
2dWireframe
350
11DB
  3
3D Hidden
350
11DD
  3
3dWireframe
350
11DC
  3
Basic
350
11DA
  3
Brighten
350
11E1
  3
ColorChange
350
11E5
  3
Conceptual
350
11DE
  3
Dim
350
11E0
  3
EdgeColorOff
350
14A4
  3
Facepattern
350
11E4
  3
Flat
350
11D6
  3
FlatWithEdges
350
11D7
  3
Gouraud
350
11D8
  3
GouraudWithEdges
350
11D9
  3
Hidden
350
149C
  3
JitterOff
350
14A2
  3
Linepattern
350
11E3
  3
OverhangOff
350
14A3
  3
Realistic
350
11DF
  3
Shaded
350
14A1
  3
Shaded with edges
350
14A0
  3
Shades of Gray
350
149D
  3
Sketchy
350
149E
  3
Thicken
350
11E2
  3
Wireframe
350
149B
  3
X-Ray
350
149F
  0
XRECORD
  5
1503
102
{ACAD_REACTORS
330
C
102
}
330
C
100
AcDbXrecord
280
     1
 90
        1
330
11E8
330
14BA
330
14BC
  0
DICTIONARY
  5
261
102
{ACAD_REACTORS
330
C
102
}
330
C
100
AcDbDictionary
281
     1
  3
CANNOSCALE
350
14DF
  3
CMLEADERSTYLE
350
14DB
  3
CTABLESTYLE
350
1243
  3
CVIEWDETAILSTYLE
350
14DC
  3
CVIEWSECTIONSTYLE
350
14DD
  3
DIMASSOC
350
263
  3
EXPORTMODELSPACE
350
14EC
  3
HIDETEXT
350
262
  3
INDEXCTL
350
1245
  3
LAYEREVAL
350
14E1
  3
LAYERNOTIFY
350
14E2
  3
LIGHTINGUNITS
350
14E0
  3
MSLTSCALE
350
14DE
  3
SORTENTS
350
1244
  0
DICTIONARY
  5
1414
102
{ACAD_REACTORS
330
124C
102
}
330
124C
100
AcDbDictionary
281
     1
  0
DICTIONARY
  5
124D
102
{ACAD_REACTORS
330
124C
102
}
330
124C
100
AcDbDictionary
281
     1
  0
DICTIONARY
  5
1413
102
{ACAD_REACTORS
330
124C
102
}
330
124C
100
AcDbDictionary
281
     1
1001
ACAD
1000
<All
  0
XRECORD
  5
14D2
102
{ACAD_REACTORS
330
14D1
102
}
330
14D1
100
AcDbXrecord
280
     1
290
     1
  0
XRECORD
  5
14D4
102
{ACAD_REACTORS
330
14D3
102
}
330
14D3
100
AcDbXrecord
280
     1
290
     1
  0
XRECORD
  5
14D6
102
{ACAD_REACTORS
330
14D5
102
}
330
14D5
100
AcDbXrecord
280
     1
290
     1
  0
XRECORD
  5
14D8
102
{ACAD_REACTORS
330
14D7
102
}
330
14D7
100
AcDbXrecord
280
     1
290
     1
  0
XRECORD
  5
14DA
102
{ACAD_REACTORS
330
14D9
102
}
330
14D9
100
AcDbXrecord
280
     1
290
     1
  0
DIMASSOC
  5
C18
102
{ACAD_REACTORS
330
C0D
102
}
330
C0D
100
AcDbDimAssoc
330
BFF
 90
        3
 70
     0
 71
     0
  1
AcDbOsnapPointRef
 72
    13
331
675
 73
     2
 91
        0
 40
0.0
 10
12.44776959221632
 20
5.822427858663054
 30
0.0
 75
     0
  1
AcDbOsnapPointRef
 72
    13
331
676
 73
     2
 91
        0
 40
0.0
 10
12.44776959221632
 20
8.347427858663056
 30
0.0
 75
     0
  0
DIMASSOC
  5
CD3
102
{ACAD_REACTORS
330
CC8
102
}
330
CC8
100
AcDbDimAssoc
330
CBA
 90
        1
 70
     0
 71
     0
  1
AcDbOsnapPointRef
 72
    13
331
A61
 73
     2
 91
        0
 40
0.0
 10
5.152769592216326
 20
5.81083145725099
 30
0.0
 75
     0
  0
DIMASSOC
  5
1085
102
{ACAD_REACTORS
330
107A
102
}
330
107A
100
AcDbDimAssoc
330
106C
 90
        3
 70
     0
 71
     0
  1
AcDbOsnapPointRef
 72
     1
331
69B
 73
     2
 91
        0
 40
1.0
 10
5.152769592216326
 20
5.81083145725099
 30
0.0
 75
     0
  1
AcDbOsnapPointRef
 72
    13
331
1053
 73
     2
 91
        0
 40
0.0
 10
4.402769592216324
 20
6.514852109942133
 30
0.0
 75
     0
  0
ACDBDETAILVIEWSTYLE
  5
14BC
102
{ACAD_XDICTIONARY
360
1501
102
}
102
{ACAD_REACTORS
330
14BB
102
}
330
14BB
100
AcDbModelDocViewStyle
 70
     0
  3
Imperial24
290
     0
100
AcDbDetailViewStyle
 70
     0
 71
     0
 90
        3
 71
     1
340
11
 62
   256
 40
0.24
340
0
 62
   256
 40
0.24
300

 40
0.36
280
     3
 71
     2
340
16
 90
       25
 62
   256
 71
     3
340
11
 62
   256
 40
0.24
 90
        1
 40
0.75
 90
        1
300
%<\AcVar ViewType \f "%tc1">% %<\AcVar ViewDetailId>%\PSCALE %<\AcVar ViewScale \f "%sn">%
 71
     4
340
16
 90
       25
 62
   256
340
16
 90
       25
 62
   256
280
     0
  0
LAYOUT
  5
22
102
{ACAD_XDICTIONARY
360
14EA
102
}
102
{ACAD_REACTORS
330
1A
102
}
330
1A
100
AcDbPlotSettings
  1

  2
none_device
  4
none_user_media
  6

 40
7.460000038146972
 41
6.400000095367431
 42
11.27000427246094
 43
6.399993896484375
 44
215.8999938964844
 45
279.3999938964844
 46
0.0
 47
0.0
 48
0.0
 49
0.0
140
0.0
141
0.0
142
1.0
143
1.979912147698159
 70
 11952
 72
     0
 73
     1
 74
     0
  7

 75
     0
147
0.5050729150596895
 76
     0
 77
     2
 78
   300
148
1.821692977681004
149
47.9252139705347
100
AcDbLayout
  1
Model
 70
     1
 71
     0
 10
0.0
 20
0.0
 11
12.0
 21
9.0
 12
0.0
 22
0.0
 32
0.0
 14
0.0
 24
0.0
 34
0.0
 15
0.0
 25
0.0
 35
0.0
146
0.0
 13
0.0
 23
0.0
 33
0.0
 16
1.0
 26
0.0
 36
0.0
 17
0.0
 27
1.0
 37
0.0
 76
     0
330
1F
331
1138
  0
LAYOUT
  5
1E
102
{ACAD_XDICTIONARY
360
124F
102
}
102
{ACAD_REACTORS
330
1A
102
}
330
1A
100
AcDbPlotSettings
  1
P3-M-L-E
  2
\\tci3050\HP LaserJet 5000N #3
  4
Letter
  6

 40
4.233333110809326
 41
4.233341693878173
 42
8.466659545898437
 43
4.23333740234375
 44
215.8999938964844
 45
279.3999938964844
 46
0.0
 47
0.0
 48
0.0
 49
0.0
140
0.0
141
0.0
142
1.0
143
1.500096043756562
 70
   688
 72
     0
 73
     1
 74
     1
  7
monochrome.ctb
 75
     0
147
0.6666239832856204
 76
     0
 77
     2
 78
   300
148
0.5053152905642421
149
0.669952951918944
100
AcDbLayout
  1
TCI-B
 70
     1
 71
     1
 10
-0.2699182000122087
 20
-0.2769722290964413
 11
16.23115288981076
 21
12.47385534929694
 12
0.0
 22
0.0
 32
0.0
 14
0.0455701516949745
 24
1.753867925380987
 34
-0.0015258207003583
 15
15.96098616034713
 25
9.90796923549702
 35
0.0000000349246037
146
0.0
 13
0.0
 23
0.0
 33
0.0
 16
1.0
 26
0.0
 36
0.0
 17
0.0
 27
1.0
 37
0.0
 76
     0
330
1B
331
2E
  0
MATERIAL
  5
11D3
102
{ACAD_REACTORS
330
11D1
102
}
330
11D1
100
AcDbMaterial
  1
ByBlock
 73
     1
 78
     1
172
     1
176
     1
270
     1
274
     1
 94
       63
  0
MATERIAL
  5
11D2
102
{ACAD_REACTORS
330
11D1
102
}
330
11D1
100
AcDbMaterial
  1
ByLayer
 73
     1
 78
     1
172
     1
176
     1
270
     1
274
     1
 94
       63
  0
MATERIAL
  5
11D4
102
{ACAD_REACTORS
330
11D1
102
}
330
11D1
100
AcDbMaterial
  1
Global
 73
     1
 78
     1
172
     1
176
     1
270
     1
274
     1
 94
       63
  0
MLEADERSTYLE
  5
14B8
102
{ACAD_REACTORS
330
14B7
102
}
330
14B7
100
AcDbMLeaderStyle
179
     2
170
     2
171
     1
172
     0
 90
        2
 40
0.0
 41
0.0
173
     1
 91
-1056964608
340
14
 92
       -2
290
     1
 42
0.09
291
     1
 43
0.36
  3
Standard
 44
0.18
300

342
11
174
     1
178
     6
175
     1
176
     0
 93
-1056964608
 45
0.18
292
     0
297
     0
 46
0.18
 94
-1056964608
 47
1.0
 49
1.0
140
1.0
293
     1
141
0.0
294
     1
177
     0
142
1.0
295
     1
296
     0
143
0.125
271
     0
272
     9
273
     9
298
     1
  0
MLINESTYLE
  5
18
102
{ACAD_REACTORS
330
17
102
}
330
17
100
AcDbMlineStyle
  2
STANDARD
 70
     0
  3

 62
   256
 51
90.0
 52
90.0
 71
     2
 49
0.5
 62
   256
  6
BYLAYER
 49
-0.5
 62
   256
  6
BYLAYER
  0
PLOTSETTINGS
  5
60E
102
{ACAD_REACTORS
330
19
102
}
330
19
100
AcDbPlotSettings
  1
P3-M-L-E
  2
\\tci3050\HP LaserJet 5000N #3
  4
Letter
  6

 40
4.233333110809326
 41
4.233341693878173
 42
8.466659545898437
 43
4.23333740234375
 44
215.8999938964844
 45
279.3999938964844
 46
0.0
 47
0.0
 48
0.0
 49
0.0
140
0.0
141
0.0
142
1.0
143
1.500096043756562
 70
   688
 72
     0
 73
     1
 74
     1
  7
monochrome.ctb
 75
     0
147
0.6666239832856204
 76
     0
 77
     2
 78
   300
148
0.5053152905642421
149
0.669952951918944
  0
ACDBPLACEHOLDER
  5
F
102
{ACAD_REACTORS
330
E
102
}
330
E
  0
SCALE
  5
14A6
102
{ACAD_REACTORS
330
14A5
102
}
330
14A5
100
AcDbScale
 70
     0
300
1:1
140
1.0
141
1.0
290
     1
  0
SCALE
  5
14A7
102
{ACAD_REACTORS
330
14A5
102
}
330
14A5
100
AcDbScale
 70
     0
300
1/128" = 1'-0"
140
0.0078125
141
12.0
290
     0
  0
SCALE
  5
14A8
102
{ACAD_REACTORS
330
14A5
102
}
330
14A5
100
AcDbScale
 70
     0
300
1/64" = 1'-0"
140
0.015625
141
12.0
290
     0
  0
SCALE
  5
14A9
102
{ACAD_REACTORS
330
14A5
102
}
330
14A5
100
AcDbScale
 70
     0
300
1/32" = 1'-0"
140
0.03125
141
12.0
290
     0
  0
SCALE
  5
14AA
102
{ACAD_REACTORS
330
14A5
102
}
330
14A5
100
AcDbScale
 70
     0
300
1/16" = 1'-0"
140
0.0625
141
12.0
290
     0
  0
SCALE
  5
14AB
102
{ACAD_REACTORS
330
14A5
102
}
330
14A5
100
AcDbScale
 70
     0
300
3/32" = 1'-0"
140
0.09375
141
12.0
290
     0
  0
SCALE
  5
14AC
102
{ACAD_REACTORS
330
14A5
102
}
330
14A5
100
AcDbScale
 70
     0
300
1/8" = 1'-0"
140
0.125
141
12.0
290
     0
  0
SCALE
  5
14AD
102
{ACAD_REACTORS
330
14A5
102
}
330
14A5
100
AcDbScale
 70
     0
300
3/16" = 1'-0"
140
0.1875
141
12.0
290
     0
  0
SCALE
  5
14AE
102
{ACAD_REACTORS
330
14A5
102
}
330
14A5
100
AcDbScale
 70
     0
300
1/4" = 1'-0"
140
0.25
141
12.0
290
     0
  0
SCALE
  5
14AF
102
{ACAD_REACTORS
330
14A5
102
}
330
14A5
100
AcDbScale
 70
     0
300
3/8" = 1'-0"
140
0.375
141
12.0
290
     0
  0
SCALE
  5
14B0
102
{ACAD_REACTORS
330
14A5
102
}
330
14A5
100
AcDbScale
 70
     0
300
1/2" = 1'-0"
140
0.5
141
12.0
290
     0
  0
SCALE
  5
14B1
102
{ACAD_REACTORS
330
14A5
102
}
330
14A5
100
AcDbScale
 70
     0
300
3/4" = 1'-0"
140
0.75
141
12.0
290
     0
  0
SCALE
  5
14B2
102
{ACAD_REACTORS
330
14A5
102
}
330
14A5
100
AcDbScale
 70
     0
300
1" = 1'-0"
140
1.0
141
12.0
290
     0
  0
SCALE
  5
14B3
102
{ACAD_REACTORS
330
14A5
102
}
330
14A5
100
AcDbScale
 70
     0
300
1-1/2" = 1'-0"
140
1.5
141
12.0
290
     0
  0
SCALE
  5
14B4
102
{ACAD_REACTORS
330
14A5
102
}
330
14A5
100
AcDbScale
 70
     0
300
3" = 1'-0"
140
3.0
141
12.0
290
     0
  0
SCALE
  5
14B5
102
{ACAD_REACTORS
330
14A5
102
}
330
14A5
100
AcDbScale
 70
     0
300
6" = 1'-0"
140
6.0
141
12.0
290
     0
  0
SCALE
  5
14B6
102
{ACAD_REACTORS
330
14A5
102
}
330
14A5
100
AcDbScale
 70
     0
300
1'-0" = 1'-0"
140
12.0
141
12.0
290
     0
  0
ACDBSECTIONVIEWSTYLE
  5
14BA
102
{ACAD_XDICTIONARY
360
14FF
102
}
102
{ACAD_REACTORS
330
14B9
102
}
330
14B9
100
AcDbModelDocViewStyle
 70
     0
  3
Imperial24
290
     0
100
AcDbSectionViewStyle
 70
     0
 71
     0
 90
       78
 71
     1
340
11
 62
   256
 40
0.24
340
0
340
0
 62
   256
 40
0.24
300
I, O, Q, S, X, Z
 40
0.48
 90
        3
 40
0.18
 90
        1
 71
     2
340
16
 90
       25
 62
   256
340
16
 90
       50
 62
   256
 40
0.24
 40
0.0
 40
0.24
 71
     3
340
11
 62
   256
 40
0.24
 90
        1
 40
0.75
 90
        1
300
%<\AcVar ViewType \f "%tc1">% %<\AcVar ViewSectionStartId>%-%<\AcVar ViewSectionEndId>%\PSCALE %<\AcVar ViewScale \f "%sn">%
 71
     4
 62
   256
 62
   257
300
ANSI31
 40
1.0
 90
        0
290
     0
290
     0
 90
        6
 40
0.0
 40
1.570796326794896
 40
0.2617993877991494
 40
1.308996938995747
 40
-0.2617993877991494
 40
1.832595714594046
  0
TABLESTYLE
  5
11E8
102
{ACAD_XDICTIONARY
360
14FD
102
}
102
{ACAD_REACTORS
330
11E7
102
}
330
11E7
100
AcDbTableStyle
280
     0
  3
Standard
 70
     0
 71
     0
 40
0.06
 41
0.06
280
     0
281
     0
  7
Standard
140
0.18
170
     2
 62
     0
 63
     7
283
     0
 90
      512
 91
        0
  1

274
    -2
284
     1
 64
     0
275
    -2
285
     1
 65
     0
276
    -2
286
     1
 66
     0
277
    -2
287
     1
 67
     0
278
    -2
288
     1
 68
     0
279
    -2
289
     1
 69
     0
  7
Standard
140
0.25
170
     5
 62
     0
 63
     7
283
     0
 90
      512
 91
        0
  1

274
    -2
284
     1
 64
     0
275
    -2
285
     1
 65
     0
276
    -2
286
     1
 66
     0
277
    -2
287
     1
 67
     0
278
    -2
288
     1
 68
     0
279
    -2
289
     1
 69
     0
  7
Standard
140
0.18
170
     5
 62
     0
 63
     7
283
     0
 90
      512
 91
        0
  1

274
    -2
284
     1
 64
     0
275
    -2
285
     1
 65
     0
276
    -2
286
     1
 66
     0
277
    -2
287
     1
 67
     0
278
    -2
288
     1
 68
     0
279
    -2
289
     1
 69
     0
  0
VISUALSTYLE
  5
11DB
102
{ACAD_REACTORS
330
11D5
102
}
330
11D5
100
AcDbVisualStyle
  2
2dWireframe
 70
     4
177
     3
291
     0
 70
    58
 90
        0
176
     1
 90
        2
176
     1
 90
        0
176
     1
 90
        0
176
     1
 40
0.6
176
     1
 40
30.0
176
     1
 62
     7
176
     1
 90
        1
176
     1
 90
        4
176
     1
 62
     7
176
     1
 62
   257
176
     1
 90
        1
176
     1
 90
        1
176
     1
 40
1.0
176
     1
 90
        0
176
     1
 62
   257
176
     1
 40
1.0
176
     1
 90
        1
176
     1
 90
        6
176
     1
 90
        2
176
     1
 62
     7
176
     1
 90
        5
176
     1
 90
        0
176
     1
 90
        0
176
     1
290
     0
176
     1
 90
        1
176
     1
 40
0.0
176
     1
 90
        0
176
     1
290
     1
176
     1
290
     1
176
     1
290
     0
176
     1
290
     0
176
     1
290
     0
176
     1
290
     0
176
     1
290
     0
176
     1
290
     0
176
     1
290
     0
176
     1
 90
       50
176
     1
 40
0.0
176
     1
 40
1.0
176
     1
 90
        0
176
     1
 62
    18
420
        0
176
     1
 90
       50
176
     1
 90
        3
176
     1
 62
     5
420
      255
176
     1
290
     0
176
     1
 90
       50
176
     1
 90
       50
176
     1
 90
       50
176
     1
290
     0
176
     1
 90
       50
176
     1
 62
   256
176
     0
 40
1.0
176
     0
 90
        2
176
     1
  1
strokes_ogs.tif
176
     1
290
     0
176
     1
 40
1.0
176
     1
 40
1.0
176
     1
  0
VISUALSTYLE
  5
11DD
102
{ACAD_REACTORS
330
11D5
102
}
330
11D5
100
AcDbVisualStyle
  2
3D Hidden
 70
     6
177
     3
291
     0
 70
    58
 90
        1
176
     1
 90
        2
176
     1
 90
        2
176
     1
 90
        0
176
     1
 40
0.6
176
     1
 40
30.0
176
     1
 62
     7
176
     1
 90
        2
176
     1
 90
        2
176
     1
 62
     7
176
     1
 62
   257
176
     1
 90
        2
176
     1
 90
        1
176
     1
 40
40.0
176
     1
 90
        0
176
     1
 62
   257
176
     1
 40
1.0
176
     1
 90
        1
176
     1
 90
        6
176
     1
 90
        2
176
     1
 62
     7
176
     1
 90
        3
176
     1
 90
        0
176
     1
 90
        0
176
     1
290
     0
176
     1
 90
        1
176
     1
 40
0.0
176
     1
 90
        0
176
     1
290
     0
176
     1
290
     1
176
     1
290
     1
176
     1
290
     0
176
     1
290
     0
176
     1
290
     0
176
     1
290
     0
176
     1
290
     0
176
     1
290
     0
176
     1
 90
       50
176
     1
 40
0.0
176
     1
 40
1.0
176
     1
 90
        0
176
     1
 62
    18
420
        0
176
     1
 90
       50
176
     1
 90
        3
176
     1
 62
     5
420
      255
176
     1
290
     0
176
     1
 90
       50
176
     1
 90
       50
176
     1
 90
       50
176
     1
290
     0
176
     1
 90
       50
176
     1
 62
   256
176
     0
 40
1.0
176
     0
 90
        2
176
     1
  1
strokes_ogs.tif
176
     1
290
     0
176
     1
 40
1.0
176
     1
 40
1.0
176
     1
  0
VISUALSTYLE
  5
11DC
102
{ACAD_REACTORS
330
11D5
102
}
330
11D5
100
AcDbVisualStyle
  2
3dWireframe
 70
     5
177
     3
291
     0
 70
    58
 90
        0
176
     1
 90
        2
176
     1
 90
        0
176
     1
 90
        0
176
     1
 40
0.6
176
     1
 40
30.0
176
     1
 62
     7
176
     1
 90
        1
176
     1
 90
        4
176
     1
 62
     7
176
     1
 62
   257
176
     1
 90
        1
176
     1
 90
        1
176
     1
 40
1.0
176
     1
 90
        0
176
     1
 62
   257
176
     1
 40
1.0
176
     1
 90
        1
176
     1
 90
        6
176
     1
 90
        2
176
     1
 62
     7
176
     1
 90
        5
176
     1
 90
        0
176
     1
 90
        0
176
     1
290
     0
176
     1
 90
        1
176
     1
 40
0.0
176
     1
 90
        0
176
     1
290
     0
176
     1
290
     1
176
     1
290
     1
176
     1
290
     0
176
     1
290
     0
176
     1
290
     0
176
     1
290
     0
176
     1
290
     0
176
     1
290
     0
176
     1
 90
       50
176
     1
 40
0.0
176
     1
 40
1.0
176
     1
 90
        0
176
     1
 62
    18
420
        0
176
     1
 90
       50
176
     1
 90
        3
176
     1
 62
     5
420
      255
176
     1
290
     0
176
     1
 90
       50
176
     1
 90
       50
176
     1
 90
       50
176
     1
290
     0
176
     1
 90
       50
176
     1
 62
   256
176
     0
 40
1.0
176
     0
 90
        2
176
     1
  1
strokes_ogs.tif
176
     1
290
     0
176
     1
 40
1.0
176
     1
 40
1.0
176
     1
  0
VISUALSTYLE
  5
11DA
102
{ACAD_REACTORS
330
11D5
102
}
330
11D5
100
AcDbVisualStyle
  2
Basic
 70
     7
177
     3
291
     1
 70
    58
 90
        1
176
     1
 90
        0
176
     1
 90
        1
176
     1
 90
        0
176
     1
 40
0.6
176
     1
 40
30.0
176
     1
 62
     7
176
     1
 90
        0
176
     1
 90
        4
176
     1
 62
     7
176
     1
 62
   257
176
     1
 90
        1
176
     1
 90
        1
176
     1
 40
1.0
176
     1
 90
        8
176
     1
 62
     7
176
     1
 40
1.0
176
     1
 90
        1
176
     1
 90
        6
176
     1
 90
        2
176
     1
 62
     7
176
     1
 90
        5
176
     1
 90
        0
176
     1
 90
        0
176
     1
290
     0
176
     1
 90
        1
176
     1
 40
0.0
176
     1
 90
        0
176
     1
290
     0
176
     1
290
     1
176
     1
290
     1
176
     1
290
     0
176
     1
290
     0
176
     1
290
     0
176
     1
290
     0
176
     1
290
     0
176
     1
290
     0
176
     1
 90
       50
176
     1
 40
0.0
176
     1
 40
1.0
176
     1
 90
        0
176
     1
 62
    18
420
        0
176
     1
 90
       50
176
     1
 90
        3
176
     1
 62
     5
420
      255
176
     1
290
     0
176
     1
 90
       50
176
     1
 90
       50
176
     1
 90
       50
176
     1
290
     0
176
     1
 90
       50
176
     1
 62
   256
176
     0
 40
1.0
176
     0
 90
        2
176
     1
  1
strokes_ogs.tif
176
     1
290
     0
176
     1
 40
1.0
176
     1
 40
1.0
176
     1
  0
VISUALSTYLE
  5
11E1
102
{ACAD_REACTORS
330
11D5
102
}
330
11D5
100
AcDbVisualStyle
  2
Brighten
 70
    12
177
     3
291
     1
 70
    58
 90
        2
176
     1
 90
        2
176
     1
 90
        0
176
     1
 90
        0
176
     1
 40
0.6
176
     1
 40
30.0
176
     1
 62
     7
176
     1
 90
        1
176
     1
 90
        4
176
     1
 62
     7
176
     1
 62
   257
176
     1
 90
        1
176
     1
 90
        1
176
     1
 40
1.0
176
     1
 90
        8
176
     1
 62
     7
176
     1
 40
1.0
176
     1
 90
        1
176
     1
 90
        6
176
     1
 90
        2
176
     1
 62
     7
176
     1
 90
        5
176
     1
 90
        0
176
     1
 90
        0
176
     1
290
     0
176
     1
 90
        1
176
     1
 40
50.0
176
     1
 90
        0
176
     1
290
     0
176
     1
290
     1
176
     1
290
     1
176
     1
290
     0
176
     1
290
     0
176
     1
290
     0
176
     1
290
     0
176
     1
290
     0
176
     1
290
     0
176
     1
 90
       50
176
     1
 40
0.0
176
     1
 40
1.0
176
     1
 90
        0
176
     1
 62
    18
420
        0
176
     1
 90
       50
176
     1
 90
        3
176
     1
 62
     5
420
      255
176
     1
290
     0
176
     1
 90
       50
176
     1
 90
       50
176
     1
 90
       50
176
     1
290
     0
176
     1
 90
       50
176
     1
 62
   256
176
     0
 40
1.0
176
     0
 90
        2
176
     1
  1
strokes_ogs.tif
176
     1
290
     0
176
     1
 40
1.0
176
     1
 40
1.0
176
     1
  0
VISUALSTYLE
  5
11E5
102
{ACAD_REACTORS
330
11D5
102
}
330
11D5
100
AcDbVisualStyle
  2
ColorChange
 70
    16
177
     3
291
     1
 70
    58
 90
        2
176
     1
 90
        2
176
     1
 90
        3
176
     1
 90
        0
176
     1
 40
0.6
176
     1
 40
30.0
176
     1
 62
     8
176
     1
 90
        1
176
     1
 90
        4
176
     1
 62
     7
176
     1
 62
   257
176
     1
 90
        1
176
     1
 90
        1
176
     1
 40
1.0
176
     1
 90
        8
176
     1
 62
     8
176
     1
 40
1.0
176
     1
 90
        1
176
     1
 90
        6
176
     1
 90
        2
176
     1
 62
     7
176
     1
 90
        5
176
     1
 90
        0
176
     1
 90
        0
176
     1
290
     0
176
     1
 90
        1
176
     1
 40
0.0
176
     1
 90
        0
176
     1
290
     0
176
     1
290
     1
176
     1
290
     1
176
     1
290
     0
176
     1
290
     0
176
     1
290
     0
176
     1
290
     0
176
     1
290
     0
176
     1
290
     0
176
     1
 90
       50
176
     1
 40
0.0
176
     1
 40
1.0
176
     1
 90
        0
176
     1
 62
    18
420
        0
176
     1
 90
       50
176
     1
 90
        3
176
     1
 62
     5
420
      255
176
     1
290
     0
176
     1
 90
       50
176
     1
 90
       50
176
     1
 90
       50
176
     1
290
     0
176
     1
 90
       50
176
     1
 62
   256
176
     0
 40
1.0
176
     0
 90
        2
176
     1
  1
strokes_ogs.tif
176
     1
290
     0
176
     1
 40
1.0
176
     1
 40
1.0
176
     1
  0
VISUALSTYLE
  5
11DE
102
{ACAD_REACTORS
330
11D5
102
}
330
11D5
100
AcDbVisualStyle
  2
Conceptual
 70
     9
177
     3
291
     0
 70
    58
 90
        3
176
     1
 90
        2
176
     1
 90
        0
176
     1
 90
        0
176
     1
 40
0.6
176
     1
 40
30.0
176
     1
 62
     7
176
     1
 90
        2
176
     1
 90
        2
176
     1
 62
     7
176
     1
 62
   257
176
     1
 90
        1
176
     1
 90
        1
176
     1
 40
40.0
176
     1
 90
        8
176
     1
 62
     7
176
     1
 40
1.0
176
     1
 90
        1
176
     1
 90
        6
176
     1
 90
        2
176
     1
 62
     7
176
     1
 90
        3
176
     1
 90
        0
176
     1
 90
        0
176
     1
290
     0
176
     1
 90
        1
176
     1
 40
0.0
176
     1
 90
        0
176
     1
290
     0
176
     1
290
     1
176
     1
290
     1
176
     1
290
     0
176
     1
290
     0
176
     1
290
     0
176
     1
290
     0
176
     1
290
     0
176
     1
290
     0
176
     1
 90
       50
176
     1
 40
0.0
176
     1
 40
1.0
176
     1
 90
        0
176
     1
 62
    18
420
        0
176
     1
 90
       50
176
     1
 90
        3
176
     1
 62
     5
420
      255
176
     1
290
     0
176
     1
 90
       50
176
     1
 90
       50
176
     1
 90
       50
176
     1
290
     0
176
     1
 90
       50
176
     1
 62
   256
176
     0
 40
1.0
176
     0
 90
        2
176
     1
  1
strokes_ogs.tif
176
     1
290
     0
176
     1
 40
1.0
176
     1
 40
1.0
176
     1
  0
VISUALSTYLE
  5
11E0
102
{ACAD_REACTORS
330
11D5
102
}
330
11D5
100
AcDbVisualStyle
  2
Dim
 70
    11
177
     3
291
     1
 70
    58
 90
        2
176
     1
 90
        2
176
     1
 90
        0
176
     1
 90
        0
176
     1
 40
0.6
176
     1
 40
30.0
176
     1
 62
     7
176
     1
 90
        1
176
     1
 90
        4
176
     1
 62
     7
176
     1
 62
   257
176
     1
 90
        1
176
     1
 90
        1
176
     1
 40
1.0
176
     1
 90
        8
176
     1
 62
     7
176
     1
 40
1.0
176
     1
 90
        1
176
     1
 90
        6
176
     1
 90
        2
176
     1
 62
     7
176
     1
 90
        5
176
     1
 90
        0
176
     1
 90
        0
176
     1
290
     0
176
     1
 90
        1
176
     1
 40
-50.0
176
     1
 90
        0
176
     1
290
     0
176
     1
290
     1
176
     1
290
     1
176
     1
290
     0
176
     1
290
     0
176
     1
290
     0
176
     1
290
     0
176
     1
290
     0
176
     1
290
     0
176
     1
 90
       50
176
     1
 40
0.0
176
     1
 40
1.0
176
     1
 90
        0
176
     1
 62
    18
420
        0
176
     1
 90
       50
176
     1
 90
        3
176
     1
 62
     5
420
      255
176
     1
290
     0
176
     1
 90
       50
176
     1
 90
       50
176
     1
 90
       50
176
     1
290
     0
176
     1
 90
       50
176
     1
 62
   256
176
     0
 40
1.0
176
     0
 90
        2
176
     1
  1
strokes_ogs.tif
176
     1
290
     0
176
     1
 40
1.0
176
     1
 40
1.0
176
     1
  0
VISUALSTYLE
  5
14A4
102
{ACAD_REACTORS
330
11D5
102
}
330
11D5
100
AcDbVisualStyle
  2
EdgeColorOff
 70
    22
177
     3
291
     1
 70
    58
 90
        2
176
     0
 90
        2
176
     0
 90
        0
176
     0
 90
        0
176
     0
 40
0.6
176
     0
 40
30.0
176
     0
 62
     7
420
 16777215
176
     0
 90
        1
176
     0
 90
        4
176
     0
 62
     7
176
     0
 62
   257
176
     0
 90
        1
176
     0
 90
        1
176
     0
 40
1.0
176
     0
 90
        8
176
     2
 62
     7
176
     0
 40
1.0
176
     0
 90
        1
176
     0
 90
        6
176
     0
 90
        2
176
     0
 62
     7
176
     0
 90
        5
176
     0
 90
        0
176
     0
 90
        0
176
     0
290
     0
176
     0
 90
        1
176
     0
 40
0.0
176
     0
 90
        0
176
     0
290
     0
176
     0
290
     1
176
     0
290
     1
176
     0
290
     0
176
     0
290
     0
176
     0
290
     0
176
     0
290
     0
176
     0
290
     0
176
     0
290
     0
176
     0
 90
       50
176
     0
 40
0.0
176
     0
 40
1.0
176
     0
 90
        0
176
     0
 62
    18
420
        0
176
     0
 90
       50
176
     0
 90
        3
176
     0
 62
     5
420
      255
176
     0
290
     0
176
     0
 90
       50
176
     0
 90
       50
176
     0
 90
       50
176
     0
290
     0
176
     0
 90
       50
176
     0
 62
   256
176
     0
 40
1.0
176
     0
 90
        2
176
     0
  1
strokes_ogs.tif
176
     0
290
     0
176
     0
 40
1.0
176
     0
 40
1.0
176
     0
  0
VISUALSTYLE
  5
11E4
102
{ACAD_REACTORS
330
11D5
102
}
330
11D5
100
AcDbVisualStyle
  2
Facepattern
 70
    15
177
     3
291
     1
 70
    58
 90
        2
176
     1
 90
        2
176
     1
 90
        0
176
     1
 90
        0
176
     1
 40
0.6
176
     1
 40
30.0
176
     1
 62
     7
176
     1
 90
        1
176
     1
 90
        4
176
     1
 62
     7
176
     1
 62
   257
176
     1
 90
        1
176
     1
 90
        1
176
     1
 40
1.0
176
     1
 90
        8
176
     1
 62
     7
176
     1
 40
1.0
176
     1
 90
        1
176
     1
 90
        6
176
     1
 90
        2
176
     1
 62
     7
176
     1
 90
        5
176
     1
 90
        0
176
     1
 90
        0
176
     1
290
     0
176
     1
 90
        1
176
     1
 40
0.0
176
     1
 90
        0
176
     1
290
     0
176
     1
290
     1
176
     1
290
     1
176
     1
290
     0
176
     1
290
     0
176
     1
290
     0
176
     1
290
     0
176
     1
290
     0
176
     1
290
     0
176
     1
 90
       50
176
     1
 40
0.0
176
     1
 40
1.0
176
     1
 90
        0
176
     1
 62
    18
420
        0
176
     1
 90
       50
176
     1
 90
        3
176
     1
 62
     5
420
      255
176
     1
290
     0
176
     1
 90
       50
176
     1
 90
       50
176
     1
 90
       50
176
     1
290
     0
176
     1
 90
       50
176
     1
 62
   256
176
     0
 40
1.0
176
     0
 90
        2
176
     1
  1
strokes_ogs.tif
176
     1
290
     0
176
     1
 40
1.0
176
     1
 40
1.0
176
     1
  0
VISUALSTYLE
  5
11D6
102
{ACAD_REACTORS
330
11D5
102
}
330
11D5
100
AcDbVisualStyle
  2
Flat
 70
     0
177
     3
291
     1
 70
    58
 90
        2
176
     1
 90
        1
176
     1
 90
        1
176
     1
 90
        2
176
     1
 40
0.6
176
     1
 40
30.0
176
     1
 62
     7
176
     1
 90
        0
176
     1
 90
        4
176
     1
 62
     7
176
     1
 62
   257
176
     1
 90
        1
176
     1
 90
        1
176
     1
 40
1.0
176
     1
 90
        8
176
     1
 62
     7
176
     1
 40
1.0
176
     1
 90
        1
176
     1
 90
        6
176
     1
 90
        2
176
     1
 62
     7
176
     1
 90
        5
176
     1
 90
        0
176
     1
 90
        0
176
     1
290
     0
176
     1
 90
       13
176
     1
 40
0.0
176
     1
 90
        0
176
     1
290
     0
176
     1
290
     1
176
     1
290
     1
176
     1
290
     0
176
     1
290
     0
176
     1
290
     0
176
     1
290
     0
176
     1
290
     0
176
     1
290
     0
176
     1
 90
       50
176
     1
 40
0.0
176
     1
 40
1.0
176
     1
 90
        0
176
     1
 62
    18
420
        0
176
     1
 90
       50
176
     1
 90
        3
176
     1
 62
     5
420
      255
176
     1
290
     0
176
     1
 90
       50
176
     1
 90
       50
176
     1
 90
       50
176
     1
290
     0
176
     1
 90
       50
176
     1
 62
   256
176
     0
 40
1.0
176
     0
 90
        2
176
     1
  1
strokes_ogs.tif
176
     1
290
     0
176
     1
 40
1.0
176
     1
 40
1.0
176
     1
  0
VISUALSTYLE
  5
11D7
102
{ACAD_REACTORS
330
11D5
102
}
330
11D5
100
AcDbVisualStyle
  2
FlatWithEdges
 70
     1
177
     3
291
     1
 70
    58
 90
        2
176
     1
 90
        1
176
     1
 90
        1
176
     1
 90
        2
176
     1
 40
0.6
176
     1
 40
30.0
176
     1
 62
     7
176
     1
 90
        1
176
     1
 90
        4
176
     1
 62
     7
176
     1
 62
   257
176
     1
 90
        1
176
     1
 90
        1
176
     1
 40
1.0
176
     1
 90
        0
176
     1
 62
   257
176
     1
 40
1.0
176
     1
 90
        1
176
     1
 90
        6
176
     1
 90
        2
176
     1
 62
     7
176
     1
 90
        5
176
     1
 90
        0
176
     1
 90
        0
176
     1
290
     0
176
     1
 90
       13
176
     1
 40
0.0
176
     1
 90
        0
176
     1
290
     0
176
     1
290
     1
176
     1
290
     1
176
     1
290
     0
176
     1
290
     0
176
     1
290
     0
176
     1
290
     0
176
     1
290
     0
176
     1
290
     0
176
     1
 90
       50
176
     1
 40
0.0
176
     1
 40
1.0
176
     1
 90
        0
176
     1
 62
    18
420
        0
176
     1
 90
       50
176
     1
 90
        3
176
     1
 62
     5
420
      255
176
     1
290
     0
176
     1
 90
       50
176
     1
 90
       50
176
     1
 90
       50
176
     1
290
     0
176
     1
 90
       50
176
     1
 62
   256
176
     0
 40
1.0
176
     0
 90
        2
176
     1
  1
strokes_ogs.tif
176
     1
290
     0
176
     1
 40
1.0
176
     1
 40
1.0
176
     1
  0
VISUALSTYLE
  5
11D8
102
{ACAD_REACTORS
330
11D5
102
}
330
11D5
100
AcDbVisualStyle
  2
Gouraud
 70
     2
177
     3
291
     1
 70
    58
 90
        2
176
     1
 90
        2
176
     1
 90
        1
176
     1
 90
        2
176
     1
 40
0.6
176
     1
 40
30.0
176
     1
 62
     7
176
     1
 90
        0
176
     1
 90
        4
176
     1
 62
     7
176
     1
 62
   257
176
     1
 90
        1
176
     1
 90
        1
176
     1
 40
1.0
176
     1
 90
        0
176
     1
 62
     7
176
     1
 40
1.0
176
     1
 90
        1
176
     1
 90
        6
176
     1
 90
        2
176
     1
 62
     7
176
     1
 90
        5
176
     1
 90
        0
176
     1
 90
        0
176
     1
290
     0
176
     1
 90
       13
176
     1
 40
0.0
176
     1
 90
        0
176
     1
290
     0
176
     1
290
     1
176
     1
290
     1
176
     1
290
     0
176
     1
290
     0
176
     1
290
     0
176
     1
290
     0
176
     1
290
     0
176
     1
290
     0
176
     1
 90
       50
176
     1
 40
0.0
176
     1
 40
1.0
176
     1
 90
        0
176
     1
 62
    18
420
        0
176
     1
 90
       50
176
     1
 90
        3
176
     1
 62
     5
420
      255
176
     1
290
     0
176
     1
 90
       50
176
     1
 90
       50
176
     1
 90
       50
176
     1
290
     0
176
     1
 90
       50
176
     1
 62
   256
176
     0
 40
1.0
176
     0
 90
        2
176
     1
  1
strokes_ogs.tif
176
     1
290
     0
176
     1
 40
1.0
176
     1
 40
1.0
176
     1
  0
VISUALSTYLE
  5
11D9
102
{ACAD_REACTORS
330
11D5
102
}
330
11D5
100
AcDbVisualStyle
  2
GouraudWithEdges
 70
     3
177
     3
291
     1
 70
    58
 90
        2
176
     1
 90
        2
176
     1
 90
        1
176
     1
 90
        2
176
     1
 40
0.6
176
     1
 40
30.0
176
     1
 62
     7
176
     1
 90
        1
176
     1
 90
        4
176
     1
 62
     7
176
     1
 62
   257
176
     1
 90
        1
176
     1
 90
        1
176
     1
 40
1.0
176
     1
 90
        0
176
     1
 62
   257
176
     1
 40
1.0
176
     1
 90
        1
176
     1
 90
        6
176
     1
 90
        2
176
     1
 62
     7
176
     1
 90
        5
176
     1
 90
        0
176
     1
 90
        0
176
     1
290
     0
176
     1
 90
       13
176
     1
 40
0.0
176
     1
 90
        0
176
     1
290
     0
176
     1
290
     1
176
     1
290
     1
176
     1
290
     0
176
     1
290
     0
176
     1
290
     0
176
     1
290
     0
176
     1
290
     0
176
     1
290
     0
176
     1
 90
       50
176
     1
 40
0.0
176
     1
 40
1.0
176
     1
 90
        0
176
     1
 62
    18
420
        0
176
     1
 90
       50
176
     1
 90
        3
176
     1
 62
     5
420
      255
176
     1
290
     0
176
     1
 90
       50
176
     1
 90
       50
176
     1
 90
       50
176
     1
290
     0
176
     1
 90
       50
176
     1
 62
   256
176
     0
 40
1.0
176
     0
 90
        2
176
     1
  1
strokes_ogs.tif
176
     1
290
     0
176
     1
 40
1.0
176
     1
 40
1.0
176
     1
  0
VISUALSTYLE
  5
149C
102
{ACAD_REACTORS
330
11D5
102
}
330
11D5
100
AcDbVisualStyle
  2
Hidden
 70
     6
177
     3
291
     0
 70
    58
 90
        1
176
     1
 90
        2
176
     1
 90
        2
176
     1
 90
        0
176
     1
 40
0.6
176
     1
 40
30.0
176
     1
 62
     7
420
 16777215
176
     1
 90
        2
176
     1
 90
        2
176
     1
 62
     7
176
     1
 62
   257
176
     1
 90
        2
176
     1
 90
        1
176
     1
 40
40.0
176
     1
 90
        0
176
     1
 62
   257
176
     1
 40
1.0
176
     1
 90
        1
176
     1
 90
        6
176
     1
 90
        2
176
     1
 62
     7
176
     1
 90
        3
176
     1
 90
        0
176
     1
 90
        0
176
     1
290
     0
176
     1
 90
        1
176
     1
 40
0.0
176
     1
 90
        0
176
     1
290
     0
176
     1
290
     1
176
     1
290
     1
176
     1
290
     0
176
     1
290
     0
176
     1
290
     0
176
     1
290
     0
176
     1
290
     0
176
     1
290
     0
176
     1
 90
       50
176
     1
 40
0.0
176
     1
 40
1.0
176
     1
 90
        0
176
     1
 62
    18
420
        0
176
     1
 90
       50
176
     1
 90
        3
176
     1
 62
     5
420
      255
176
     1
290
     0
176
     1
 90
       50
176
     1
 90
       50
176
     1
 90
       50
176
     1
290
     0
176
     1
 90
       50
176
     1
 62
   256
176
     0
 40
1.0
176
     0
 90
        2
176
     1
  1
strokes_ogs.tif
176
     1
290
     0
176
     1
 40
1.0
176
     1
 40
1.0
176
     1
  0
VISUALSTYLE
  5
14A2
102
{ACAD_REACTORS
330
11D5
102
}
330
11D5
100
AcDbVisualStyle
  2
JitterOff
 70
    20
177
     3
291
     1
 70
    58
 90
        2
176
     0
 90
        2
176
     0
 90
        0
176
     0
 90
        0
176
     0
 40
0.6
176
     0
 40
30.0
176
     0
 62
     7
420
 16777215
176
     0
 90
        1
176
     0
 90
        4
176
     0
 62
     7
176
     0
 62
   257
176
     0
 90
        1
176
     0
 90
        1
176
     0
 40
1.0
176
     0
 90
       10
176
     2
 62
     7
176
     0
 40
1.0
176
     0
 90
        1
176
     0
 90
        6
176
     0
 90
        2
176
     0
 62
     7
176
     0
 90
        5
176
     0
 90
        0
176
     0
 90
        0
176
     0
290
     0
176
     0
 90
        1
176
     0
 40
0.0
176
     0
 90
        0
176
     0
290
     0
176
     0
290
     1
176
     0
290
     1
176
     0
290
     0
176
     0
290
     0
176
     0
290
     0
176
     0
290
     0
176
     0
290
     0
176
     0
290
     0
176
     0
 90
       50
176
     0
 40
0.0
176
     0
 40
1.0
176
     0
 90
        0
176
     0
 62
    18
420
        0
176
     0
 90
       50
176
     0
 90
        3
176
     0
 62
     5
420
      255
176
     0
290
     0
176
     0
 90
       50
176
     0
 90
       50
176
     0
 90
       50
176
     0
290
     0
176
     0
 90
       50
176
     0
 62
   256
176
     0
 40
1.0
176
     0
 90
        2
176
     0
  1
strokes_ogs.tif
176
     0
290
     0
176
     0
 40
1.0
176
     0
 40
1.0
176
     0
  0
VISUALSTYLE
  5
11E3
102
{ACAD_REACTORS
330
11D5
102
}
330
11D5
100
AcDbVisualStyle
  2
Linepattern
 70
    14
177
     3
291
     1
 70
    58
 90
        2
176
     1
 90
        2
176
     1
 90
        0
176
     1
 90
        0
176
     1
 40
0.6
176
     1
 40
30.0
176
     1
 62
     7
176
     1
 90
        1
176
     1
 90
        4
176
     1
 62
     7
176
     1
 62
   257
176
     1
 90
        7
176
     1
 90
        7
176
     1
 40
1.0
176
     1
 90
        8
176
     1
 62
     7
176
     1
 40
1.0
176
     1
 90
        1
176
     1
 90
        6
176
     1
 90
        2
176
     1
 62
     7
176
     1
 90
        5
176
     1
 90
        0
176
     1
 90
        0
176
     1
290
     0
176
     1
 90
        1
176
     1
 40
0.0
176
     1
 90
        0
176
     1
290
     0
176
     1
290
     1
176
     1
290
     1
176
     1
290
     0
176
     1
290
     0
176
     1
290
     0
176
     1
290
     0
176
     1
290
     0
176
     1
290
     0
176
     1
 90
       50
176
     1
 40
0.0
176
     1
 40
1.0
176
     1
 90
        0
176
     1
 62
    18
420
        0
176
     1
 90
       50
176
     1
 90
        3
176
     1
 62
     5
420
      255
176
     1
290
     0
176
     1
 90
       50
176
     1
 90
       50
176
     1
 90
       50
176
     1
290
     0
176
     1
 90
       50
176
     1
 62
   256
176
     0
 40
1.0
176
     0
 90
        2
176
     1
  1
strokes_ogs.tif
176
     1
290
     0
176
     1
 40
1.0
176
     1
 40
1.0
176
     1
  0
VISUALSTYLE
  5
14A3
102
{ACAD_REACTORS
330
11D5
102
}
330
11D5
100
AcDbVisualStyle
  2
OverhangOff
 70
    21
177
     3
291
     1
 70
    58
 90
        2
176
     0
 90
        2
176
     0
 90
        0
176
     0
 90
        0
176
     0
 40
0.6
176
     0
 40
30.0
176
     0
 62
     7
420
 16777215
176
     0
 90
        1
176
     0
 90
        4
176
     0
 62
     7
176
     0
 62
   257
176
     0
 90
        1
176
     0
 90
        1
176
     0
 40
1.0
176
     0
 90
        9
176
     2
 62
     7
176
     0
 40
1.0
176
     0
 90
        1
176
     0
 90
        6
176
     0
 90
        2
176
     0
 62
     7
176
     0
 90
        5
176
     0
 90
        0
176
     0
 90
        0
176
     0
290
     0
176
     0
 90
        1
176
     0
 40
0.0
176
     0
 90
        0
176
     0
290
     0
176
     0
290
     1
176
     0
290
     1
176
     0
290
     0
176
     0
290
     0
176
     0
290
     0
176
     0
290
     0
176
     0
290
     0
176
     0
290
     0
176
     0
 90
       50
176
     0
 40
0.0
176
     0
 40
1.0
176
     0
 90
        0
176
     0
 62
    18
420
        0
176
     0
 90
       50
176
     0
 90
        3
176
     0
 62
     5
420
      255
176
     0
290
     0
176
     0
 90
       50
176
     0
 90
       50
176
     0
 90
       50
176
     0
290
     0
176
     0
 90
       50
176
     0
 62
   256
176
     0
 40
1.0
176
     0
 90
        2
176
     0
  1
strokes_ogs.tif
176
     0
290
     0
176
     0
 40
1.0
176
     0
 40
1.0
176
     0
  0
VISUALSTYLE
  5
11DF
102
{ACAD_REACTORS
330
11D5
102
}
330
11D5
100
AcDbVisualStyle
  2
Realistic
 70
     8
177
     3
291
     0
 70
    58
 90
        2
176
     1
 90
        2
176
     1
 90
        0
176
     1
 90
        0
176
     1
 40
0.6
176
     1
 40
30.0
176
     1
 62
     7
176
     1
 90
        1
176
     1
 90
        0
176
     1
 62
     7
176
     1
 62
   257
176
     1
 90
        1
176
     1
 90
        1
176
     1
 40
1.0
176
     1
 90
        8
176
     1
 62
     8
176
     1
 40
1.0
176
     1
 90
        1
176
     1
 90
        6
176
     1
 90
        2
176
     1
 62
     7
176
     1
 90
        5
176
     1
 90
        0
176
     1
 90
        0
176
     1
290
     0
176
     1
 90
       13
176
     1
 40
0.0
176
     1
 90
        0
176
     1
290
     0
176
     1
290
     1
176
     1
290
     1
176
     1
290
     0
176
     1
290
     0
176
     1
290
     0
176
     1
290
     0
176
     1
290
     0
176
     1
290
     0
176
     1
 90
       50
176
     1
 40
0.0
176
     1
 40
1.0
176
     1
 90
        0
176
     1
 62
    18
420
        0
176
     1
 90
       50
176
     1
 90
        3
176
     1
 62
     5
420
      255
176
     1
290
     0
176
     1
 90
       50
176
     1
 90
       50
176
     1
 90
       50
176
     1
290
     0
176
     1
 90
       50
176
     1
 62
   256
176
     0
 40
1.0
176
     0
 90
        2
176
     1
  1
strokes_ogs.tif
176
     1
290
     0
176
     1
 40
1.0
176
     1
 40
1.0
176
     1
  0
VISUALSTYLE
  5
14A1
102
{ACAD_REACTORS
330
11D5
102
}
330
11D5
100
AcDbVisualStyle
  2
Shaded
 70
    27
177
     3
291
     0
 70
    58
 90
        2
176
     1
 90
        2
176
     1
 90
        1
176
     1
 90
        2
176
     1
 40
0.6
176
     1
 40
30.0
176
     1
 62
     7
420
 16777215
176
     1
 90
        0
176
     1
 90
        4
176
     1
 62
     7
176
     1
 62
   257
176
     1
 90
        1
176
     1
 90
        1
176
     1
 40
1.0
176
     1
 90
        8
176
     1
 62
   257
176
     1
 40
1.0
176
     1
 90
        1
176
     1
 90
        6
176
     1
 90
        2
176
     1
 62
     8
420
  7895160
176
     1
 90
        3
176
     1
 90
        0
176
     1
 90
        0
176
     1
290
     0
176
     1
 90
        5
176
     1
 40
0.0
176
     1
 90
        0
176
     1
290
     0
176
     1
290
     1
176
     1
290
     1
176
     1
290
     0
176
     1
290
     0
176
     1
290
     0
176
     1
290
     0
176
     1
290
     0
176
     1
290
     0
176
     1
 90
       50
176
     1
 40
0.0
176
     1
 40
1.0
176
     1
 90
        0
176
     1
 62
    18
420
        0
176
     1
 90
       50
176
     1
 90
        3
176
     1
 62
     5
420
      255
176
     1
290
     0
176
     1
 90
       50
176
     1
 90
       50
176
     1
 90
       50
176
     1
290
     0
176
     1
 90
       50
176
     1
 62
   256
176
     0
 40
1.0
176
     0
 90
        2
176
     1
  1
strokes_ogs.tif
176
     1
290
     0
176
     1
 40
1.0
176
     1
 40
1.0
176
     1
  0
VISUALSTYLE
  5
14A0
102
{ACAD_REACTORS
330
11D5
102
}
330
11D5
100
AcDbVisualStyle
  2
Shaded with edges
 70
    26
177
     3
291
     0
 70
    58
 90
        2
176
     1
 90
        2
176
     1
 90
        1
176
     1
 90
        2
176
     1
 40
0.6
176
     1
 40
30.0
176
     1
 62
     7
420
 16777215
176
     1
 90
        1
176
     1
 90
       10
176
     1
 62
     7
176
     1
 62
   257
176
     1
 90
        2
176
     1
 90
        1
176
     1
 40
1.0
176
     1
 90
        8
176
     1
 62
   257
176
     1
 40
1.0
176
     1
 90
        1
176
     1
 90
        6
176
     1
 90
        2
176
     1
 62
     7
176
     1
 90
        3
176
     1
 90
        0
176
     1
 90
        0
176
     1
290
     0
176
     1
 90
        5
176
     1
 40
0.0
176
     1
 90
        0
176
     1
290
     0
176
     1
290
     1
176
     1
290
     1
176
     1
290
     0
176
     1
290
     0
176
     1
290
     0
176
     1
290
     0
176
     1
290
     0
176
     1
290
     0
176
     1
 90
       50
176
     1
 40
0.0
176
     1
 40
1.0
176
     1
 90
        0
176
     1
 62
    18
420
        0
176
     1
 90
       50
176
     1
 90
        3
176
     1
 62
     5
420
      255
176
     1
290
     0
176
     1
 90
       50
176
     1
 90
       50
176
     1
 90
       50
176
     1
290
     0
176
     1
 90
       50
176
     1
 62
   256
176
     0
 40
1.0
176
     0
 90
        2
176
     1
  1
strokes_ogs.tif
176
     1
290
     0
176
     1
 40
1.0
176
     1
 40
1.0
176
     1
  0
VISUALSTYLE
  5
149D
102
{ACAD_REACTORS
330
11D5
102
}
330
11D5
100
AcDbVisualStyle
  2
Shades of Gray
 70
    23
177
     3
291
     0
 70
    58
 90
        2
176
     1
 90
        2
176
     1
 90
        3
176
     1
 90
        0
176
     1
 40
0.6
176
     1
 40
30.0
176
     1
 62
     7
420
 16777215
176
     1
 90
        2
176
     1
 90
        2
176
     1
 62
     7
176
     1
 62
     7
176
     1
 90
        1
176
     1
 90
        1
176
     1
 40
40.0
176
     1
 90
        8
176
     1
 62
     7
176
     1
 40
1.0
176
     1
 90
        1
176
     1
 90
        6
176
     1
 90
        2
176
     1
 62
     7
176
     1
 90
        3
176
     1
 90
        0
176
     1
 90
        0
176
     1
290
     0
176
     1
 90
        1
176
     1
 40
0.0
176
     1
 90
        0
176
     1
290
     0
176
     1
290
     1
176
     1
290
     1
176
     1
290
     0
176
     1
290
     0
176
     1
290
     0
176
     1
290
     0
176
     1
290
     0
176
     1
290
     0
176
     1
 90
       50
176
     1
 40
0.0
176
     1
 40
1.0
176
     1
 90
        0
176
     1
 62
    18
420
        0
176
     1
 90
       50
176
     1
 90
        3
176
     1
 62
     5
420
      255
176
     1
290
     0
176
     1
 90
       50
176
     1
 90
       50
176
     1
 90
       50
176
     1
290
     0
176
     1
 90
       50
176
     1
 62
   256
176
     0
 40
1.0
176
     0
 90
        2
176
     1
  1
strokes_ogs.tif
176
     1
290
     0
176
     1
 40
1.0
176
     1
 40
1.0
176
     1
  0
VISUALSTYLE
  5
149E
102
{ACAD_REACTORS
330
11D5
102
}
330
11D5
100
AcDbVisualStyle
  2
Sketchy
 70
    24
177
     3
291
     0
 70
    58
 90
        1
176
     1
 90
        2
176
     1
 90
        2
176
     1
 90
        0
176
     1
 40
0.6
176
     1
 40
30.0
176
     1
 62
     7
420
 16777215
176
     1
 90
        2
176
     1
 90
        2
176
     1
 62
     7
176
     1
 62
     7
176
     1
 90
        1
176
     1
 90
        1
176
     1
 40
40.0
176
     1
 90
       11
176
     1
 62
     7
176
     1
 40
1.0
176
     1
 90
        1
176
     1
 90
        6
176
     1
 90
        2
176
     1
 62
     7
176
     1
 90
        6
176
     1
 90
        0
176
     1
 90
        0
176
     1
290
     0
176
     1
 90
        1
176
     1
 40
0.0
176
     1
 90
        0
176
     1
290
     0
176
     1
290
     1
176
     1
290
     1
176
     1
290
     0
176
     1
290
     0
176
     1
290
     0
176
     1
290
     0
176
     1
290
     0
176
     1
290
     0
176
     1
 90
       50
176
     1
 40
0.0
176
     1
 40
1.0
176
     1
 90
        0
176
     1
 62
    18
420
        0
176
     1
 90
       50
176
     1
 90
        3
176
     1
 62
     5
420
      255
176
     1
290
     0
176
     1
 90
       50
176
     1
 90
       50
176
     1
 90
       50
176
     1
290
     0
176
     1
 90
       50
176
     1
 62
   256
176
     0
 40
1.0
176
     0
 90
        2
176
     1
  1
strokes_ogs.tif
176
     1
290
     0
176
     1
 40
1.0
176
     1
 40
1.0
176
     1
  0
VISUALSTYLE
  5
11E2
102
{ACAD_REACTORS
330
11D5
102
}
330
11D5
100
AcDbVisualStyle
  2
Thicken
 70
    13
177
     3
291
     1
 70
    58
 90
        2
176
     1
 90
        2
176
     1
 90
        0
176
     1
 90
        0
176
     1
 40
0.6
176
     1
 40
30.0
176
     1
 62
     7
176
     1
 90
        1
176
     1
 90
        4
176
     1
 62
     7
176
     1
 62
   257
176
     1
 90
        1
176
     1
 90
        1
176
     1
 40
1.0
176
     1
 90
       12
176
     1
 62
     7
176
     1
 40
1.0
176
     1
 90
        1
176
     1
 90
        6
176
     1
 90
        2
176
     1
 62
     7
176
     1
 90
        5
176
     1
 90
        0
176
     1
 90
        0
176
     1
290
     0
176
     1
 90
        1
176
     1
 40
0.0
176
     1
 90
        0
176
     1
290
     0
176
     1
290
     1
176
     1
290
     1
176
     1
290
     0
176
     1
290
     0
176
     1
290
     0
176
     1
290
     0
176
     1
290
     0
176
     1
290
     0
176
     1
 90
       50
176
     1
 40
0.0
176
     1
 40
1.0
176
     1
 90
        0
176
     1
 62
    18
420
        0
176
     1
 90
       50
176
     1
 90
        3
176
     1
 62
     5
420
      255
176
     1
290
     0
176
     1
 90
       50
176
     1
 90
       50
176
     1
 90
       50
176
     1
290
     0
176
     1
 90
       50
176
     1
 62
   256
176
     0
 40
1.0
176
     0
 90
        2
176
     1
  1
strokes_ogs.tif
176
     1
290
     0
176
     1
 40
1.0
176
     1
 40
1.0
176
     1
  0
VISUALSTYLE
  5
149B
102
{ACAD_REACTORS
330
11D5
102
}
330
11D5
100
AcDbVisualStyle
  2
Wireframe
 70
     5
177
     3
291
     0
 70
    58
 90
        0
176
     1
 90
        2
176
     1
 90
        0
176
     1
 90
        0
176
     1
 40
0.6
176
     1
 40
30.0
176
     1
 62
     7
420
 16777215
176
     1
 90
        1
176
     1
 90
        4
176
     1
 62
     7
176
     1
 62
   257
176
     1
 90
        1
176
     1
 90
        1
176
     1
 40
1.0
176
     1
 90
        0
176
     1
 62
   257
176
     1
 40
1.0
176
     1
 90
        1
176
     1
 90
        6
176
     1
 90
        2
176
     1
 62
     7
176
     1
 90
        3
176
     1
 90
        0
176
     1
 90
        0
176
     1
290
     0
176
     1
 90
        1
176
     1
 40
0.0
176
     1
 90
        0
176
     1
290
     0
176
     1
290
     1
176
     1
290
     1
176
     1
290
     0
176
     1
290
     0
176
     1
290
     0
176
     1
290
     0
176
     1
290
     0
176
     1
290
     0
176
     1
 90
       50
176
     1
 40
0.0
176
     1
 40
1.0
176
     1
 90
        0
176
     1
 62
    18
420
        0
176
     1
 90
       50
176
     1
 90
        3
176
     1
 62
     5
420
      255
176
     1
290
     0
176
     1
 90
       50
176
     1
 90
       50
176
     1
 90
       50
176
     1
290
     0
176
     1
 90
       50
176
     1
 62
   256
176
     0
 40
1.0
176
     0
 90
        2
176
     1
  1
strokes_ogs.tif
176
     1
290
     0
176
     1
 40
1.0
176
     1
 40
1.0
176
     1
  0
VISUALSTYLE
  5
149F
102
{ACAD_REACTORS
330
11D5
102
}
330
11D5
100
AcDbVisualStyle
  2
X-Ray
 70
    25
177
     3
291
     0
 70
    58
 90
        2
176
     1
 90
        2
176
     1
 90
        1
176
     1
 90
        1
176
     1
 40
0.5
176
     1
 40
30.0
176
     1
 62
     7
420
 16777215
176
     1
 90
        1
176
     1
 90
        0
176
     1
 62
     7
176
     1
 62
   257
176
     1
 90
        1
176
     1
 90
        1
176
     1
 40
1.0
176
     1
 90
        8
176
     1
 62
     7
176
     1
 40
1.0
176
     1
 90
        1
176
     1
 90
        6
176
     1
 90
        2
176
     1
 62
     7
176
     1
 90
        3
176
     1
 90
        0
176
     1
 90
        0
176
     1
290
     0
176
     1
 90
       13
176
     1
 40
0.0
176
     1
 90
        0
176
     1
290
     0
176
     1
290
     1
176
     1
290
     1
176
     1
290
     0
176
     1
290
     0
176
     1
290
     0
176
     1
290
     0
176
     1
290
     0
176
     1
290
     0
176
     1
 90
       50
176
     1
 40
0.0
176
     1
 40
1.0
176
     1
 90
        0
176
     1
 62
    18
420
        0
176
     1
 90
       50
176
     1
 90
        3
176
     1
 62
     5
420
      255
176
     1
290
     0
176
     1
 90
       50
176
     1
 90
       50
176
     1
 90
       50
176
     1
290
     0
176
     1
 90
       50
176
     1
 62
   256
176
     0
 40
1.0
176
     0
 90
        2
176
     1
  1
strokes_ogs.tif
176
     1
290
     0
176
     1
 40
1.0
176
     1
 40
1.0
176
     1
  0
DICTIONARYVAR
  5
14DF
102
{ACAD_REACTORS
330
261
102
}
330
261
100
DictionaryVariables
280
     0
  1
1:1
  0
DICTIONARYVAR
  5
14DB
102
{ACAD_REACTORS
330
261
102
}
330
261
100
DictionaryVariables
280
     0
  1
STANDARD
  0
DICTIONARYVAR
  5
1243
102
{ACAD_REACTORS
330
261
102
}
330
261
100
DictionaryVariables
280
     0
  1
STANDARD
  0
DICTIONARYVAR
  5
14DC
102
{ACAD_REACTORS
330
261
102
}
330
261
100
DictionaryVariables
280
     0
  1
Imperial24
  0
DICTIONARYVAR
  5
14DD
102
{ACAD_REACTORS
330
261
102
}
330
261
100
DictionaryVariables
280
     0
  1
Imperial24
  0
DICTIONARYVAR
  5
263
102
{ACAD_REACTORS
330
261
102
}
330
261
100
DictionaryVariables
280
     0
  1
2
  0
DICTIONARYVAR
  5
14EC
102
{ACAD_REACTORS
330
261
102
}
330
261
100
DictionaryVariables
280
     0
  1
1
  0
DICTIONARYVAR
  5
262
102
{ACAD_REACTORS
330
261
102
}
330
261
100
DictionaryVariables
280
     0
  1
1
  0
DICTIONARYVAR
  5
1245
102
{ACAD_REACTORS
330
261
102
}
330
261
100
DictionaryVariables
280
     0
  1
0
  0
DICTIONARYVAR
  5
14E1
102
{ACAD_REACTORS
330
261
102
}
330
261
100
DictionaryVariables
280
     0
  1
1
  0
DICTIONARYVAR
  5
14E2
102
{ACAD_REACTORS
330
261
102
}
330
261
100
DictionaryVariables
280
     0
  1
15
  0
DICTIONARYVAR
  5
14E0
102
{ACAD_REACTORS
330
261
102
}
330
261
100
DictionaryVariables
280
     0
  1
0
  0
DICTIONARYVAR
  5
14DE
102
{ACAD_REACTORS
330
261
102
}
330
261
100
DictionaryVariables
280
     0
  1
0
  0
DICTIONARYVAR
  5
1244
102
{ACAD_REACTORS
330
261
102
}
330
261
100
DictionaryVariables
280
     0
  1
127
  0
DICTIONARY
  5
1501
330
14BC
100
AcDbDictionary
280
     1
281
     1
  3
ACAD_XREC_ROUNDTRIP
360
1502
  0
DICTIONARY
  5
14EA
330
22
100
AcDbDictionary
280
     1
281
     1
  3
AcPublish_PlotSettingsOverride
360
14EB
  0
DICTIONARY
  5
124F
330
1E
100
AcDbDictionary
280
     1
281
     1
  0
DICTIONARY
  5
14FF
330
14BA
100
AcDbDictionary
280
     1
281
     1
  3
ACAD_XREC_ROUNDTRIP
360
1500
  0
DICTIONARY
  5
14FD
330
11E8
100
AcDbDictionary
280
     1
281
     1
  3
ACAD_ROUNDTRIP_2008_TABLESTYLE_CELLSTYLEMAP
360
14FE
  0
XRECORD
  5
1502
102
{ACAD_REACTORS
330
1501
102
}
330
1501
100
AcDbXrecord
280
     1
102
DISPLAYNAME
  1
Imperial24
102
FLAGS
 90
        0
  0
PLOTSETTINGS
  5
14EB
102
{ACAD_REACTORS
330
14EA
102
}
330
14EA
100
AcDbPlotSettings
  1

  2
none_device
  4
none_user_media
  6

 40
7.460000038146972
 41
6.400000095367431
 42
11.27000427246094
 43
6.399993896484375
 44
215.8999938964844
 45
279.3999938964844
 46
0.0
 47
0.0
 48
0.0
 49
0.0
140
0.0
141
0.0
142
1.0
143
1.829480619809796
 70
 11952
 72
     0
 73
     1
 74
     1
  7

 75
     0
147
0.5466032212486436
 76
     0
 77
     2
 78
   300
148
6.973789538803836
149
46.21625970808868
  0
XRECORD
  5
1500
102
{ACAD_REACTORS
330
14FF
102
}
330
14FF
100
AcDbXrecord
280
     1
102
DISPLAYNAME
  1
Imperial24
102
FLAGS
 90
        0
  0
CELLSTYLEMAP
  5
14FE
102
{ACAD_REACTORS
330
14FD
102
}
330
14FD
100
AcDbCellStyleMap
 90
        3
300
CELLSTYLE
  1
TABLEFORMAT_BEGIN
 90
        5
170
     1
 91
        0
 92
    32768
 62
   257
 93
        1
300
CONTENTFORMAT
  1
CONTENTFORMAT_BEGIN
 90
        0
 91
        0
 92
      512
 93
        0
300

 40
0.0
140
1.0
 94
        5
 62
     0
340
11
144
0.25
309
CONTENTFORMAT_END
171
     0
 94
        6
 95
        1
302
GRIDFORMAT
  1
GRIDFORMAT_BEGIN
 90
        0
 91
        1
 62
     0
 92
       -2
340
0
 93
        0
 40
0.045
309
GRIDFORMAT_END
 95
        2
302
GRIDFORMAT
  1
GRIDFORMAT_BEGIN
 90
        0
 91
        1
 62
     0
 92
       -2
340
0
 93
        0
 40
0.045
309
GRIDFORMAT_END
 95
        4
302
GRIDFORMAT
  1
GRIDFORMAT_BEGIN
 90
        0
 91
        1
 62
     0
 92
       -2
340
0
 93
        0
 40
0.045
309
GRIDFORMAT_END
 95
        8
302
GRIDFORMAT
  1
GRIDFORMAT_BEGIN
 90
        0
 91
        1
 62
     0
 92
       -2
340
0
 93
        0
 40
0.045
309
GRIDFORMAT_END
 95
       16
302
GRIDFORMAT
  1
GRIDFORMAT_BEGIN
 90
        0
 91
        1
 62
     0
 92
       -2
340
0
 93
        0
 40
0.045
309
GRIDFORMAT_END
 95
       32
302
GRIDFORMAT
  1
GRIDFORMAT_BEGIN
 90
        0
 91
        1
 62
     0
 92
       -2
340
0
 93
        0
 40
0.045
309
GRIDFORMAT_END
309
TABLEFORMAT_END
  1
CELLSTYLE_BEGIN
 90
        1
 91
        1
300
_TITLE
309
CELLSTYLE_END
300
CELLSTYLE
  1
TABLEFORMAT_BEGIN
 90
        5
170
     1
 91
        0
 92
        0
 62
   257
 93
        1
300
CONTENTFORMAT
  1
CONTENTFORMAT_BEGIN
 90
        0
 91
        0
 92
      512
 93
        0
300

 40
0.0
140
1.0
 94
        5
 62
     0
340
11
144
0.18
309
CONTENTFORMAT_END
171
     0
 94
        6
 95
        1
302
GRIDFORMAT
  1
GRIDFORMAT_BEGIN
 90
        0
 91
        1
 62
     0
 92
       -2
340
0
 93
        0
 40
0.045
309
GRIDFORMAT_END
 95
        2
302
GRIDFORMAT
  1
GRIDFORMAT_BEGIN
 90
        0
 91
        1
 62
     0
 92
       -2
340
0
 93
        0
 40
0.045
309
GRIDFORMAT_END
 95
        4
302
GRIDFORMAT
  1
GRIDFORMAT_BEGIN
 90
        0
 91
        1
 62
     0
 92
       -2
340
0
 93
        0
 40
0.045
309
GRIDFORMAT_END
 95
        8
302
GRIDFORMAT
  1
GRIDFORMAT_BEGIN
 90
        0
 91
        1
 62
     0
 92
       -2
340
0
 93
        0
 40
0.045
309
GRIDFORMAT_END
 95
       16
302
GRIDFORMAT
  1
GRIDFORMAT_BEGIN
 90
        0
 91
        1
 62
     0
 92
       -2
340
0
 93
        0
 40
0.045
309
GRIDFORMAT_END
 95
       32
302
GRIDFORMAT
  1
GRIDFORMAT_BEGIN
 90
        0
 91
        1
 62
     0
 92
       -2
340
0
 93
        0
 40
0.045
309
GRIDFORMAT_END
309
TABLEFORMAT_END
  1
CELLSTYLE_BEGIN
 90
        2
 91
        1
300
_HEADER
309
CELLSTYLE_END
300
CELLSTYLE
  1
TABLEFORMAT_BEGIN
 90
        5
170
     1
 91
        0
 92
        0
 62
   257
 93
        1
300
CONTENTFORMAT
  1
CONTENTFORMAT_BEGIN
 90
        0
 91
        0
 92
      512
 93
        0
300

 40
0.0
140
1.0
 94
        2
 62
     0
340
11
144
0.18
309
CONTENTFORMAT_END
171
     0
 94
        6
 95
        1
302
GRIDFORMAT
  1
GRIDFORMAT_BEGIN
 90
        0
 91
        1
 62
     0
 92
       -2
340
0
 93
        0
 40
0.045
309
GRIDFORMAT_END
 95
        2
302
GRIDFORMAT
  1
GRIDFORMAT_BEGIN
 90
        0
 91
        1
 62
     0
 92
       -2
340
0
 93
        0
 40
0.045
309
GRIDFORMAT_END
 95
        4
302
GRIDFORMAT
  1
GRIDFORMAT_BEGIN
 90
        0
 91
        1
 62
     0
 92
       -2
340
0
 93
        0
 40
0.045
309
GRIDFORMAT_END
 95
        8
302
GRIDFORMAT
  1
GRIDFORMAT_BEGIN
 90
        0
 91
        1
 62
     0
 92
       -2
340
0
 93
        0
 40
0.045
309
GRIDFORMAT_END
 95
       16
302
GRIDFORMAT
  1
GRIDFORMAT_BEGIN
 90
        0
 91
        1
 62
     0
 92
       -2
340
0
 93
        0
 40
0.045
309
GRIDFORMAT_END
 95
       32
302
GRIDFORMAT
  1
GRIDFORMAT_BEGIN
 90
        0
 91
        1
 62
     0
 92
       -2
340
0
 93
        0
 40
0.045
309
GRIDFORMAT_END
309
TABLEFORMAT_END
  1
CELLSTYLE_BEGIN
 90
        3
 91
        2
300
_DATA
309
CELLSTYLE_END
  0
ENDSEC
  0
SECTION
  2
ACDSDATA
 70
     2
 71
     6
  0
ACDSSCHEMA
 90
        0
  1
AcDb_Thumbnail_Schema
  2
AcDbDs::ID
280
    10
 91
        8
  2
Thumbnail_Data
280
    15
 91
        0
101
ACDSRECORD
 95
        0
 90
        1
  2
AcDbDs::TreatedAsObjectData
280
     1
291
     1
101
ACDSRECORD
 95
        0
 90
        2
  2
AcDbDs::Legacy
280
     1
291
     1
101
ACDSRECORD
  1
AcDbDs::ID
 90
        3
  2
AcDs:Indexable
280
     1
291
     1
101
ACDSRECORD
  1
AcDbDs::ID
 90
        4
  2
AcDbDs::HandleAttribute
280
     7
282
     1
  0
ACDSSCHEMA
 90
        1
  1
AcDbDs::TreatedAsObjectDataSchema
  2
AcDbDs::TreatedAsObjectData
280
     1
 91
        0
  0
ACDSSCHEMA
 90
        2
  1
AcDbDs::LegacySchema
  2
AcDbDs::Legacy
280
     1
 91
        0
  0
ACDSSCHEMA
 90
        3
  1
AcDbDs::IndexedPropertySchema
  2
AcDs:Indexable
280
     1
 91
        0
  0
ACDSSCHEMA
 90
        4
  1
AcDbDs::HandleAttributeSchema
  2
AcDbDs::HandleAttribute
280
     7
 91
        1
284
     1
  0
ACDSRECORD
 90
        0
  2
AcDbDs::ID
280
    10
320
22
  2
Thumbnail_Data
280
    15
 94
     2013
310
89504E470D0A1A0A0000000D4948445200000100000000730803000000406D2C8F00000300504C5445212830000000C8C8C80000000000000000000000000000000000000000000000000000330000660000990000CC0000FF0033000033330033660033990033CC0033FF0066000066330066660066990066CC0066FF0099
310
000099330099660099990099CC0099FF00CC0000CC3300CC6600CC9900CCCC00CCFF00FF0000FF3300FF6600FF9900FFCC00FFFF3300003300333300663300993300CC3300FF3333003333333333663333993333CC3333FF3366003366333366663366993366CC3366FF3399003399333399663399993399CC3399FF33CC00
310
33CC3333CC6633CC9933CCCC33CCFF33FF0033FF3333FF6633FF9933FFCC33FFFF6600006600336600666600996600CC6600FF6633006633336633666633996633CC6633FF6666006666336666666666996666CC6666FF6699006699336699666699996699CC6699FF66CC0066CC3366CC6666CC9966CCCC66CCFF66FF0066
310
FF3366FF6666FF9966FFCC66FFFF9900009900339900669900999900CC9900FF9933009933339933669933999933CC9933FF9966009966339966669966999966CC9966FF9999009999339999669999999999CC9999FF99CC0099CC3399CC6699CC9999CCCC99CCFF99FF0099FF3399FF6699FF9999FFCC99FFFFCC0000CC00
310
33CC0066CC0099CC00CCCC00FFCC3300CC3333CC3366CC3399CC33CCCC33FFCC6600CC6633CC6666CC6699CC66CCCC66FFCC9900CC9933CC9966CC9999CC99CCCC99FFCCCC00CCCC33CCCC66CCCC99CCCCCCCCCCFFCCFF00CCFF33CCFF66CCFF99CCFFCCCCFFFFFF0000FF0033FF0066FF0099FF00CCFF00FFFF3300FF3333
310
FF3366FF3399FF33CCFF33FFFF6600FF6633FF6666FF6699FF66CCFF66FFFF9900FF9933FF9966FF9999FF99CCFF99FFFFCC00FFCC33FFCC66FFCC99FFCCCCFFCCFFFFFF00FFFF33FFFF66FFFF99FFFFCCFFFFFF0000000D0D0D1A1A1A2828283535354343435050505D5D5D6B6B6B787878868686939393A1A1A1AEAEAEBB
310
BBBBC9C9C9D6D6D6E4E4E4F1F1F1FFFFFF000000000000000000000000000000000000000000000000000000000000B21171F6000004984944415478DAED9DC996E3300845F9FFFF7DFB2C624B80064F68964F2FAA924A2C5FC31320E426BA7160D083AC0EBB6FAA7A6C001BC006B0018C0BC040CA0706E02E7E510010B1C7
310
A20056D600DC8948E9DA3C2604E031381C1302B8B87E77E1CB02985D03CCAE7F03181200ECAE7F03280D201FA8552AF3E4C2C5B200126372BFFC7FC0B3BB0FFD29043140C25E62084A023866E2E3073E0EA00800444602E49DA7200037D02320211801A007002E2FB81C006EFA7F04041B1748014038926B9B2F06E0BCCB91
310
989CBF64E9024868422B00FE620F09004F54B87DD85800E81600F5622900CEF6B5279CB2F001406801A7DA2649A475A120009C4383BF6B3847ECC76D6101DEBA52A6C0E7E11A0044327A4820D385DA0090328C9200FEF39FAFCB4800A61AA0022D84EA287CA426005F96C219117CB70084005498057DCB2166E1D101D06300
310
001A012085003A47280940BA4075005C04CFF3430402862E70A101FCE475A741EF0454500308940540A83E0DD229FB2E136293409140280BA04120E46F3EFF5730148E5E6CC350F8887CB433982443DF00D44A863C81201D2E5210899B7BC37458D8806D41E401809605116EAD621AAE0AE0F2869705407C9D96AA01489601
310
2355D16A55E1E81FD700C065F8E6B0ED005C4971BDF6CFF4D244A940E8D61FC3EECCB0BE6F9F2341F291D08200580AB028808B26B6D901DC6D4C9958035212BF24001255A17500C43AF6D602B0BA066442D92731DDCDB84F56DF3A07E052655C468C373AA15D1B4250FCDB2ED02F807E8E0DA0BA062C0F007E2D8BC74964B9
310
89B36300F9896D09009D39416500ADEE7367B380D701BF6AE4D6B07DBD94BD4D602BCE9300506BE87AF5C0AB027F9FE60070ACD69FAD83AC8184E58B40C4026601B0358058FF507CE102BCCF08B302E097AE26485E44991300F772CA584032C5B759371A79F7B8ACBE7BC321B97C1838183A7101D6BFF7CAC67D0144779FC8
310
2692C0C13A03409F00E8672888BA58D7164022C47975C2AD0157A7C78D0F36B20050AAE6FB309C84EE40779DD120DE8E99EC4C6D05C037119A03F0C1D319718BD4A30B000444BA89CD2C0072CB22C093CB1E00189D708BE0B82228A3FC972541B91224EB0B14684057222812812F00621A404A04D19908DA9E3061013D8BA0
310
327A9E0E3B97F03B5C726631A608FAFD73E057091EC5836ECD8BDA05521AA06BB0D41800C99D54903B0A4468408F00243480B43734056059DFCA5880D000B75B016EB3D28E037624380380818BA21BC006B0016C001B40D1896E92A7CB23FFADAAD0AF9789221DB7FA8906E8DD029E0188760F8B3E0B5D869DD705F4C753DF
310
359F05B0178294533CCA630C006FE56C1A111492A5742CAD010F0BB4FD5B8028A1F04AD22A005EB8805E7A645D025F9EDFD14204431927FD98A09805DCDA7933148048A5300F4052101640C300781F07B0DD8A24372AA962EB7016102D1F8B45F1338050CDB8C41E6A937AAED6101A40BA89384444ECC945B2CD188359C0DB
310
3078A66C30DC761BE343499DCFBF8D615C200180828457E4027C71C43BBF7EC6DD3C2E40B14C383239807728F40E20C80C44C323EFB454A5000E910588EC8B077081788A1706BC6C0F8A1B4BA4E02100C01CC0C4FFE3E40FB8EDF514214FB1200000000049454E44AE426082
  0
ACDSRECORD
 90
        0
  2
AcDbDs::ID
280
    10
320
1E
  2
Thumbnail_Data
280
    15
 94
     2473
310
89504E470D0A1A0A0000000D4948445200000100000000C508030000008CFEDCE700000300504C5445FFFFFF000000C8C8C80000000000000000000000000000000000000000000000000000330000660000990000CC0000FF0033000033330033660033990033CC0033FF0066000066330066660066990066CC0066FF0099
310
000099330099660099990099CC0099FF00CC0000CC3300CC6600CC9900CCCC00CCFF00FF0000FF3300FF6600FF9900FFCC00FFFF3300003300333300663300993300CC3300FF3333003333333333663333993333CC3333FF3366003366333366663366993366CC3366FF3399003399333399663399993399CC3399FF33CC00
310
33CC3333CC6633CC9933CCCC33CCFF33FF0033FF3333FF6633FF9933FFCC33FFFF6600006600336600666600996600CC6600FF6633006633336633666633996633CC6633FF6666006666336666666666996666CC6666FF6699006699336699666699996699CC6699FF66CC0066CC3366CC6666CC9966CCCC66CCFF66FF0066
310
FF3366FF6666FF9966FFCC66FFFF9900009900339900669900999900CC9900FF9933009933339933669933999933CC9933FF9966009966339966669966999966CC9966FF9999009999339999669999999999CC9999FF99CC0099CC3399CC6699CC9999CCCC99CCFF99FF0099FF3399FF6699FF9999FFCC99FFFFCC0000CC00
310
33CC0066CC0099CC00CCCC00FFCC3300CC3333CC3366CC3399CC33CCCC33FFCC6600CC6633CC6666CC6699CC66CCCC66FFCC9900CC9933CC9966CC9999CC99CCCC99FFCCCC00CCCC33CCCC66CCCC99CCCCCCCCCCFFCCFF00CCFF33CCFF66CCFF99CCFFCCCCFFFFFF0000FF0033FF0066FF0099FF00CCFF00FFFF3300FF3333
310
FF3366FF3399FF33CCFF33FFFF6600FF6633FF6666FF6699FF66CCFF66FFFF9900FF9933FF9966FF9999FF99CCFF99FFFFCC00FFCC33FFCC66FFCC99FFCCCCFFCCFFFFFF00FFFF33FFFF66FFFF99FFFFCCFFFFFF0000000D0D0D1A1A1A2828283535354343435050505D5D5D6B6B6B787878868686939393A1A1A1AEAEAEBB
310
BBBBC9C9C9D6D6D6E4E4E4F1F1F1FFFFFF000000000000000000000000000000000000000000000000000000000000B0E2D235000006644944415478DAED9D6B9AA42A104473FFCB8C95DC6F6E97129980A2A2A246CCFC98EEA9B2E408F9E2516692244992244992244992244992244992244992244992244992244992F472
310
E19362009F7CEA02F020007F5DF6DFDF7EF7FA3400F67FE3FDD0FD0200B259F8FBE95B0010307444F028009F35823001D8F4EA29C069192D4F00D0765FDE3EFC357AFAE10B0010A285A933D84CE3B100B0F1556908CC31C3A301E0043321000F027072FB0560740067B77F74001080B343E5B1019CDF01D60054AA87AB59FB
310
0825CECA7D6D01F00BA7E6D4A2F9811DEF4BBF08AE7C4154DA80966E043403986B2F3EC3886CEF0680E5A180E5DF6009ECEFF33155E3B2A01AE303C04A9FA80248ADFD75FFA920195F7437002C3E6CACA74E3518EEC327239011181B00D68D3F6A978AAF984A2CB19FE06623B862C45609D40014FC4681C0A936C06E04C0CD
310
2202C85B0C5FB2EEDD03D6CC5EDDA2AFDE05160020169830FB83302B538943AE1B0268F10E07004C0F3D5519BD693D1180B50C8136F7B844A00C808A8AF36C14FF77C15A5EDC03400FA411009A01A40F4E0FD6DD0D5000C0BF3F1DC02F2841638897DBEBD49D4B007862813A3761B91D8059618EBC0E606ECF5600738D7934
310
00C5D4AF1EE423C5726D00E606D36CCB64065CD783DDE1051A52DBD832E4E95C0D00268B07EE3CC6F34D0587E126E12E00605B727BA4CE9CBB9A050070D9F0EF7E606302080B274A00A2D96807E04CE185006A0EAE0000214E45C9686C05900C1E4DBD5622C5BB7BC0D4013A00F04670AE8590FD47216DB8DA08167A80B78B
310
A8D4B6DA0024BFE98781597426E06069582F00CBEFBC250E305E9B55BCCC3B03218B0B0C3839C71000B00DC0B6509892A19FF3E05C00E32443CBE9CEFE64686E23E056DECC3EB05E10B8B620B20D806D026061E4A74547364E41E410002C96C41C9EE4E90AEDBF6908B474F2FD25314AFCA2D7BCB0287A18C0A1AA703642AA
310
65F1770288046E9A18313B04E0C0C4C8DC34F287E34D8DAD3FF1DACCD8FAD4D8E403C90E62B8C9D1862E8FB509D3C5891550DE91A712E3DB803202B44E8F7351AC0AB3E83B8602103320345691F24867CD9C8CBB4466A915C71749E1E805F67F243A5EABEA1ABE0860DBAE3C01781D00A409A1A9D0852F01986BE8733E6CF8
310
1E00BF55F35300DA17C6BED80D7E3E0EA09E605B8E5D7817807C5AA0BC0BEDBD00C0BE30FD89045E6B03E05261171B7C6208C80BACBE33AD17D80B204CA9EE0780FD072A1CE80134834A25B45D758FEDD8FCBFB0FD2A8701B091DC5DBD486B6F76953DC2752E0600B3A343C076DEFA2043405EE015120001D8ED05BE0E20AD
310
19488100AD3084F53EF46A2C0085534A9036D4702DEDBD00D03A15F44600EE5C37DA5165B4CAD8603D0FFE1B0DC003DA7622804774EE91E300F01957A9DAC483C72EC27B1400D2FE2D72026E7301B2B41F6EFA7F2E38B9D75F35C4FA00E00AAA1F20FCA0F98368C6C5ED474A8E13F6A81E400BABCDAD9AF41BAED887F09AF4
310
791516BD1178AF0D50322400AF0140677786C33CD396935A1C611820A4E80680771598DB7454319D2E59783A0057246EEB01E6B621AE01386F4DDD5D91204DB9AE1D7B5ABD356C7F4BFE8AA79C2D3E2C80B091BCBCC7BE1300DA031E42ABD2908B9306E5BDD3470180F6D78237DD76B66AB46D1DA0925B0450D83B4BA58BD2
310
92E35E5EC0DCB106E81DC8860224FC1E7E578ACB00D0CEF1FE007847A63B6CE38C1E4063209EEC463DAF3004ACEC911E65045FE6065FE405BE0E803D8C2F94D3DEFB0E16A1B8861321A4F4CECE6DFE0D094B5F00EEF80077E4C0B5007E669E01C04DD6B87CAD5B1C60A53376E2F3EF04C07CDE84E87ADD4EB7E48ED331507E
310
955F4700BCBB3EAD59311A0B7D7A80E53D201497A9BE6CE64B8F2990828CA0E200C5011D6D405AAA961DC3D7ADD8E54AECFC4BF84CC89CD577A72B9DE306DD1A6A8493280DE89516AE00B0829FBBC60DB217443C51A5770FE0AA63C88DF8C0378E034E7483B8C10684233CA889965A989D8577921BBCB68E3B9E118C537FF0
310
C38D769CF351641436D9A6B2C1786E30B51079E7F2B3BD205A59D4B8E55B54B24A60BAA4792FC0B9405CB205EB6104798DD08C8016CC251616365FD9AE1554BC20BFEA05FCA6A6E4197912DAAC8F170037197E20583E4796BA5B38A616DBBE45041100C2E2C4E005FCADC46CE20080CB27F46AE9B04B07732FC0F8E9912919
310
120065834FCB06AFE95B9FFFF679499224499224499224499224499224499224499224497AB5FE0358F7D34D6BF0360E0000000049454E44AE426082
  0
ENDSEC
  0
EOF
