  0
SECTION
  2
HEADER
  9
$ACADVER
  1
AC1024
  9
$ACADMAINTVER
 70
   155
  9
$DWGCODEPAGE
  3
ANSI_1252
  9
$LASTSAVEDBY
  1
dwroblew
  9
$INSBASE
 10
0.0
 20
0.0
 30
0.0
  9
$EXTMIN
 10
5.737220127144768
 20
6.940294554491057
 30
0.0
  9
$EXTMAX
 10
27.48816285827537
 20
15.36127314280312
 30
0.0
  9
$LIMMIN
 10
0.0
 20
0.0
  9
$LIMMAX
 10
12.0
 20
9.0
  9
$ORTHOMODE
 70
     0
  9
$REGENMODE
 70
     1
  9
$FILLMODE
 70
     1
  9
$QTEXTMODE
 70
     0
  9
$MIRRTEXT
 70
     1
  9
$LTSCALE
 40
1.0
  9
$ATTMODE
 70
     1
  9
$TEXTSIZE
 40
0.2
  9
$TRACEWID
 40
0.05
  9
$TEXTSTYLE
  7
Standard
  9
$CLAYER
  8
0
  9
$CELTYPE
  6
ByLayer
  9
$CECOLOR
 62
   256
  9
$CELTSCALE
 40
1.0
  9
$DISPSILH
 70
     0
  9
$DIMSCALE
 40
1.0
  9
$DIMASZ
 40
0.12
  9
$DIMEXO
 40
0.05
  9
$DIMDLI
 40
0.5
  9
$DIMRND
 40
0.0
  9
$DIMDLE
 40
0.0
  9
$DIMEXE
 40
0.1
  9
$DIMTP
 40
0.1
  9
$DIMTM
 40
0.1
  9
$DIMTXT
 40
0.12
  9
$DIMCEN
 40
0.0
  9
$DIMTSZ
 40
0.0
  9
$DIMTOL
 70
     0
  9
$DIMLIM
 70
     0
  9
$DIMTIH
 70
     1
  9
$DIMTOH
 70
     1
  9
$DIMSE1
 70
     0
  9
$DIMSE2
 70
     0
  9
$DIMTAD
 70
     0
  9
$DIMZIN
 70
     7
  9
$DIMBLK
  1

  9
$DIMASO
 70
     1
  9
$DIMSHO
 70
     1
  9
$DIMPOST
  1

  9
$DIMAPOST
  1
mm
  9
$DIMALT
 70
     0
  9
$DIMALTD
 70
     2
  9
$DIMALTF
 40
25.4
  9
$DIMLFAC
 40
1.0
  9
$DIMTOFL
 70
     0
  9
$DIMTVP
 40
0.0
  9
$DIMTIX
 70
     0
  9
$DIMSOXD
 70
     0
  9
$DIMSAH
 70
     0
  9
$DIMBLK1
  1

  9
$DIMBLK2
  1

  9
$DIMSTYLE
  2
AM_ANSI
  9
$DIMCLRD
 70
   256
  9
$DIMCLRE
 70
   256
  9
$DIMCLRT
 70
   140
  9
$DIMTFAC
 40
0.71
  9
$DIMGAP
 40
0.06
  9
$DIMJUST
 70
     0
  9
$DIMSD1
 70
     0
  9
$DIMSD2
 70
     0
  9
$DIMTOLJ
 70
     1
  9
$DIMTZIN
 70
     7
  9
$DIMALTZ
 70
     0
  9
$DIMALTTZ
 70
     0
  9
$DIMUPT
 70
     0
  9
$DIMDEC
 70
     4
  9
$DIMTDEC
 70
     4
  9
$DIMALTU
 70
     2
  9
$DIMALTTD
 70
     4
  9
$DIMTXSTY
  7
Standard
  9
$DIMAUNIT
 70
     0
  9
$DIMADEC
 70
     0
  9
$DIMALTRND
 40
0.0
  9
$DIMAZIN
 70
     2
  9
$DIMDSEP
 70
    46
  9
$DIMATFIT
 70
     3
  9
$DIMFRAC
 70
     0
  9
$DIMLDRBLK
  1

  9
$DIMLUNIT
 70
     2
  9
$DIMLWD
 70
    -1
  9
$DIMLWE
 70
    -1
  9
$DIMTMOVE
 70
     0
  9
$DIMFXL
 40
1.0
  9
$DIMFXLON
 70
     0
  9
$DIMJOGANG
 40
0.7853981633974483
  9
$DIMTFILL
 70
     0
  9
$DIMTFILLCLR
 70
     0
  9
$DIMARCSYM
 70
     1
  9
$DIMLTYPE
  6
ByBlock
  9
$DIMLTEX1
  6
ByBlock
  9
$DIMLTEX2
  6
ByBlock
  9
$DIMTXTDIRECTION
 70
     0
  9
$LUNITS
 70
     2
  9
$LUPREC
 70
     4
  9
$SKETCHINC
 40
0.1
  9
$FILLETRAD
 40
0.5
  9
$AUNITS
 70
     0
  9
$AUPREC
 70
     0
  9
$MENU
  1
.
  9
$ELEVATION
 40
0.0
  9
$PELEVATION
 40
0.0
  9
$THICKNESS
 40
0.0
  9
$LIMCHECK
 70
     0
  9
$CHAMFERA
 40
0.5
  9
$CHAMFERB
 40
0.5
  9
$CHAMFERC
 40
1.0
  9
$CHAMFERD
 40
0.0
  9
$SKPOLY
 70
     0
  9
$TDCREATE
 40
2456499.580519503
  9
$TDUCREATE
 40
2456499.788852835
  9
$TDUPDATE
 40
2457633.420176736
  9
$TDUUPDATE
 40
2457633.628510070
  9
$TDINDWG
 40
0.0213278009
  9
$TDUSRTIMER
 40
0.0213277431
  9
$USRTIMER
 70
     1
  9
$ANGBASE
 50
0.0
  9
$ANGDIR
 70
     0
  9
$PDMODE
 70
     0
  9
$PDSIZE
 40
0.0
  9
$PLINEWID
 40
0.0
  9
$SPLFRAME
 70
     0
  9
$SPLINETYPE
 70
     6
  9
$SPLINESEGS
 70
     8
  9
$HANDSEED
  5
153C
  9
$SURFTAB1
 70
     6
  9
$SURFTAB2
 70
     6
  9
$SURFTYPE
 70
     6
  9
$SURFU
 70
     6
  9
$SURFV
 70
     6
  9
$UCSBASE
  2

  9
$UCSNAME
  2

  9
$UCSORG
 10
0.0
 20
0.0
 30
0.0
  9
$UCSXDIR
 10
1.0
 20
0.0
 30
0.0
  9
$UCSYDIR
 10
0.0
 20
1.0
 30
0.0
  9
$UCSORTHOREF
  2

  9
$UCSORTHOVIEW
 70
     0
  9
$UCSORGTOP
 10
0.0
 20
0.0
 30
0.0
  9
$UCSORGBOTTOM
 10
0.0
 20
0.0
 30
0.0
  9
$UCSORGLEFT
 10
0.0
 20
0.0
 30
0.0
  9
$UCSORGRIGHT
 10
0.0
 20
0.0
 30
0.0
  9
$UCSORGFRONT
 10
0.0
 20
0.0
 30
0.0
  9
$UCSORGBACK
 10
0.0
 20
0.0
 30
0.0
  9
$PUCSBASE
  2

  9
$PUCSNAME
  2

  9
$PUCSORG
 10
0.0
 20
0.0
 30
0.0
  9
$PUCSXDIR
 10
1.0
 20
0.0
 30
0.0
  9
$PUCSYDIR
 10
0.0
 20
1.0
 30
0.0
  9
$PUCSORTHOREF
  2

  9
$PUCSORTHOVIEW
 70
     0
  9
$PUCSORGTOP
 10
0.0
 20
0.0
 30
0.0
  9
$PUCSORGBOTTOM
 10
0.0
 20
0.0
 30
0.0
  9
$PUCSORGLEFT
 10
0.0
 20
0.0
 30
0.0
  9
$PUCSORGRIGHT
 10
0.0
 20
0.0
 30
0.0
  9
$PUCSORGFRONT
 10
0.0
 20
0.0
 30
0.0
  9
$PUCSORGBACK
 10
0.0
 20
0.0
 30
0.0
  9
$USERI1
 70
     0
  9
$USERI2
 70
     0
  9
$USERI3
 70
     0
  9
$USERI4
 70
     0
  9
$USERI5
 70
     0
  9
$USERR1
 40
0.0
  9
$USERR2
 40
0.0
  9
$USERR3
 40
0.0
  9
$USERR4
 40
0.0
  9
$USERR5
 40
0.0
  9
$WORLDVIEW
 70
     1
  9
$SHADEDGE
 70
     3
  9
$SHADEDIF
 70
    70
  9
$TILEMODE
 70
     0
  9
$MAXACTVP
 70
    64
  9
$PINSBASE
 10
0.0
 20
0.0
 30
0.0
  9
$PLIMCHECK
 70
     0
  9
$PEXTMIN
 10
0.0121992464958751
 20
-0.0199687659403694
 30
-0.0000000349181948
  9
$PEXTMAX
 10
21.01485381582699
 20
15.98108363699057
 30
0.0000000814935746
  9
$PLIMMIN
 10
-0.50241871400597
 20
-0.5032299008207635
  9
$PLIMMAX
 10
21.49758080540225
 20
16.49676961858745
  9
$UNITMODE
 70
     0
  9
$VISRETAIN
 70
     1
  9
$PLINEGEN
 70
     0
  9
$PSLTSCALE
 70
     1
  9
$TREEDEPTH
 70
  3020
  9
$CMLSTYLE
  2
Standard
  9
$CMLJUST
 70
     0
  9
$CMLSCALE
 40
1.0
  9
$PROXYGRAPHICS
 70
     1
  9
$MEASUREMENT
 70
     0
  9
$CELWEIGHT
370
    -1
  9
$ENDCAPS
280
     0
  9
$JOINSTYLE
280
     0
  9
$LWDISPLAY
290
     0
  9
$INSUNITS
 70
     1
  9
$HYPERLINKBASE
  1

  9
$STYLESHEET
  1

  9
$XEDIT
290
     1
  9
$CEPSNTYPE
380
     0
  9
$PSTYLEMODE
290
     1
  9
$FINGERPRINTGUID
  2
{006BE0F2-E518-4E98-8EA8-142096E13CEE}
  9
$VERSIONGUID
  2
{56E9122E-AC33-4C55-84A2-EEEB7B1F1BBA}
  9
$EXTNAMES
290
     1
  9
$PSVPSCALE
 40
0.0
  9
$OLESTARTUP
290
     0
  9
$SORTENTS
280
   127
  9
$INDEXCTL
280
     0
  9
$HIDETEXT
280
     1
  9
$XCLIPFRAME
280
     0
  9
$HALOGAP
280
     0
  9
$OBSCOLOR
 70
   257
  9
$OBSLTYPE
280
     0
  9
$INTERSECTIONDISPLAY
280
     0
  9
$INTERSECTIONCOLOR
 70
   257
  9
$DIMASSOC
280
     2
  9
$PROJECTNAME
  1

  9
$CAMERADISPLAY
290
     0
  9
$LENSLENGTH
 40
50.0
  9
$CAMERAHEIGHT
 40
0.0
  9
$STEPSPERSEC
 40
2.0
  9
$STEPSIZE
 40
6.0
  9
$3DDWFPREC
 40
2.0
  9
$PSOLWIDTH
 40
0.25
  9
$PSOLHEIGHT
 40
4.0
  9
$LOFTANG1
 40
1.570796326794896
  9
$LOFTANG2
 40
1.570796326794896
  9
$LOFTMAG1
 40
0.0
  9
$LOFTMAG2
 40
0.0
  9
$LOFTPARAM
 70
     7
  9
$LOFTNORMALS
280
     1
  9
$LATITUDE
 40
37.795
  9
$LONGITUDE
 40
-122.394
  9
$NORTHDIRECTION
 40
0.0
  9
$TIMEZONE
 70
 -8000
  9
$LIGHTGLYPHDISPLAY
280
     1
  9
$TILEMODELIGHTSYNCH
280
     1
  9
$CMATERIAL
347
516
  9
$SOLIDHIST
280
     1
  9
$SHOWHIST
280
     1
  9
$DWFFRAME
280
     2
  9
$DGNFRAME
280
     0
  9
$REALWORLDSCALE
290
     1
  9
$INTERFERECOLOR
 62
     1
  9
$INTERFEREOBJVS
345
523
  9
$INTERFEREVPVS
346
92E
  9
$CSHADOW
280
     0
  9
$SHADOWPLANELOCATION
 40
0.0
  0
ENDSEC
  0
SECTION
  2
CLASSES
  0
CLASS
  1
ACDBDICTIONARYWDFLT
  2
AcDbDictionaryWithDefault
  3
ObjectDBX Classes
 90
        0
 91
        1
280
     0
281
     0
  0
CLASS
  1
ACDBPLACEHOLDER
  2
AcDbPlaceHolder
  3
ObjectDBX Classes
 90
        0
 91
        1
280
     0
281
     0
  0
CLASS
  1
LAYOUT
  2
AcDbLayout
  3
ObjectDBX Classes
 90
        0
 91
        2
280
     0
281
     0
  0
CLASS
  1
PLOTSETTINGS
  2
AcDbPlotSettings
  3
ObjectDBX Classes
 90
        0
 91
        1
280
     0
281
     0
  0
CLASS
  1
DICTIONARYVAR
  2
AcDbDictionaryVar
  3
ObjectDBX Classes
 90
        0
 91
       12
280
     0
281
     0
  0
CLASS
  1
MATERIAL
  2
AcDbMaterial
  3
ObjectDBX Classes
 90
     1153
 91
        3
280
     0
281
     0
  0
CLASS
  1
VISUALSTYLE
  2
AcDbVisualStyle
  3
ObjectDBX Classes
 90
     4095
 91
       26
280
     0
281
     0
  0
CLASS
  1
TABLESTYLE
  2
AcDbTableStyle
  3
ObjectDBX Classes
 90
     4095
 91
        1
280
     0
281
     0
  0
CLASS
  1
SCALE
  2
AcDbScale
  3
ObjectDBX Classes
 90
     1153
 91
       17
280
     0
281
     0
  0
CLASS
  1
MLEADERSTYLE
  2
AcDbMLeaderStyle
  3
ACDB_MLEADERSTYLE_CLASS
 90
     4095
 91
        1
280
     0
281
     0
  0
CLASS
  1
ACDBSECTIONVIEWSTYLE
  2
AcDbSectionViewStyle
  3
ObjectDBX Classes
 90
     1025
 91
        2
280
     0
281
     0
  0
CLASS
  1
ACDBDETAILVIEWSTYLE
  2
AcDbDetailViewStyle
  3
ObjectDBX Classes
 90
     1025
 91
        2
280
     0
281
     0
  0
CLASS
  1
ACME_DOCUMENT
  2
AcMeDbDoc
  3
AcMeServices
 90
     1024
 91
        2
280
     0
281
     0
  0
CLASS
  1
AMGSETTINGSOBJ
  2
AmgSettingsObj
  3
"AcadM|Product Description: AutoCAD Mechanical|Company: Autodesk, Inc."
 90
     1024
 91
        6
280
     0
281
     0
  0
CLASS
  1
ACMESCOPE
  2
AcMeScope
  3
AcMeServices
 90
     1024
 91
        3
280
     0
281
     0
  0
CLASS
  1
ACMECOMMANDHISTORY
  2
AcMeCommandHistory
  3
AcMeServices
 90
     1024
 91
        3
280
     0
281
     0
  0
CLASS
  1
ACIMSYSVARMAN
  2
AcImSysVarManager
  3
AcMeServices
 90
     1024
 91
        9
280
     0
281
     0
  0
CLASS
  1
ACIMINTSYSVAR
  2
AcImIntSysVar
  3
AcMeServices
 90
     1024
 91
        6
280
     0
281
     0
  0
CLASS
  1
ACMESTATEMGR
  2
AcMeStateMgr
  3
AcMeServices
 90
     1024
 91
        3
280
     0
281
     0
  0
CLASS
  1
ACDBENTITYCACHE
  2
AcMeEntityCache
  3
AcMeServices
 90
     1024
 91
        1
280
     0
281
     0
  0
CLASS
  1
ACGREFMASTER
  2
AcGrefMaster
  3
AcAttribServices
 90
     1024
 91
        3
280
     0
281
     0
  0
CLASS
  1
ACME_DATABASE
  2
AcMeDbDatabase
  3
AcMeServices
 90
     1024
 91
        1
280
     0
281
     0
  0
CLASS
  1
ACRFINSADJUSTERMGR
  2
AcRfInsAdjusterMgr
  3
AcMeServices
 90
     1024
 91
        1
280
     0
281
     0
  0
CLASS
  1
ACGREFACADMASTER
  2
AcGrefacadMaster
  3
AcGrefServices
 90
     1024
 91
        3
280
     0
281
     0
  0
CLASS
  1
AMDTMENUSTATEMGR
  2
AmdtMenuStateMgr
  3
McadcomServices
 90
     1024
 91
        1
280
     0
281
     0
  0
CLASS
  1
AMDTMCOMMENUSTATE
  2
AmdtMcomMenuState
  3
McadcomServices
 90
     1024
 91
        1
280
     0
281
     0
  0
CLASS
  1
AMIMASTER
  2
AmiMaster
  3
AmiServices
 90
     1024
 91
        3
280
     0
281
     0
  0
CLASS
  1
MAPIAMMOUDLE
  2
MApiAmModule
  3
MApiAmServices
 90
     1024
 91
        1
280
     0
281
     0
  0
CLASS
  1
ACIMSTRSYSVAR
  2
AcImStrSysVar
  3
AcMeServices
 90
     1024
 91
       15
280
     0
281
     0
  0
CLASS
  1
AMDTAMMENUSTATE
  2
AmdtAmMenuState
  3
DesignerAssemblies
 90
     1024
 91
        1
280
     0
281
     0
  0
CLASS
  1
ACAMPROJECT
  2
AcAmProject
  3
DesignerAssemblies
 90
     1024
 91
        3
280
     0
281
     0
  0
CLASS
  1
ACAMGRCOMPDEF
  2
AcAmGrCompDef
  3
DesignerAssemblies
 90
     1024
 91
        3
280
     0
281
     0
  0
CLASS
  1
ACAMCOMPDEF
  2
AcAmCompDef
  3
DesignerAssemblies
 90
     1024
 91
        3
280
     0
281
     0
  0
CLASS
  1
ACAMCOMPDEFMGR
  2
AcAmCompDefMgr
  3
DesignerAssemblies
 90
     1024
 91
        3
280
     0
281
     0
  0
CLASS
  1
AMCONTEXTMGR
  2
AcAmContextMgr
  3
DesignerAssemblies
 90
     1024
 91
        3
280
     0
281
     0
  0
CLASS
  1
ACAMCONTEXTMODELER
  2
AcAmContextModeler
  3
DesignerAssemblies
 90
     1024
 91
        3
280
     0
281
     0
  0
CLASS
  1
ACMDATADICTIONARY
  2
AcmDataDictionary
  3
"AcmSymBB|Product Description: AutoCAD Mechanical|Company: Autodesk, Inc."
 90
     1024
 91
        3
280
     0
281
     0
  0
CLASS
  1
ACMSTANDARDANSI
  2
AcmStandardANSI
  3
"Amdt_StdImp|Product Description: AutoCAD Mechanical|Company: Autodesk, Inc."
 90
     1024
 91
        3
280
     0
281
     0
  0
CLASS
  1
ACMSURFSTANDARDANSI
  2
AcmSurfTextStdANSI
  3
"Amdt_StdImp|Product Description: AutoCAD Mechanical|Company: Autodesk, Inc."
 90
     1024
 91
        3
280
     0
281
     0
  0
CLASS
  1
ACMFCFSTANDARDANSI
  2
AcmFCFStdANSI
  3
"Amdt_StdImp|Product Description: AutoCAD Mechanical|Company: Autodesk, Inc."
 90
     1024
 91
        3
280
     0
281
     0
  0
CLASS
  1
ACMWELDSTANDARDANSI
  2
AcmWeldingStdANSI
  3
"Amdt_StdImp|Product Description: AutoCAD Mechanical|Company: Autodesk, Inc."
 90
     1024
 91
        3
280
     0
281
     0
  0
CLASS
  1
ACMIDSTANDARDANSI
  2
AcmIdStdANSI
  3
"Amdt_StdImp|Product Description: AutoCAD Mechanical|Company: Autodesk, Inc."
 90
     1024
 91
        3
280
     0
281
     0
  0
CLASS
  1
ACMDATUMSTANDARDANSI
  2
AcmDatumStdANSI
  3
"Amdt_StdImp|Product Description: AutoCAD Mechanical|Company: Autodesk, Inc."
 90
     1024
 91
        3
280
     0
281
     0
  0
CLASS
  1
ACMBOMSTANDARDANSI
  2
AcmBOMStdANSI
  3
"Amdt_StdImp|Product Description: AutoCAD Mechanical|Company: Autodesk, Inc."
 90
     1024
 91
        3
280
     0
281
     0
  0
CLASS
  1
ACMDETAILSTANDARDANSI
  2
AmdtDetailSymStdANSI
  3
"Amdt_StdImp|Product Description: AutoCAD Mechanical|Company: Autodesk, Inc."
 90
     1024
 91
        3
280
     0
281
     0
  0
CLASS
  1
ACMSECTIONSTANDARDANSI
  2
AmdtSectionSymStdANSI
  3
"Amdt_StdImp|Product Description: AutoCAD Mechanical|Company: Autodesk, Inc."
 90
     1024
 91
        3
280
     0
281
     0
  0
CLASS
  1
ACMCENTERLINESTANDARDANSI
  2
AmdtCenterLineStdANSI
  3
"Amdt_StdImp|Product Description: AutoCAD Mechanical|Company: Autodesk, Inc."
 90
     1024
 91
        3
280
     0
281
     0
  0
CLASS
  1
ACMTHREADLINESTANDARDANSI
  2
AmdtThreadLineStdANSI
  3
"Amdt_StdImp|Product Description: AutoCAD Mechanical|Company: Autodesk, Inc."
 90
     1024
 91
        3
280
     0
281
     0
  0
CLASS
  1
ACMNOTESTANDARDANSI
  2
AmdtNoteStdANSI
  3
"Amdt_StdImp|Product Description: AutoCAD Mechanical|Company: Autodesk, Inc."
 90
     1024
 91
        3
280
     0
281
     0
  0
CLASS
  1
ACMTAPERSTANDARDANSI
  2
AcmTaperStdANSI
  3
"Amdt_StdImp|Product Description: AutoCAD Mechanical|Company: Autodesk, Inc."
 90
     1024
 91
        3
280
     0
281
     0
  0
CLASS
  1
ACMANOOTATIONVIEWSTANDARDANSI
  2
AmdtAnViewStdANSI
  3
"Amdt_StdImp|Product Description: AutoCAD Mechanical|Company: Autodesk, Inc."
 90
     1024
 91
        3
280
     0
281
     0
  0
CLASS
  1
ACAMGLAYSTD
  2
AcAmgLayStd
  3
"AmgLay|Product Description: AutoCAD Mechanical|Company: Autodesk, Inc."
 90
     1024
 91
        3
280
     0
281
     0
  0
CLASS
  1
ACAMGDIMSTD
  2
AcAmgDimStd
  3
"AmgDim|Product Description: AutoCAD Mechanical|Company: Autodesk, Inc."
 90
     1024
 91
        3
280
     0
281
     0
  0
CLASS
  1
AMGOBJPROPCFG
  2
AmgObjPropCfg
  3
"AmgLay|Product Description: AutoCAD Mechanical|Company: Autodesk, Inc."
 90
     1024
 91
        3
280
     0
281
     0
  0
CLASS
  1
ACAMGHOLECHARTSTDANSI
  2
AcAmgHoleChartStdANSI
  3
AmgDim|Product Description: AutoCAD Mechanical|Company: Autodesk, Inc.
 90
     1024
 91
        3
280
     0
281
     0
  0
CLASS
  1
ACAMGTITLESTD
  2
AcAmgTitleStd
  3
"AmgTitle|Product Description: AutoCAD Mechanical|Company: Autodesk, Inc."
 90
     1024
 91
        3
280
     0
281
     0
  0
CLASS
  1
AMDTNOTETEMPLATEDB
  2
AmdtNoteTemplateDB
  3
AcmSymBB|Product Description: AutoCAD Mechanical|Company: Autodesk, Inc.
 90
     1024
 91
       18
280
     0
281
     0
  0
CLASS
  1
ACAMGRCOMPDEFSET
  2
AcAmGrCompDefSet
  3
DesignerAssemblies
 90
     1024
 91
        1
280
     0
281
     0
  0
CLASS
  1
AMDTBROWSERDBTAB
  2
AmdtBrowserDbTab
  3
McadcomServices
 90
     1024
 91
        1
280
     0
281
     0
  0
CLASS
  1
CBROWSERAPPOBJECT
  2
CBrowserAppObject
  3
McadcomServices
 90
     1024
 91
        2
280
     0
281
     0
  0
CLASS
  1
DM_PLACEHOLDER
  2
AcDmSelsetPlaceholder
  3
McadcomServices
 90
     1024
 91
        1
280
     0
281
     0
  0
CLASS
  1
EXACXREFPANELOBJECT
  2
ExAcXREFPanelObject
  3
EXAC_ESW
 90
     1025
 91
        1
280
     0
281
     0
  0
CLASS
  1
NPOCOLLECTION
  2
AcDbImpNonPersistentObjectsCollection
  3
ObjectDBX Classes
 90
     1153
 91
        1
280
     0
281
     0
  0
CLASS
  1
CAMSSTRUCTBTNSTATE
  2
StructBtnState
  3
DesignerAssemblies
 90
     1024
 91
        3
280
     0
281
     0
  0
CLASS
  1
DIMASSOC
  2
AcDbDimAssoc
  3
"AcDbDimAssoc|Product Desc:     AcDim ARX App For Dimension|Company:          Autodesk, Inc.|WEB Address:      www.autodesk.com"
 90
        0
 91
        3
280
     0
281
     0
  0
CLASS
  1
ACAMGFILTERDAT
  2
AcAmgFilterDat
  3
"AcadM|Product Description: AutoCAD Mechanical|Company: Autodesk, Inc."
 90
     1024
 91
       18
280
     0
281
     0
  0
CLASS
  1
SORTENTSTABLE
  2
AcDbSortentsTable
  3
ObjectDBX Classes
 90
        0
 91
        3
280
     0
281
     0
  0
CLASS
  1
ACMSECTIONSTANDARDCUSTOM
  2
AmdtSectionSymStdCustom
  3
"Amdt_StdImp|Product Description: AutoCAD Mechanical|Company: Autodesk, Inc."
 90
     1024
 91
        1
280
     0
281
     0
  0
CLASS
  1
ACMDETAILTANDARDCUSTOM
  2
AmdtDetailSymStdCustom
  3
"Amdt_StdImp|Product Description: AutoCAD Mechanical|Company: Autodesk, Inc."
 90
     1024
 91
        1
280
     0
281
     0
  0
CLASS
  1
FIELD
  2
AcDbField
  3
ObjectDBX Classes
 90
     1152
 91
        4
280
     0
281
     0
  0
CLASS
  1
FIELDLIST
  2
AcDbFieldList
  3
ObjectDBX Classes
 90
     1152
 91
        1
280
     0
281
     0
  0
CLASS
  1
CELLSTYLEMAP
  2
AcDbCellStyleMap
  3
ObjectDBX Classes
 90
     1152
 91
        1
280
     0
281
     0
  0
ENDSEC
  0
SECTION
  2
TABLES
  0
TABLE
  2
VPORT
  5
8
330
0
100
AcDbSymbolTable
 70
     1
  0
VPORT
  5
50E
330
8
100
AcDbSymbolTableRecord
100
AcDbViewportTableRecord
  2
*Active
 70
     0
 10
0.0
 20
0.0
 11
1.0
 21
1.0
 12
16.64257565859364
 22
10.72952211494354
 13
0.0
 23
0.0
 14
0.5
 24
0.5
 15
0.5
 25
0.5
 16
0.0
 26
0.0
 36
1.0
 17
0.0
 27
0.0
 37
0.0
 40
11.44126730987888
 41
1.912631578947368
 42
50.0
 43
0.0
 44
0.0
 50
0.0
 51
0.0
 71
     0
 72
   100
 73
     1
 74
     2
 75
     0
 76
     0
 77
     0
 78
     0
281
     0
 65
     1
110
0.0
120
0.0
130
0.0
111
1.0
121
0.0
131
0.0
112
0.0
122
1.0
132
0.0
 79
     0
146
0.0
348
51F
 60
     3
 61
     5
292
     1
282
     1
141
0.0
142
0.0
 63
   250
421
  3355443
1001
ACAD_NAV_VCDISPLAY
1070
     3
  0
ENDTAB
  0
TABLE
  2
LTYPE
  5
5
330
0
100
AcDbSymbolTable
 70
     9
  0
LTYPE
  5
14
330
5
100
AcDbSymbolTableRecord
100
AcDbLinetypeTableRecord
  2
ByBlock
 70
     0
  3

 72
    65
 73
     0
 40
0.0
  0
LTYPE
  5
15
330
5
100
AcDbSymbolTableRecord
100
AcDbLinetypeTableRecord
  2
ByLayer
 70
     0
  3

 72
    65
 73
     0
 40
0.0
  0
LTYPE
  5
16
330
5
100
AcDbSymbolTableRecord
100
AcDbLinetypeTableRecord
  2
Continuous
 70
     0
  3
Solid line
 72
    65
 73
     0
 40
0.0
  0
LTYPE
  5
4D5
330
5
100
AcDbSymbolTableRecord
100
AcDbLinetypeTableRecord
  2
CENTER
 70
     0
  3
Center ____ _ ____ _ ____ _ ____ _ ____ _ ____
 72
    65
 73
     4
 40
2.0
 49
1.25
 74
     0
 49
-0.25
 74
     0
 49
0.25
 74
     0
 49
-0.25
 74
     0
  0
LTYPE
  5
4D6
330
5
100
AcDbSymbolTableRecord
100
AcDbLinetypeTableRecord
  2
HIDDEN
 70
     0
  3
Hidden __ __ __ __ __ __ __ __ __ __ __ __ __ _
 72
    65
 73
     2
 40
0.375
 49
0.25
 74
     0
 49
-0.125
 74
     0
  0
LTYPE
  5
94D
330
5
100
AcDbSymbolTableRecord
100
AcDbLinetypeTableRecord
  2
PHANTOM2
 70
     0
  3
Phantom (.5x) ___ _ _ ___ _ _ ___ _ _ ___ _ _
 72
    65
 73
     6
 40
1.25
 49
0.625
 74
     0
 49
-0.125
 74
     0
 49
0.125
 74
     0
 49
-0.125
 74
     0
 49
0.125
 74
     0
 49
-0.125
 74
     0
  0
LTYPE
  5
99A
330
5
100
AcDbSymbolTableRecord
100
AcDbLinetypeTableRecord
  2
CENTER2
 70
     0
  3
Center (.5x) ___ _ ___ _ ___ _ ___ _ ___ _ ___
 72
    65
 73
     4
 40
1.125
 49
0.75
 74
     0
 49
-0.125
 74
     0
 49
0.125
 74
     0
 49
-0.125
 74
     0
  0
LTYPE
  5
99B
330
5
100
AcDbSymbolTableRecord
100
AcDbLinetypeTableRecord
  2
HIDDEN2
 70
     0
  3
Hidden (.5x) _ _ _ _ _ _ _ _ _ _ _ _ _ _ _ _ _
 72
    65
 73
     2
 40
0.1875
 49
0.125
 74
     0
 49
-0.0625
 74
     0
  0
LTYPE
  5
9A9
330
5
100
AcDbSymbolTableRecord
100
AcDbLinetypeTableRecord
  2
ACANSTGB
 70
     0
  3
__ . . __ . .
 72
    65
 73
     6
 40
0.35433070866
 49
0.15748031496
 74
     0
 49
-0.03937007874
 74
     0
 49
0.03937007874
 74
     0
 49
-0.03937007874
 74
     0
 49
0.03937007874
 74
     0
 49
-0.03937007874
 74
     0
  0
LTYPE
  5
9AA
330
5
100
AcDbSymbolTableRecord
100
AcDbLinetypeTableRecord
  2
ACANSTGL
 70
     0
  3
_ _ _ _ _
 72
    65
 73
     2
 40
0.11811023622
 49
0.07874015748
 74
     0
 49
-0.03937007874
 74
     0
  0
LTYPE
  5
D06
330
5
100
AcDbSymbolTableRecord
100
AcDbLinetypeTableRecord
  2
DASHED
 70
     0
  3
Dashed __ __ __ __ __ __ __ __ __ __ __ __ __ _
 72
    65
 73
     2
 40
0.2067
 49
0.1654
 74
     0
 49
-0.0413
 74
     0
  0
ENDTAB
  0
TABLE
  2
LAYER
  5
2
102
{ACAD_XDICTIONARY
360
548
102
}
330
0
100
AcDbSymbolTable
 70
     9
  0
LAYER
  5
10
102
{ACAD_XDICTIONARY
360
9BA
102
}
330
2
100
AcDbSymbolTableRecord
100
AcDbLayerTableRecord
  2
0
 70
     0
 62
     7
  6
Continuous
370
    -3
390
F
347
518
  0
LAYER
  5
310
102
{ACAD_XDICTIONARY
360
9BC
102
}
330
2
100
AcDbSymbolTableRecord
100
AcDbLayerTableRecord
  2
BORDER
 70
     0
 62
     7
  6
Continuous
370
    30
390
F
347
518
  0
LAYER
  5
4D7
102
{ACAD_XDICTIONARY
360
9BE
102
}
330
2
100
AcDbSymbolTableRecord
100
AcDbLayerTableRecord
  2
VIEWPORT
 70
     0
 62
    -8
  6
Continuous
290
     0
370
    -3
390
F
347
518
  0
LAYER
  5
4D8
102
{ACAD_XDICTIONARY
360
9C0
102
}
330
2
100
AcDbSymbolTableRecord
100
AcDbLayerTableRecord
  2
DIM
 70
     0
 62
     3
  6
Continuous
370
    -3
390
F
347
518
  0
LAYER
  5
4DE
330
2
100
AcDbSymbolTableRecord
100
AcDbLayerTableRecord
  2
Defpoints
 70
     0
 62
     7
  6
Continuous
290
     0
370
    -3
390
F
347
518
  0
LAYER
  5
A88
102
{ACAD_XDICTIONARY
360
A89
102
}
330
2
100
AcDbSymbolTableRecord
100
AcDbLayerTableRecord
  2
NOTES
 70
     0
 62
     7
  6
Continuous
370
    -3
390
F
347
518
  0
LAYER
  5
D07
330
2
100
AcDbSymbolTableRecord
100
AcDbLayerTableRecord
  2
Hidden (ANSI)
 70
     0
 62
     7
  6
DASHED
370
    35
390
F
347
518
  0
LAYER
  5
D08
330
2
100
AcDbSymbolTableRecord
100
AcDbLayerTableRecord
  2
Hidden Narrow (ANSI)
 70
     0
 62
     7
  6
DASHED
370
    25
390
F
347
518
  0
LAYER
  5
D09
330
2
100
AcDbSymbolTableRecord
100
AcDbLayerTableRecord
  2
Visible (ANSI)
 70
     0
 62
     7
  6
Continuous
370
    50
390
F
347
518
  0
ENDTAB
  0
TABLE
  2
STYLE
  5
3
330
0
100
AcDbSymbolTable
 70
     2
  0
STYLE
  5
11
330
3
100
AcDbSymbolTableRecord
100
AcDbTextStyleTableRecord
  2
Standard
 70
     0
 40
0.0
 41
1.0
 50
0.0
 71
     0
 42
0.2
  3
txt
  4

  0
STYLE
  5
9A8
330
3
100
AcDbSymbolTableRecord
100
AcDbTextStyleTableRecord
  2
ACANSGDT
 70
     0
 40
0.0
 41
1.0
 50
0.0
 71
     0
 42
0.2
  3
amgdt.shx
  4

  0
ENDTAB
  0
TABLE
  2
VIEW
  5
6
330
0
100
AcDbSymbolTable
 70
     0
  0
ENDTAB
  0
TABLE
  2
UCS
  5
7
330
0
100
AcDbSymbolTable
 70
     0
  0
ENDTAB
  0
TABLE
  2
APPID
  5
9
330
0
100
AcDbSymbolTable
 70
    22
  0
APPID
  5
12
330
9
100
AcDbSymbolTableRecord
100
AcDbRegAppTableRecord
  2
ACAD
 70
     0
  0
APPID
  5
313
330
9
100
AcDbSymbolTableRecord
100
AcDbRegAppTableRecord
  2
MASTER_SIZING
 70
     0
  0
APPID
  5
314
330
9
100
AcDbSymbolTableRecord
100
AcDbRegAppTableRecord
  2
PAPERSPACE
 70
     0
  0
APPID
  5
3D4
330
9
100
AcDbSymbolTableRecord
100
AcDbRegAppTableRecord
  2
MASTER-TITLE
 70
     0
  0
APPID
  5
95F
330
9
100
AcDbSymbolTableRecord
100
AcDbRegAppTableRecord
  2
MCAD_NO_VIS
 70
     0
  0
APPID
  5
960
330
9
100
AcDbSymbolTableRecord
100
AcDbRegAppTableRecord
  2
ACAD_TEMP_GRAPHIC
 70
     0
  0
APPID
  5
96A
330
9
100
AcDbSymbolTableRecord
100
AcDbRegAppTableRecord
  2
ACATTRIBSERVICES
 70
     0
  0
APPID
  5
982
330
9
100
AcDbSymbolTableRecord
100
AcDbRegAppTableRecord
  2
DESIGNERASSEMBLIES
 70
     0
  0
APPID
  5
997
330
9
100
AcDbSymbolTableRecord
100
AcDbRegAppTableRecord
  2
ACAD_DSTYLE_DIMJAG
 70
     0
  0
APPID
  5
998
330
9
100
AcDbSymbolTableRecord
100
AcDbRegAppTableRecord
  2
ACAD_DSTYLE_DIMBREAK
 70
     0
  0
APPID
  5
A8A
330
9
100
AcDbSymbolTableRecord
100
AcDbRegAppTableRecord
  2
AcDbDynamicBlockGUID
 70
     0
  0
APPID
  5
A8B
330
9
100
AcDbSymbolTableRecord
100
AcDbRegAppTableRecord
  2
AcDbBlockRepETag
 70
     0
  0
APPID
  5
A8C
330
9
100
AcDbSymbolTableRecord
100
AcDbRegAppTableRecord
  2
ACAD_NAV_VCDISPLAY
 70
     0
  0
APPID
  5
FE5
330
9
100
AcDbSymbolTableRecord
100
AcDbRegAppTableRecord
  2
GENIUS_GENDTOL_13
 70
     0
  0
APPID
  5
FE6
330
9
100
AcDbSymbolTableRecord
100
AcDbRegAppTableRecord
  2
ACAD_DSTYLE_DIMINSPECT
 70
     0
  0
APPID
  5
10F1
330
9
100
AcDbSymbolTableRecord
100
AcDbRegAppTableRecord
  2
ACAD_EXEMPT_FROM_CAD_STANDARDS
 70
     0
  0
APPID
  5
116E
330
9
100
AcDbSymbolTableRecord
100
AcDbRegAppTableRecord
  2
GENIUS_GENSCREG_15
 70
     0
  0
APPID
  5
116F
330
9
100
AcDbSymbolTableRecord
100
AcDbRegAppTableRecord
  2
GENIUS_GENOBJ-N-SDF_13
 70
     0
  0
APPID
  5
1170
330
9
100
AcDbSymbolTableRecord
100
AcDbRegAppTableRecord
  2
GENIUS_GENODEF_13
 70
     0
  0
APPID
  5
1176
330
9
100
AcDbSymbolTableRecord
100
AcDbRegAppTableRecord
  2
AcAecLayerStandard
 70
     0
  0
APPID
  5
118F
330
9
100
AcDbSymbolTableRecord
100
AcDbRegAppTableRecord
  2
ACAD_PSEXT
 70
     0
  0
APPID
  5
1190
330
9
100
AcDbSymbolTableRecord
100
AcDbRegAppTableRecord
  2
PLOTTRANSPARENCY
 70
     0
  0
ENDTAB
  0
TABLE
  2
DIMSTYLE
  5
A
330
0
100
AcDbSymbolTable
 70
     7
100
AcDbDimStyleTable
 71
     2
340
27
340
996
  0
DIMSTYLE
105
27
330
A
100
AcDbSymbolTableRecord
100
AcDbDimStyleTableRecord
  2
Standard
 70
     0
 78
     4
 79
     1
271
     2
272
     2
340
11
  0
DIMSTYLE
105
996
102
{ACAD_REACTORS
330
986
102
}
330
A
100
AcDbSymbolTableRecord
100
AcDbDimStyleTableRecord
  2
AM_ANSI
 70
     0
  4
mm
 41
0.12
 42
0.05
 43
0.5
 44
0.1
 47
0.1
 48
0.1
 78
     7
 79
     2
 90
     1
140
0.12
141
0.0
146
0.71
147
0.06
176
   256
177
   256
178
   140
274
     4
284
     7
340
11
345
14
346
14
347
14
371
    -1
372
    -1
1001
ACAD_DSTYLE_DIMJAG
1070
   388
1040
1.5
1001
ACAD_DSTYLE_DIMBREAK
1070
   391
1040
0.125
  0
DIMSTYLE
105
99C
330
A
100
AcDbSymbolTableRecord
100
AcDbDimStyleTableRecord
  2
AM_ANSI$3
 70
     0
  4
mm
 41
0.12
 42
0.05
 43
0.5
 44
0.1
 47
0.1
 48
0.1
 78
     7
 79
     2
 90
     1
140
0.12
141
0.0
146
0.71
147
0.06
176
   256
177
   256
178
   140
274
     4
284
     7
288
     1
289
     0
340
11
345
14
346
14
347
14
371
    -1
372
    -1
1001
ACAD_DSTYLE_DIMBREAK
1070
   391
1040
0.125
1001
ACAD_DSTYLE_DIMJAG
1070
   388
1040
1.5
  0
DIMSTYLE
105
99D
330
A
100
AcDbSymbolTableRecord
100
AcDbDimStyleTableRecord
  2
AM_ANSI$4
 70
     0
  4
mm
 41
0.12
 42
0.05
 43
0.5
 44
0.1
 47
0.1
 48
0.1
 78
     7
 79
     2
 90
     1
140
0.12
141
0.0
146
0.71
147
0.06
176
   256
177
   256
178
   140
274
     4
284
     7
288
     1
289
     0
340
11
345
14
346
14
347
14
371
    -1
372
    -1
1001
ACAD_DSTYLE_DIMBREAK
1070
   391
1040
0.125
1001
ACAD_DSTYLE_DIMJAG
1070
   388
1040
1.5
  0
DIMSTYLE
105
99E
330
A
100
AcDbSymbolTableRecord
100
AcDbDimStyleTableRecord
  2
AM_ANSI$7
 70
     0
  4
mm
 41
0.12
 42
0.05
 43
0.5
 44
0.1
 47
0.1
 48
0.1
 78
     7
 79
     2
 90
     1
140
0.12
141
0.0
146
0.71
147
0.06
176
   256
177
   256
178
   140
274
     4
284
     7
340
11
345
14
346
14
347
14
371
    -1
372
    -1
1001
ACAD_DSTYLE_DIMBREAK
1070
   391
1040
0.125
1001
ACAD_DSTYLE_DIMJAG
1070
   388
1040
1.5
  0
DIMSTYLE
105
99F
330
A
100
AcDbSymbolTableRecord
100
AcDbDimStyleTableRecord
  2
AM_ANSI$SF
 70
     0
  4
mm
 41
0.12
 42
0.05
 43
0.5
 44
0.1
 47
0.1
 48
0.1
 75
     1
 76
     1
 78
     7
 79
     2
 90
     1
140
0.12
141
0.0
146
0.71
147
0.06
176
   256
177
   256
178
   140
274
     4
284
     7
340
11
345
14
346
14
347
14
371
    -1
372
    -1
1001
ACAD_DSTYLE_DIMBREAK
1070
   391
1040
0.125
1001
ACAD_DSTYLE_DIMJAG
1070
   388
1040
1.5
  0
DIMSTYLE
105
9A4
330
A
100
AcDbSymbolTableRecord
100
AcDbDimStyleTableRecord
  2
AM_ANSI$SH
 70
     0
  4
mm
 41
0.12
 42
0.05
 43
0.5
 44
0.1
 47
0.1
 48
0.1
 75
     1
 76
     1
 78
     7
 79
     2
 90
     1
140
0.12
141
0.0
146
0.71
147
0.06
173
     1
176
   256
177
   256
178
   140
274
     4
284
     7
340
11
343
9A0
345
14
346
14
347
14
371
    -1
372
    -1
1001
ACAD_DSTYLE_DIMBREAK
1070
   391
1040
0.125
1001
ACAD_DSTYLE_DIMJAG
1070
   388
1040
1.5
  0
ENDTAB
  0
TABLE
  2
BLOCK_RECORD
  5
1
330
0
100
AcDbSymbolTable
 70
    15
  0
BLOCK_RECORD
  5
1F
102
{ACAD_XDICTIONARY
360
1054
102
}
330
1
100
AcDbSymbolTableRecord
100
AcDbBlockTableRecord
  2
*Model_Space
340
22
 70
     0
280
     1
281
     0
  0
BLOCK_RECORD
  5
1B
102
{ACAD_XDICTIONARY
360
145C
102
}
330
1
100
AcDbSymbolTableRecord
100
AcDbBlockTableRecord
  2
*Paper_Space
340
1E
 70
     0
280
     1
281
     0
  0
BLOCK_RECORD
  5
30C
330
1
100
AcDbSymbolTableRecord
100
AcDbBlockTableRecord
  2
MASTER-BORDER
340
0
102
{BLKREFS
331
48E
102
}
 70
     0
280
     1
281
     0
  0
BLOCK_RECORD
  5
454
330
1
100
AcDbSymbolTableRecord
100
AcDbBlockTableRecord
  2
REVISE12
340
0
102
{BLKREFS
331
802
331
808
331
80E
331
814
331
81A
331
820
331
904
331
90A
331
910
331
916
331
91C
331
922
102
}
 70
     0
280
     1
281
     0
  0
BLOCK_RECORD
  5
7D6
102
{ACAD_XDICTIONARY
360
14C2
102
}
330
1
100
AcDbSymbolTableRecord
100
AcDbBlockTableRecord
  2
A$C04876F98
340
0
102
{BLKREFS
331
8E1
102
}
 70
     1
280
     1
281
     0
  0
BLOCK_RECORD
  5
9A0
330
1
100
AcDbSymbolTableRecord
100
AcDbBlockTableRecord
  2
GENAXEH
340
0
 70
     0
280
     1
281
     0
  0
BLOCK_RECORD
  5
A6C
330
1
100
AcDbSymbolTableRecord
100
AcDbBlockTableRecord
  2
nut
340
0
310
2800000020000000200000000100080000000000000400000000000000000000000000000000000000000000000080000080000000808000800000008000800080800000C0C0C000C0DCC000F0CAA6000020400000206000002080000020A0000020C0000020E00000400000004020000040400000406000004080000040A0
310
000040C0000040E00000600000006020000060400000606000006080000060A0000060C0000060E00000800000008020000080400000806000008080000080A0000080C0000080E00000A0000000A0200000A0400000A0600000A0800000A0A00000A0C00000A0E00000C0000000C0200000C0400000C0600000C0800000C0
310
A00000C0C00000C0E00000E0000000E0200000E0400000E0600000E0800000E0A00000E0C00000E0E00040000000400020004000400040006000400080004000A0004000C0004000E00040200000402020004020400040206000402080004020A0004020C0004020E000404000004040200040404000404060004040800040
310
40A0004040C0004040E00040600000406020004060400040606000406080004060A0004060C0004060E00040800000408020004080400040806000408080004080A0004080C0004080E00040A0000040A0200040A0400040A0600040A0800040A0A00040A0C00040A0E00040C0000040C0200040C0400040C0600040C08000
310
40C0A00040C0C00040C0E00040E0000040E0200040E0400040E0600040E0800040E0A00040E0C00040E0E00080000000800020008000400080006000800080008000A0008000C0008000E00080200000802020008020400080206000802080008020A0008020C0008020E00080400000804020008040400080406000804080
310
008040A0008040C0008040E00080600000806020008060400080606000806080008060A0008060C0008060E00080800000808020008080400080806000808080008080A0008080C0008080E00080A0000080A0200080A0400080A0600080A0800080A0A00080A0C00080A0E00080C0000080C0200080C0400080C0600080C0
310
800080C0A00080C0C00080C0E00080E0000080E0200080E0400080E0600080E0800080E0A00080E0C00080E0E000C0000000C0002000C0004000C0006000C0008000C000A000C000C000C000E000C0200000C0202000C0204000C0206000C0208000C020A000C020C000C020E000C0400000C0402000C0404000C0406000C0
310
408000C040A000C040C000C040E000C0600000C0602000C0604000C0606000C0608000C060A000C060C000C060E000C0800000C0802000C0804000C0806000C0808000C080A000C080C000C080E000C0A00000C0A02000C0A04000C0A06000C0A08000C0A0A000C0A0C000C0A0E000C0C00000C0C02000C0C04000C0C06000
310
C0C08000C0C0A000F0FBFF00A4A0A000808080000000FF0000FF000000FFFF00FF000000FF00FF00FFFF0000FFFFFF000000000000000000000000000000000000000000000000000000000000000000000000000000000000000000FFFFFFFFFFFFFFFF000000000000000000000000000000000000000000000000FFFF00
310
000000FFFF000000000000000000000000000000000000000000000000FFFF00000000FFFF000000000000000000000000000000000000000000000000FFFF00000000FFFF000000000000000000000000000000000000000000000000FFFF00000000FFFF000000000000000000000000000000000000000000000000FFFF
310
00000000FFFF000000000000000000000000000000000000000000000000FFFF00000000FFFF000000000000000000000000000000000000000000000000FFFFFFFFFFFFFFFF000000000000000000000000000000000000000000000000FFFF00000000FFFF000000000000000000000000000000000000000000000000FF
310
FF00000000FFFF000000000000000000000000000000000000000000000000FFFF00000000FFFF000000000000000000000000000000000000000000000000FFFF00000000FFFF000000000000000000000000000000000000000000000000FFFF00000000FFFF000000000000000000000000000000000000000000000000
310
FFFF00000000FFFF000000000000000000000000000000000000000000000000FFFF00000000FFFF000000000000000000000000000000000000000000000000FFFF00000000FFFF000000000000000000000000000000000000000000000000FFFF00000000FFFF0000000000000000000000000000000000000000000000
310
00FFFF00000000FFFF000000000000000000000000000000000000000000000000FFFF00000000FFFF000000000000000000000000000000000000000000000000FFFF00000000FFFF000000000000000000000000000000000000000000000000FFFF00000000FFFF00000000000000000000000000000000000000000000
310
0000FFFF00000000FFFF000000000000000000000000000000000000000000000000FFFFFFFFFFFFFFFF000000000000000000000000000000000000000000000000FFFF00000000FFFF000000000000000000000000000000000000000000000000FFFF00000000FFFF000000000000000000000000000000000000000000
310
000000FFFF00000000FFFF000000000000000000000000000000000000000000000000FFFF00000000FFFF000000000000000000000000000000000000000000000000FFFF00000000FFFF000000000000000000000000000000000000000000000000FFFF00000000FFFF0000000000000000000000000000000000000000
310
00000000FFFFFFFFFFFFFFFF0000000000000000000000000000000000000000000000000000000000000000000000000000000000000000
102
{BLKREFS
331
A81
102
}
 70
     1
280
     1
281
     0
  0
BLOCK_RECORD
  5
A7F
330
1
100
AcDbSymbolTableRecord
100
AcDbBlockTableRecord
  2
A$C5FFD3D1B
340
0
102
{BLKREFS
331
12F1
102
}
 70
     0
280
     1
281
     0
  0
BLOCK_RECORD
  5
A83
330
1
100
AcDbSymbolTableRecord
100
AcDbBlockTableRecord
  2
A$C087148CE
340
0
102
{BLKREFS
331
1287
331
FBA
102
}
 70
     0
280
     1
281
     0
  0
BLOCK_RECORD
  5
1241
330
1
100
AcDbSymbolTableRecord
100
AcDbBlockTableRecord
  2
*D8
340
0
 70
     0
280
     1
281
     0
  0
BLOCK_RECORD
  5
124E
330
1
100
AcDbSymbolTableRecord
100
AcDbBlockTableRecord
  2
*D9
340
0
 70
     0
280
     1
281
     0
  0
BLOCK_RECORD
  5
125B
330
1
100
AcDbSymbolTableRecord
100
AcDbBlockTableRecord
  2
*D10
340
0
 70
     0
280
     1
281
     0
  0
BLOCK_RECORD
  5
1268
330
1
100
AcDbSymbolTableRecord
100
AcDbBlockTableRecord
  2
*D11
340
0
 70
     0
280
     1
281
     0
  0
BLOCK_RECORD
  5
1275
330
1
100
AcDbSymbolTableRecord
100
AcDbBlockTableRecord
  2
*D12
340
0
 70
     0
280
     1
281
     0
  0
BLOCK_RECORD
  5
1282
102
{ACAD_XDICTIONARY
360
1302
102
}
330
1
100
AcDbSymbolTableRecord
100
AcDbBlockTableRecord
  2
A$C19D4211B
340
0
102
{BLKREFS
331
1306
102
}
 70
     1
280
     1
281
     0
  0
BLOCK_RECORD
  5
14E4
330
1
100
AcDbSymbolTableRecord
100
AcDbBlockTableRecord
  2
_ACMFILLEDHALF
340
0
 70
     0
280
     1
281
     0
  0
ENDTAB
  0
ENDSEC
  0
SECTION
  2
BLOCKS
  0
BLOCK
  5
20
330
1F
100
AcDbEntity
  8
0
100
AcDbBlockBegin
  2
*Model_Space
 70
     0
 10
0.0
 20
0.0
 30
0.0
  3
*Model_Space
  1

  0
ENDBLK
  5
21
330
1F
100
AcDbEntity
  8
0
100
AcDbBlockEnd
  0
BLOCK
  5
1C
330
1B
100
AcDbEntity
 67
     1
  8
0
100
AcDbBlockBegin
  2
*Paper_Space
 70
     0
 10
0.0
 20
0.0
 30
0.0
  3
*Paper_Space
  1

  0
ENDBLK
  5
1D
330
1B
100
AcDbEntity
 67
     1
  8
0
100
AcDbBlockEnd
  0
BLOCK
  5
30E
330
30C
100
AcDbEntity
  8
0
100
AcDbBlockBegin
  2
MASTER-BORDER
 70
     0
 10
0.0
 20
0.0
 30
0.0
  3
MASTER-BORDER
  1

  0
LWPOLYLINE
  5
30D
330
30C
100
AcDbEntity
  8
BORDER
100
AcDbPolyline
 90
        4
 70
     1
 43
0.0
 10
0.5
 20
0.5
 10
21.5
 20
0.5
 10
21.5
 20
16.5
 10
0.5
 20
16.5
  0
ENDBLK
  5
30F
330
30C
100
AcDbEntity
  8
0
100
AcDbBlockEnd
  0
BLOCK
  5
45D
330
454
100
AcDbEntity
  8
0
100
AcDbBlockBegin
  2
REVISE12
 70
     2
 10
0.0
 20
0.0
 30
0.0
  3
REVISE12
  1

  0
ATTDEF
  5
455
330
454
100
AcDbEntity
  8
0
100
AcDbText
 10
0.03125
 20
0.0625000000000009
 30
0.0
 40
0.125
  1

 41
0.9
 72
     5
 11
0.21875
 21
0.0625000000000009
 31
0.0
100
AcDbAttributeDefinition
280
     0
  3
REVISION NO.
  2
NO
 70
     8
280
     0
  0
ATTDEF
  5
456
330
454
100
AcDbEntity
  8
0
100
AcDbText
 10
0.3125
 20
0.0625000000000009
 30
0.0
 40
0.125
  1

100
AcDbAttributeDefinition
280
     0
  3
REVISION
  2
REV
 70
     8
280
     0
  0
ATTDEF
  5
457
330
454
100
AcDbEntity
  8
0
100
AcDbText
 10
2.8125
 20
0.0625000000000009
 30
0.0
 40
0.125
  1

 41
1.125
 72
     5
 11
3.46875
 21
0.0625000000000009
 31
0.0
100
AcDbAttributeDefinition
280
     0
  3
REVISION DATE
  2
RDATE
 70
     8
280
     0
  0
ATTDEF
  5
458
330
454
100
AcDbEntity
  8
0
100
AcDbText
 10
3.53125
 20
0.0625000000000009
 30
0.0
 40
0.125
  1

100
AcDbAttributeDefinition
280
     0
  3
REVISION BY
  2
BY
 70
     8
280
     0
  0
LINE
  5
459
330
454
100
AcDbEntity
  8
0
100
AcDbLine
 10
0.0
 20
0.0
 30
0.0
 11
0.0
 21
0.2500000000000009
 31
0.0
  0
LINE
  5
45A
330
454
100
AcDbEntity
  8
0
100
AcDbLine
 10
0.25
 20
0.2500000000000009
 30
0.0
 11
0.25
 21
0.0000000000000009
 31
0.0
  0
LINE
  5
45B
330
454
100
AcDbEntity
  8
0
100
AcDbLine
 10
2.75
 20
0.2500000000000009
 30
0.0
 11
2.75
 21
0.0000000000000009
 31
0.0
  0
LINE
  5
45C
330
454
100
AcDbEntity
  8
0
100
AcDbLine
 10
3.5
 20
0.2500000000000009
 30
0.0
 11
3.5
 21
0.0000000000000009
 31
0.0
  0
ENDBLK
  5
45E
330
454
100
AcDbEntity
  8
0
100
AcDbBlockEnd
  0
BLOCK
  5
7D7
330
7D6
100
AcDbEntity
  8
0
 62
     7
100
AcDbBlockBegin
  2
A$C04876F98
 70
     2
 10
0.0
 20
0.0
 30
0.0
  3
A$C04876F98
  1

  0
LINE
  5
7D8
330
7D6
100
AcDbEntity
  8
0
100
AcDbLine
 10
8.7499999810043
 20
1.749999994680436
 30
0.0
 11
-0.0000000189956992
 21
1.749999994680436
 31
0.0
  0
LINE
  5
7D9
330
7D6
100
AcDbEntity
  8
0
100
AcDbLine
 10
-0.0000000189956992
 20
-0.0000000053195635
 30
0.0
 11
-0.0000000189956992
 21
1.749999994680436
 31
0.0
  0
LINE
  5
7DA
330
7D6
100
AcDbEntity
  8
0
100
AcDbLine
 10
4.9999999810043
 20
-0.0000000053195635
 30
0.0
 11
4.9999999810043
 21
1.749999994680436
 31
0.0
  0
LINE
  5
7DB
330
7D6
100
AcDbEntity
  8
0
100
AcDbLine
 10
3.9999999810043
 20
-0.0000000053195635
 30
0.0
 11
3.9999999810043
 21
1.749999994680436
 31
0.0
  0
LINE
  5
7DC
330
7D6
100
AcDbEntity
  8
0
100
AcDbLine
 10
8.7499999810043
 20
1.249999994680436
 30
0.0
 11
4.9999999810043
 21
1.249999994680436
 31
0.0
  0
LINE
  5
7DD
330
7D6
100
AcDbEntity
  8
0
100
AcDbLine
 10
8.7499999810043
 20
0.4999999946804366
 30
0.0
 11
4.9999999810043
 21
0.4999999946804366
 31
0.0
  0
LINE
  5
7DE
330
7D6
100
AcDbEntity
  8
0
100
AcDbLine
 10
6.9999999810043
 20
0.2499999946804365
 30
0.0
 11
4.9999999810043
 21
0.2499999946804365
 31
0.0
  0
LINE
  5
7DF
330
7D6
100
AcDbEntity
  8
0
100
AcDbLine
 10
5.9999999810043
 20
-0.0000000053195635
 30
0.0
 11
5.9999999810043
 21
0.4999999946804366
 31
0.0
  0
LINE
  5
7E0
330
7D6
100
AcDbEntity
  8
0
100
AcDbLine
 10
6.9999999810043
 20
-0.0000000053195635
 30
0.0
 11
6.9999999810043
 21
0.4999999946804366
 31
0.0
  0
LINE
  5
7E1
330
7D6
100
AcDbEntity
  8
0
100
AcDbLine
 10
-0.0000000189956992
 20
0.2499999946804365
 30
0.0
 11
3.9999999810043
 21
0.2499999946804365
 31
0.0
  0
LINE
  5
7E2
330
7D6
100
AcDbEntity
  8
0
100
AcDbLine
 10
-0.0000000189956992
 20
0.4999999946804366
 30
0.0
 11
3.9999999810043
 21
0.4999999946804366
 31
0.0
  0
LINE
  5
7E3
330
7D6
100
AcDbEntity
  8
0
100
AcDbLine
 10
-0.0000000189956992
 20
0.7499999946804366
 30
0.0
 11
3.9999999810043
 21
0.7499999946804366
 31
0.0
  0
LINE
  5
7E4
330
7D6
100
AcDbEntity
  8
0
100
AcDbLine
 10
-0.0000000189956992
 20
0.9999999946804365
 30
0.0
 11
3.9999999810043
 21
0.9999999946804365
 31
0.0
  0
LINE
  5
7E5
330
7D6
100
AcDbEntity
  8
0
100
AcDbLine
 10
-0.0000000189956992
 20
1.249999994680436
 30
0.0
 11
3.9999999810043
 21
1.249999994680436
 31
0.0
  0
LINE
  5
7E6
330
7D6
100
AcDbEntity
  8
0
100
AcDbLine
 10
-0.0000000189956992
 20
1.499999994680436
 30
0.0
 11
3.9999999810043
 21
1.499999994680436
 31
0.0
  0
LINE
  5
7E7
330
7D6
100
AcDbEntity
  8
0
100
AcDbLine
 10
0.2499999810043008
 20
-0.0000000053195635
 30
0.0
 11
0.2499999810043008
 21
0.2499999946804365
 31
0.0
  0
LINE
  5
7E8
330
7D6
100
AcDbEntity
  8
0
100
AcDbLine
 10
3.4999999810043
 20
-0.0000000053195635
 30
0.0
 11
3.4999999810043
 21
0.2499999946804365
 31
0.0
  0
LINE
  5
7E9
330
7D6
100
AcDbEntity
  8
0
100
AcDbLine
 10
2.7499999810043
 20
-0.0000000053195635
 30
0.0
 11
2.7499999810043
 21
0.2499999946804365
 31
0.0
  0
TEXT
  5
7EA
330
7D6
100
AcDbEntity
  8
0
100
AcDbText
 10
6.590120048441498
 20
1.499999994680436
 30
0.0
 40
0.125
  1
W132 N10611 GRANT DRIVE
 41
0.8
100
AcDbText
  0
TEXT
  5
7EB
330
7D6
100
AcDbEntity
  8
0
100
AcDbText
 10
6.590120048441498
 20
1.312499994680436
 30
0.0
 40
0.125
  1
GERMANTOWN, WI. 53022
 41
0.8
100
AcDbText
  0
TEXT
  5
7EC
330
7D6
100
AcDbEntity
  8
0
100
AcDbText
 10
5.0312499810043
 20
0.4062499946804366
 30
0.0
 40
0.0625
  1
DRN. BY
 41
0.8
100
AcDbText
  0
TEXT
  5
7ED
330
7D6
100
AcDbEntity
  8
0
100
AcDbText
 10
6.0312499810043
 20
0.4062499946804366
 30
0.0
 40
0.0625
  1
DATE
 41
0.8
100
AcDbText
  0
TEXT
  5
7EE
330
7D6
100
AcDbEntity
  8
0
100
AcDbText
 10
7.0312499810043
 20
0.4062499946804366
 30
0.0
 40
0.0625
  1
DWG. NO.
 41
0.8
100
AcDbText
  0
TEXT
  5
7EF
330
7D6
100
AcDbEntity
  8
0
100
AcDbText
 10
6.0312499810043
 20
0.1562499946804365
 30
0.0
 40
0.0625
  1
APRVD.
 41
0.8
100
AcDbText
  0
TEXT
  5
7F0
330
7D6
100
AcDbEntity
  8
0
100
AcDbText
 10
5.0312499810043
 20
0.1562499946804365
 30
0.0
 40
0.0625
  1
SCALE
 41
0.8
100
AcDbText
  0
TEXT
  5
7F1
330
7D6
100
AcDbEntity
  8
0
100
AcDbText
 10
4.1562499810043
 20
1.624999994680436
 30
0.0
 40
0.09
  1
TOLERANCES
 41
0.8
100
AcDbText
  0
TEXT
  5
7F2
330
7D6
100
AcDbEntity
  8
0
100
AcDbText
 10
4.0312499810043
 20
1.374999994680436
 30
0.0
 40
0.0625
  1
DECIMAL
 41
0.8
100
AcDbText
  0
TEXT
  5
7F3
330
7D6
100
AcDbEntity
  8
0
100
AcDbText
 10
4.0312499810043
 20
0.6562499946804366
 30
0.0
 40
0.0625
  1
FRACTIONAL
 41
0.8
100
AcDbText
  0
TEXT
  5
7F4
330
7D6
100
AcDbEntity
  8
0
100
AcDbText
 10
4.0312499810043
 20
0.2812499946804365
 30
0.0
 40
0.0625
  1
ANGULAR
 41
0.8
100
AcDbText
  0
LINE
  5
7F5
330
7D6
100
AcDbEntity
  8
0
100
AcDbLine
 10
3.9999999810043
 20
1.468749994680436
 30
0.0
 11
4.9999999810043
 21
1.468749994680436
 31
0.0
  0
TEXT
  5
7F6
330
7D6
100
AcDbEntity
  8
0
100
AcDbText
 10
4.1249999810043
 20
1.499999994680436
 30
0.0
 40
0.0625
  1
(EXCEPT AS NOTED)
 41
0.8
100
AcDbText
  0
LINE
  5
7F7
330
7D6
100
AcDbEntity
  8
0
100
AcDbLine
 10
3.9999999810043
 20
0.3749999946804365
 30
0.0
 11
4.9999999810043
 21
0.3749999946804365
 31
0.0
  0
LINE
  5
7F8
330
7D6
100
AcDbEntity
  8
0
100
AcDbLine
 10
3.9999999810043
 20
0.7499999946804366
 30
0.0
 11
4.9999999810043
 21
0.7499999946804366
 31
0.0
  0
TEXT
  5
7F9
330
7D6
100
AcDbEntity
  8
0
100
AcDbText
 10
4.0624999810043
 20
1.093749994680436
 30
0.0
 40
0.125
  1
.XX %%p
 41
0.8
100
AcDbText
  0
TEXT
  5
7FA
330
7D6
100
AcDbEntity
  8
0
100
AcDbText
 10
4.0624999810043
 20
0.8437499946804365
 30
0.0
 40
0.125
  1
.XXX%%p
 41
0.8
100
AcDbText
  0
TEXT
  5
7FB
330
7D6
100
AcDbEntity
  8
0
100
AcDbText
 10
4.1249999810043
 20
0.4687499946804366
 30
0.0
 40
0.125
  1
%%p
 41
0.8
100
AcDbText
  0
TEXT
  5
7FC
330
7D6
100
AcDbEntity
  8
0
100
AcDbText
 10
4.1249999810043
 20
0.0937499946804366
 30
0.0
 40
0.125
  1
%%p
 41
0.8
100
AcDbText
  0
TEXT
  5
7FD
330
7D6
100
AcDbEntity
  8
0
100
AcDbText
 10
3.6562499810043
 20
0.0624999946804366
 30
0.0
 40
0.125
  1
BY
 41
0.8
100
AcDbText
  0
TEXT
  5
7FE
330
7D6
100
AcDbEntity
  8
0
100
AcDbText
 10
0.0312499810043008
 20
0.0624999946804366
 30
0.0
 40
0.125
  1
NO
 41
0.8
100
AcDbText
  0
TEXT
  5
7FF
330
7D6
100
AcDbEntity
  8
0
100
AcDbText
 10
1.2187499810043
 20
0.0624999946804366
 30
0.0
 40
0.125
  1
REVISION
 41
0.8
100
AcDbText
  0
TEXT
  5
800
330
7D6
100
AcDbEntity
  8
0
100
AcDbText
 10
2.9374999810043
 20
0.0624999946804366
 30
0.0
 40
0.125
  1
DATE
 41
0.8
100
AcDbText
  0
TEXT
  5
801
330
7D6
100
AcDbEntity
  8
0
100
AcDbText
 10
7.8124999810043
 20
0.0312499946804366
 30
0.0
 40
0.09
  1
SHT.    OF
 41
0.8
100
AcDbText
  0
INSERT
  5
802
330
7D6
100
AcDbEntity
  8
BORDER
100
AcDbBlockReference
 66
     1
  2
REVISE12
 10
-0.0000000189956992
 20
0.2499999946804365
 30
0.0
  0
ATTRIB
  5
148B
330
802
100
AcDbEntity
  8
0
100
AcDbText
 10
0.0312499810043008
 20
0.3124999946804365
 30
0.0
 40
0.125
  1

 41
0.9
 72
     5
 11
0.2187499810043008
 21
0.3124999946804365
 31
0.0
100
AcDbAttribute
280
     0
  2
NO
 70
     8
280
     0
  0
ATTRIB
  5
148C
330
802
100
AcDbEntity
  8
0
100
AcDbText
 10
0.3124999810043008
 20
0.3124999946804365
 30
0.0
 40
0.125
  1

100
AcDbAttribute
280
     0
  2
REV
 70
     8
280
     0
  0
ATTRIB
  5
148D
330
802
100
AcDbEntity
  8
0
100
AcDbText
 10
2.8124999810043
 20
0.3124999946804365
 30
0.0
 40
0.125
  1

 41
1.125
 72
     5
 11
3.4687499810043
 21
0.3124999946804365
 31
0.0
100
AcDbAttribute
280
     0
  2
RDATE
 70
     8
280
     0
  0
ATTRIB
  5
148E
330
802
100
AcDbEntity
  8
0
100
AcDbText
 10
3.5312499810043
 20
0.3124999946804365
 30
0.0
 40
0.125
  1

100
AcDbAttribute
280
     0
  2
BY
 70
     8
280
     0
  0
SEQEND
  5
148F
330
802
100
AcDbEntity
  8
BORDER
  0
INSERT
  5
808
330
7D6
100
AcDbEntity
  8
BORDER
100
AcDbBlockReference
 66
     1
  2
REVISE12
 10
-0.0000000189956992
 20
0.4999999946804366
 30
0.0
  0
ATTRIB
  5
1491
330
808
100
AcDbEntity
  8
0
100
AcDbText
 10
0.0312499810043008
 20
0.5624999946804366
 30
0.0
 40
0.125
  1

 41
0.9
 72
     5
 11
0.2187499810043008
 21
0.5624999946804366
 31
0.0
100
AcDbAttribute
280
     0
  2
NO
 70
     8
280
     0
  0
ATTRIB
  5
1492
330
808
100
AcDbEntity
  8
0
100
AcDbText
 10
0.3124999810043008
 20
0.5624999946804366
 30
0.0
 40
0.125
  1

100
AcDbAttribute
280
     0
  2
REV
 70
     8
280
     0
  0
ATTRIB
  5
1493
330
808
100
AcDbEntity
  8
0
100
AcDbText
 10
2.8124999810043
 20
0.5624999946804366
 30
0.0
 40
0.125
  1

 41
1.125
 72
     5
 11
3.4687499810043
 21
0.5624999946804366
 31
0.0
100
AcDbAttribute
280
     0
  2
RDATE
 70
     8
280
     0
  0
ATTRIB
  5
1494
330
808
100
AcDbEntity
  8
0
100
AcDbText
 10
3.5312499810043
 20
0.5624999946804366
 30
0.0
 40
0.125
  1

100
AcDbAttribute
280
     0
  2
BY
 70
     8
280
     0
  0
SEQEND
  5
1495
330
808
100
AcDbEntity
  8
BORDER
  0
INSERT
  5
80E
330
7D6
100
AcDbEntity
  8
BORDER
100
AcDbBlockReference
 66
     1
  2
REVISE12
 10
-0.0000000189956992
 20
0.7499999946804366
 30
0.0
  0
ATTRIB
  5
1497
330
80E
100
AcDbEntity
  8
0
100
AcDbText
 10
0.0312499810043008
 20
0.8124999946804365
 30
0.0
 40
0.125
  1

 41
0.9
 72
     5
 11
0.2187499810043008
 21
0.8124999946804365
 31
0.0
100
AcDbAttribute
280
     0
  2
NO
 70
     8
280
     0
  0
ATTRIB
  5
1498
330
80E
100
AcDbEntity
  8
0
100
AcDbText
 10
0.3124999810043008
 20
0.8124999946804365
 30
0.0
 40
0.125
  1

100
AcDbAttribute
280
     0
  2
REV
 70
     8
280
     0
  0
ATTRIB
  5
1499
330
80E
100
AcDbEntity
  8
0
100
AcDbText
 10
2.8124999810043
 20
0.8124999946804365
 30
0.0
 40
0.125
  1

 41
1.125
 72
     5
 11
3.4687499810043
 21
0.8124999946804365
 31
0.0
100
AcDbAttribute
280
     0
  2
RDATE
 70
     8
280
     0
  0
ATTRIB
  5
149A
330
80E
100
AcDbEntity
  8
0
100
AcDbText
 10
3.5312499810043
 20
0.8124999946804365
 30
0.0
 40
0.125
  1

100
AcDbAttribute
280
     0
  2
BY
 70
     8
280
     0
  0
SEQEND
  5
149B
330
80E
100
AcDbEntity
  8
BORDER
  0
INSERT
  5
814
330
7D6
100
AcDbEntity
  8
BORDER
100
AcDbBlockReference
 66
     1
  2
REVISE12
 10
-0.0000000189956992
 20
0.9999999946804365
 30
0.0
  0
ATTRIB
  5
149D
330
814
100
AcDbEntity
  8
0
100
AcDbText
 10
0.0312499810043008
 20
1.062499994680436
 30
0.0
 40
0.125
  1

 41
0.9
 72
     5
 11
0.2187499810043008
 21
1.062499994680436
 31
0.0
100
AcDbAttribute
280
     0
  2
NO
 70
     8
280
     0
  0
ATTRIB
  5
149E
330
814
100
AcDbEntity
  8
0
100
AcDbText
 10
0.3124999810043008
 20
1.062499994680436
 30
0.0
 40
0.125
  1

100
AcDbAttribute
280
     0
  2
REV
 70
     8
280
     0
  0
ATTRIB
  5
149F
330
814
100
AcDbEntity
  8
0
100
AcDbText
 10
2.8124999810043
 20
1.062499994680436
 30
0.0
 40
0.125
  1

 41
1.125
 72
     5
 11
3.4687499810043
 21
1.062499994680436
 31
0.0
100
AcDbAttribute
280
     0
  2
RDATE
 70
     8
280
     0
  0
ATTRIB
  5
14A0
330
814
100
AcDbEntity
  8
0
100
AcDbText
 10
3.5312499810043
 20
1.062499994680436
 30
0.0
 40
0.125
  1

100
AcDbAttribute
280
     0
  2
BY
 70
     8
280
     0
  0
SEQEND
  5
14A1
330
814
100
AcDbEntity
  8
BORDER
  0
INSERT
  5
81A
330
7D6
100
AcDbEntity
  8
BORDER
100
AcDbBlockReference
 66
     1
  2
REVISE12
 10
-0.0000000189956992
 20
1.249999994680436
 30
0.0
  0
ATTRIB
  5
14A3
330
81A
100
AcDbEntity
  8
0
100
AcDbText
 10
0.0312499810043008
 20
1.312499994680436
 30
0.0
 40
0.125
  1

 41
0.9
 72
     5
 11
0.2187499810043008
 21
1.312499994680436
 31
0.0
100
AcDbAttribute
280
     0
  2
NO
 70
     8
280
     0
  0
ATTRIB
  5
14A4
330
81A
100
AcDbEntity
  8
0
100
AcDbText
 10
0.3124999810043008
 20
1.312499994680436
 30
0.0
 40
0.125
  1

100
AcDbAttribute
280
     0
  2
REV
 70
     8
280
     0
  0
ATTRIB
  5
14A5
330
81A
100
AcDbEntity
  8
0
100
AcDbText
 10
2.8124999810043
 20
1.312499994680436
 30
0.0
 40
0.125
  1

 41
1.125
 72
     5
 11
3.4687499810043
 21
1.312499994680436
 31
0.0
100
AcDbAttribute
280
     0
  2
RDATE
 70
     8
280
     0
  0
ATTRIB
  5
14A6
330
81A
100
AcDbEntity
  8
0
100
AcDbText
 10
3.5312499810043
 20
1.312499994680436
 30
0.0
 40
0.125
  1

100
AcDbAttribute
280
     0
  2
BY
 70
     8
280
     0
  0
SEQEND
  5
14A7
330
81A
100
AcDbEntity
  8
BORDER
  0
INSERT
  5
820
330
7D6
100
AcDbEntity
  8
BORDER
100
AcDbBlockReference
 66
     1
  2
REVISE12
 10
-0.0000000189956992
 20
1.499999994680436
 30
0.0
  0
ATTRIB
  5
14A9
330
820
100
AcDbEntity
  8
0
100
AcDbText
 10
0.0312499810043008
 20
1.562499994680436
 30
0.0
 40
0.125
  1

 41
0.9
 72
     5
 11
0.2187499810043008
 21
1.562499994680436
 31
0.0
100
AcDbAttribute
280
     0
  2
NO
 70
     8
280
     0
  0
ATTRIB
  5
14AA
330
820
100
AcDbEntity
  8
0
100
AcDbText
 10
0.3124999810043008
 20
1.562499994680436
 30
0.0
 40
0.125
  1

100
AcDbAttribute
280
     0
  2
REV
 70
     8
280
     0
  0
ATTRIB
  5
14AB
330
820
100
AcDbEntity
  8
0
100
AcDbText
 10
2.8124999810043
 20
1.562499994680436
 30
0.0
 40
0.125
  1

 41
1.125
 72
     5
 11
3.4687499810043
 21
1.562499994680436
 31
0.0
100
AcDbAttribute
280
     0
  2
RDATE
 70
     8
280
     0
  0
ATTRIB
  5
14AC
330
820
100
AcDbEntity
  8
0
100
AcDbText
 10
3.5312499810043
 20
1.562499994680436
 30
0.0
 40
0.125
  1

100
AcDbAttribute
280
     0
  2
BY
 70
     8
280
     0
  0
SEQEND
  5
14AD
330
820
100
AcDbEntity
  8
BORDER
  0
LINE
  5
826
330
7D6
100
AcDbEntity
  8
BORDER
100
AcDbLine
 10
-0.0000000189956992
 20
0.4999999946804366
 30
0.0
 11
-0.0000000189956992
 21
1.749999994680436
 31
0.0
  0
LINE
  5
827
330
7D6
100
AcDbEntity
  8
BORDER
100
AcDbLine
 10
-0.0000000189956992
 20
0.4999999946804366
 30
0.0
 11
3.9999999810043
 21
0.4999999946804366
 31
0.0
  0
LINE
  5
828
330
7D6
100
AcDbEntity
  8
BORDER
100
AcDbLine
 10
-0.0000000189956992
 20
0.7499999946804366
 30
0.0
 11
3.9999999810043
 21
0.7499999946804366
 31
0.0
  0
LINE
  5
829
330
7D6
100
AcDbEntity
  8
BORDER
100
AcDbLine
 10
-0.0000000189956992
 20
0.9999999946804365
 30
0.0
 11
3.9999999810043
 21
0.9999999946804365
 31
0.0
  0
LINE
  5
82A
330
7D6
100
AcDbEntity
  8
BORDER
100
AcDbLine
 10
-0.0000000189956992
 20
1.249999994680436
 30
0.0
 11
3.9999999810043
 21
1.249999994680436
 31
0.0
  0
LINE
  5
82B
330
7D6
100
AcDbEntity
  8
BORDER
100
AcDbLine
 10
-0.0000000189956992
 20
1.499999994680436
 30
0.0
 11
3.9999999810043
 21
1.499999994680436
 31
0.0
  0
ATTDEF
  5
82C
330
7D6
100
AcDbEntity
  8
0
100
AcDbText
 10
7.4687499810043
 20
0.2499999946804365
 30
0.0
 40
0.1875
  1

 41
0.8
100
AcDbAttributeDefinition
280
     0
  3
DRAWING NUMBER
  2
DWGNO
 70
     0
280
     0
  0
ATTDEF
  5
82D
330
7D6
100
AcDbEntity
  8
0
100
AcDbText
 10
5.4062499810043
 20
0.2812499946804365
 30
0.0
 40
0.125
  1

 41
0.8
100
AcDbAttributeDefinition
280
     0
  3
DRAWN BY
  2
DRNBY
 70
     0
280
     0
  0
ATTDEF
  5
82E
330
7D6
100
AcDbEntity
  8
0
100
AcDbText
 10
6.2499999810043
 20
0.2812499946804365
 30
0.0
 40
0.125
  1

 41
1.568181818181818
 72
     5
 11
6.9687499810043
 21
0.2812499946804365
 31
0.0
100
AcDbAttributeDefinition
280
     0
  3
DRAWING DATE
  2
DATE
 70
     0
280
     0
  0
ATTDEF
  5
82F
330
7D6
100
AcDbEntity
  8
0
100
AcDbText
 10
5.3437499810043
 20
0.0312499946804366
 30
0.0
 40
0.125
  1

 41
0.8
100
AcDbAttributeDefinition
280
     0
  3
SCALE
  2
SCALE
 70
     0
280
     0
  0
ATTDEF
  5
830
330
7D6
100
AcDbEntity
  8
0
100
AcDbText
 10
6.3437499810043
 20
0.0312499946804366
 30
0.0
 40
0.125
  1

 41
0.8
100
AcDbAttributeDefinition
280
     0
  3
APPROVED BY
  2
APRVD
 70
     0
280
     0
  0
ATTDEF
  5
831
330
7D6
100
AcDbEntity
  8
0
100
AcDbText
 10
8.0937499810043
 20
0.0312499946804366
 30
0.0
 40
0.125
  1

 41
0.8
100
AcDbAttributeDefinition
280
     0
  3
SHEET
  2
SHT
 70
     0
280
     0
  0
ATTDEF
  5
832
330
7D6
100
AcDbEntity
  8
0
100
AcDbText
 10
8.4687499810043
 20
0.0312499946804366
 30
0.0
 40
0.125
  1

 41
0.8
100
AcDbAttributeDefinition
280
     0
  3
OF SHEET
  2
OFSHT
 70
     0
280
     0
  0
ATTDEF
  5
833
330
7D6
100
AcDbEntity
  8
0
100
AcDbText
 10
5.1562499810043
 20
0.8749999946804365
 30
0.0
 40
0.1875
  1

 41
0.8
100
AcDbAttributeDefinition
280
     0
  3
DESCRIPTION (LINE 1 OF 2)
  2
DESC1
 70
     0
280
     0
  0
ATTDEF
  5
834
330
7D6
100
AcDbEntity
  8
0
100
AcDbText
 10
5.1562499810043
 20
0.5937499946804366
 30
0.0
 40
0.1875
  1

 41
0.8
100
AcDbAttributeDefinition
280
     0
  3
DESCRIPTION (LINE 2 OF 2)
  2
DESC2
 70
     0
280
     0
  0
ATTDEF
  5
835
330
7D6
100
AcDbEntity
  8
0
100
AcDbText
 10
4.5312499810043
 20
1.093749994680436
 30
0.0
 40
0.125
  1
.01
 41
0.8
100
AcDbAttributeDefinition
280
     0
  3
TOLERANCE .XX
  2
TOLXX
 70
     0
280
     0
  0
ATTDEF
  5
836
330
7D6
100
AcDbEntity
  8
0
100
AcDbText
 10
4.5312499810043
 20
0.8437499946804365
 30
0.0
 40
0.125
  1
.005
 41
0.8
100
AcDbAttributeDefinition
280
     0
  3
TOLERANCE .XXX
  2
TOLXXX
 70
     0
280
     0
  0
ATTDEF
  5
837
330
7D6
100
AcDbEntity
  8
0
100
AcDbText
 10
4.2812499810043
 20
0.4687499946804366
 30
0.0
 40
0.125
  1
1/32
 41
0.8
100
AcDbAttributeDefinition
280
     0
  3
TOLERANCE - FRACTIONAL
  2
TOLFRAC
 70
     0
280
     0
  0
ATTDEF
  5
838
330
7D6
100
AcDbEntity
  8
0
100
AcDbText
 10
4.2812499810043
 20
0.0937499946804366
 30
0.0
 40
0.125
  1
1/2%%d
 41
0.8
100
AcDbAttributeDefinition
280
     0
  3
TOLERANCE - ANGULAR
  2
TOLANG
 70
     0
280
     0
  0
ATTDEF
  5
839
330
7D6
100
AcDbEntity
  8
0
100
AcDbText
 10
7.1562499810043
 20
0.0937499946804366
 30
0.0
 40
0.25
  1

 41
0.8
100
AcDbAttributeDefinition
280
     0
  3

  2
DWG.SIZE
 70
     0
280
     0
  0
ENDBLK
  5
83A
330
7D6
100
AcDbEntity
  8
0
 62
     7
100
AcDbBlockEnd
  0
BLOCK
  5
9A2
330
9A0
100
AcDbEntity
  8
0
100
AcDbBlockBegin
  2
GENAXEH
 70
     0
 10
0.0
 20
0.0
 30
0.0
  3
GENAXEH
  1

  0
LINE
  5
9A1
330
9A0
100
AcDbEntity
  8
0
100
AcDbLine
 10
-1.0
 20
0.0
 30
0.0
 11
1.0
 21
0.0
 31
0.0
  0
ENDBLK
  5
9A3
330
9A0
100
AcDbEntity
  8
0
100
AcDbBlockEnd
  0
BLOCK
  5
A6D
330
A6C
100
AcDbEntity
  8
0
100
AcDbBlockBegin
  2
nut
 70
     0
 10
0.0
 20
0.0
 30
0.0
  3
nut
  1

  0
LINE
  5
A6E
330
A6C
100
AcDbEntity
  8
0
100
AcDbLine
 10
0.2044750676435871
 20
-0.2203070197410355
 30
0.0
 11
0.0255249323564186
 21
-0.2203070197410364
 31
0.0
  0
LINE
  5
A6F
330
A6C
100
AcDbEntity
  8
0
100
AcDbLine
 10
0.2044750676435854
 20
0.2203070197410311
 30
0.0
 11
0.0255249323564186
 21
0.2203070197410293
 31
0.0
  0
LINE
  5
A70
330
A6C
100
AcDbEntity
  8
0
100
AcDbLine
 10
0.2122464558491988
 20
0.4406140394820595
 30
0.0
 11
0.0177535441508017
 21
0.4406140394820604
 31
0.0
  0
LINE
  5
A71
330
A6C
100
AcDbEntity
  8
0
100
AcDbLine
 10
0.2122464558492005
 20
-0.4406140394820675
 30
0.0
 11
0.0177535441508034
 21
-0.4406140394820684
 31
0.0
  0
LINE
  5
A72
330
A6C
100
AcDbEntity
  8
0
100
AcDbLine
 10
0.0177535441508034
 20
-0.4406140394820684
 30
0.0
 11
0.0
 21
-0.3755616537228334
 31
0.0
  0
ARC
  5
A73
330
A6C
100
AcDbEntity
  8
0
100
AcDbCircle
 10
0.2502906852122351
 20
-0.3304605296115506
 30
0.0
 40
0.2503066906689392
100
AcDbArc
 50
153.8913862442107
 51
206.1086137557896
  0
LINE
  5
A74
330
A6C
100
AcDbEntity
  8
0
100
AcDbLine
 10
0.0
 20
0.3755616537228299
 30
0.0
 11
0.0
 21
-0.3755616537228299
 31
0.0
  0
ARC
  5
A75
330
A6C
100
AcDbEntity
  8
0
100
AcDbCircle
 10
0.9635031433610556
 20
-0.0000000000000009
 30
0.0
 40
0.9635031433610558
100
AcDbArc
 50
166.78227161072
 51
193.2177283892801
  0
LINE
  5
A76
330
A6C
100
AcDbEntity
  8
0
100
AcDbLine
 10
0.0177535441508034
 20
0.4406140394820595
 30
0.0
 11
0.0
 21
0.3755616537228246
 31
0.0
  0
ARC
  5
A77
330
A6C
100
AcDbEntity
  8
0
100
AcDbCircle
 10
0.2502906852122351
 20
0.3304605296115461
 30
0.0
 40
0.2503066906689392
100
AcDbArc
 50
153.8913862442107
 51
206.1086137557896
  0
ARC
  5
A78
330
A6C
100
AcDbEntity
  8
0
100
AcDbCircle
 10
-0.0202906852122311
 20
-0.3304605296115506
 30
0.0
 40
0.2503066906689392
100
AcDbArc
 50
333.8913862442104
 51
26.1086137557893
  0
LINE
  5
A79
330
A6C
100
AcDbEntity
  8
0
100
AcDbLine
 10
0.2122464558492005
 20
-0.4406140394820684
 30
0.0
 11
0.230000000000004
 21
-0.3755616537228334
 31
0.0
  0
ARC
  5
A7A
330
A6C
100
AcDbEntity
  8
0
100
AcDbCircle
 10
-0.7335031433610518
 20
-0.0000000000000009
 30
0.0
 40
0.9635031433610558
100
AcDbArc
 50
346.7822716107199
 51
13.21772838928001
  0
LINE
  5
A7B
330
A6C
100
AcDbEntity
  8
0
100
AcDbLine
 10
0.230000000000004
 20
0.3755616537228299
 30
0.0
 11
0.230000000000004
 21
-0.3755616537228299
 31
0.0
  0
ARC
  5
A7C
330
A6C
100
AcDbEntity
  8
0
100
AcDbCircle
 10
-0.0202906852122311
 20
0.3304605296115461
 30
0.0
 40
0.2503066906689392
100
AcDbArc
 50
333.8913862442104
 51
26.1086137557893
  0
LINE
  5
A7D
330
A6C
100
AcDbEntity
  8
0
100
AcDbLine
 10
0.2122464558492005
 20
0.4406140394820595
 30
0.0
 11
0.230000000000004
 21
0.3755616537228246
 31
0.0
  0
ENDBLK
  5
A7E
330
A6C
100
AcDbEntity
  8
0
100
AcDbBlockEnd
  0
BLOCK
  5
A80
330
A7F
100
AcDbEntity
  8
0
100
AcDbBlockBegin
  2
A$C5FFD3D1B
 70
     0
 10
0.0
 20
0.0
 30
0.0
  3
A$C5FFD3D1B
  1

  0
INSERT
  5
A81
330
A7F
100
AcDbEntity
  8
0
100
AcDbBlockReference
  2
nut
 10
0.0
 20
0.0000000000000018
 30
0.0
  0
ENDBLK
  5
A82
330
A7F
100
AcDbEntity
  8
0
100
AcDbBlockEnd
  0
BLOCK
  5
A84
330
A83
100
AcDbEntity
  8
0
100
AcDbBlockBegin
  2
A$C087148CE
 70
     0
 10
0.0
 20
0.0
 30
0.0
  3
A$C087148CE
  1

  0
CIRCLE
  5
A85
330
A83
100
AcDbEntity
  8
0
100
AcDbCircle
 10
0.0
 20
0.0
 30
0.0
 40
0.375
  0
LWPOLYLINE
  5
A86
330
A83
100
AcDbEntity
  8
0
100
AcDbPolyline
 90
        6
 70
     1
 43
0.0
 10
0.3815829514555453
 20
0.2203070197410311
 10
0.0
 20
0.4406140394820631
 10
-0.3815829514555453
 20
0.2203070197410311
 10
-0.3815829514555453
 20
-0.2203070197410328
 10
0.0
 20
-0.4406140394820648
 10
0.3815829514555453
 20
-0.2203070197410328
  0
ENDBLK
  5
A87
330
A83
100
AcDbEntity
  8
0
100
AcDbBlockEnd
  0
BLOCK
  5
1242
330
1241
100
AcDbEntity
  8
0
100
AcDbBlockBegin
  2
*D8
 70
     1
 10
0.0
 20
0.0
 30
0.0
  3
*D8
  1

  0
LINE
  5
1243
330
1241
100
AcDbEntity
  8
DIM
 62
     0
440
 16777216
370
    -2
100
AcDbLine
 10
21.29350530654848
 20
14.30414054963079
 30
0.0
 11
22.9802649722824
 21
14.30414054963079
 31
0.0
  0
LINE
  5
1244
330
1241
100
AcDbEntity
  8
DIM
 62
     0
440
 16777216
370
    -2
100
AcDbLine
 10
21.29350530654848
 20
10.98414054963079
 30
0.0
 11
22.9802649722824
 21
10.98414054963079
 31
0.0
  0
LINE
  5
1245
330
1241
100
AcDbEntity
  8
DIM
 62
     0
440
 16777216
370
    -2
100
AcDbLine
 10
22.8002649722824
 20
14.12414054963079
 30
0.0
 11
22.8002649722824
 21
12.82414054963079
 31
0.0
  0
LINE
  5
1246
330
1241
100
AcDbEntity
  8
DIM
 62
     0
440
 16777216
370
    -2
100
AcDbLine
 10
22.8002649722824
 20
11.16414054963079
 30
0.0
 11
22.8002649722824
 21
12.46414054963079
 31
0.0
  0
SOLID
  5
1247
330
1241
100
AcDbEntity
  8
DIM
 62
     0
440
 16777216
100
AcDbTrace
 10
22.7702649722824
 20
14.12414054963079
 30
0.0
 11
22.8302649722824
 21
14.12414054963079
 31
0.0
 12
22.8002649722824
 22
14.30414054963079
 32
0.0
 13
22.8002649722824
 23
14.30414054963079
 33
0.0
  0
SOLID
  5
1248
330
1241
100
AcDbEntity
  8
DIM
 62
     0
440
 16777216
100
AcDbTrace
 10
22.7702649722824
 20
11.16414054963079
 30
0.0
 11
22.8302649722824
 21
11.16414054963079
 31
0.0
 12
22.8002649722824
 22
10.98414054963079
 32
0.0
 13
22.8002649722824
 23
10.98414054963079
 33
0.0
  0
MTEXT
  5
1249
330
1241
100
AcDbEntity
  8
DIM
 62
     0
440
 16777216
370
    25
100
AcDbMText
 10
22.8002649722824
 20
12.64414054963079
 30
0.0
 40
0.18
 41
0.0
 46
0.0
 71
     5
 72
     1
  1
\A1;3.32
 73
     1
 44
1.0
  0
POINT
  5
124A
330
1241
100
AcDbEntity
  8
Defpoints
 62
     0
440
 16777216
100
AcDbPoint
 10
21.23100530654848
 20
14.30414054963079
 30
0.0
  0
POINT
  5
124B
330
1241
100
AcDbEntity
  8
Defpoints
 62
     0
440
 16777216
100
AcDbPoint
 10
21.23100530654848
 20
10.98414054963079
 30
0.0
  0
POINT
  5
124C
330
1241
100
AcDbEntity
  8
Defpoints
 62
     0
440
 16777216
100
AcDbPoint
 10
22.8002649722824
 20
10.98414054963079
 30
0.0
  0
ENDBLK
  5
124D
330
1241
100
AcDbEntity
  8
0
100
AcDbBlockEnd
  0
BLOCK
  5
124F
330
124E
100
AcDbEntity
  8
0
100
AcDbBlockBegin
  2
*D9
 70
     1
 10
0.0
 20
0.0
 30
0.0
  3
*D9
  1

  0
LINE
  5
1250
330
124E
100
AcDbEntity
  8
DIM
 62
     0
440
 16777216
370
    -2
100
AcDbLine
 10
21.23100530654848
 20
10.92164054963079
 30
0.0
 11
21.23100530654848
 21
10.13453885806941
 31
0.0
  0
LINE
  5
1251
330
124E
100
AcDbEntity
  8
DIM
 62
     0
440
 16777216
370
    -2
100
AcDbLine
 10
13.75100530654847
 20
11.00033236299481
 30
0.0
 11
13.75100530654847
 21
10.13453885806941
 31
0.0
  0
LINE
  5
1252
330
124E
100
AcDbEntity
  8
DIM
 62
     0
440
 16777216
370
    -2
100
AcDbLine
 10
21.05100530654848
 20
10.31453885806941
 30
0.0
 11
17.85100530654847
 21
10.31453885806941
 31
0.0
  0
LINE
  5
1253
330
124E
100
AcDbEntity
  8
DIM
 62
     0
440
 16777216
370
    -2
100
AcDbLine
 10
13.93100530654847
 20
10.31453885806941
 30
0.0
 11
17.13100530654847
 21
10.31453885806941
 31
0.0
  0
SOLID
  5
1254
330
124E
100
AcDbEntity
  8
DIM
 62
     0
440
 16777216
100
AcDbTrace
 10
21.05100530654848
 20
10.34453885806941
 30
0.0
 11
21.05100530654848
 21
10.28453885806941
 31
0.0
 12
21.23100530654848
 22
10.31453885806941
 32
0.0
 13
21.23100530654848
 23
10.31453885806941
 33
0.0
  0
SOLID
  5
1255
330
124E
100
AcDbEntity
  8
DIM
 62
     0
440
 16777216
100
AcDbTrace
 10
13.93100530654847
 20
10.34453885806941
 30
0.0
 11
13.93100530654847
 21
10.28453885806941
 31
0.0
 12
13.75100530654847
 22
10.31453885806941
 32
0.0
 13
13.75100530654847
 23
10.31453885806941
 33
0.0
  0
MTEXT
  5
1256
330
124E
100
AcDbEntity
  8
DIM
 62
     0
440
 16777216
370
    25
100
AcDbMText
 10
17.49100530654847
 20
10.31453885806941
 30
0.0
 40
0.18
 41
0.0
 46
0.0
 71
     5
 72
     1
  1
\A1;7.48
 73
     1
 44
1.0
  0
POINT
  5
1257
330
124E
100
AcDbEntity
  8
Defpoints
 62
     0
440
 16777216
100
AcDbPoint
 10
21.23100530654848
 20
10.98414054963079
 30
0.0
  0
POINT
  5
1258
330
124E
100
AcDbEntity
  8
Defpoints
 62
     0
440
 16777216
100
AcDbPoint
 10
13.75100530654847
 20
11.06283236299481
 30
0.0
  0
POINT
  5
1259
330
124E
100
AcDbEntity
  8
Defpoints
 62
     0
440
 16777216
100
AcDbPoint
 10
13.75100530654847
 20
10.31453885806941
 30
0.0
  0
ENDBLK
  5
125A
330
124E
100
AcDbEntity
  8
0
100
AcDbBlockEnd
  0
BLOCK
  5
125C
330
125B
100
AcDbEntity
  8
0
100
AcDbBlockBegin
  2
*D10
 70
     1
 10
0.0
 20
0.0
 30
0.0
  3
*D10
  1

  0
LINE
  5
125D
330
125B
100
AcDbEntity
  8
DIM
 62
     0
440
 16777216
370
    -2
100
AcDbLine
 10
13.75100530654847
 20
10.89664054963079
 30
0.0
 11
13.75100530654847
 21
10.13453885806941
 31
0.0
  0
LINE
  5
125E
330
125B
100
AcDbEntity
  8
DIM
 62
     0
440
 16777216
370
    -2
100
AcDbLine
 10
12.75100530654847
 20
11.55194690587066
 30
0.0
 11
12.75100530654847
 21
10.13453885806941
 31
0.0
  0
LINE
  5
125F
330
125B
100
AcDbEntity
  8
DIM
 62
     0
440
 16777216
370
    -2
100
AcDbLine
 10
13.93100530654847
 20
10.31453885806941
 30
0.0
 11
14.11100530654847
 21
10.31453885806941
 31
0.0
  0
LINE
  5
1260
330
125B
100
AcDbEntity
  8
DIM
 62
     0
440
 16777216
370
    -2
100
AcDbLine
 10
12.57100530654847
 20
10.31453885806941
 30
0.0
 11
12.39100530654847
 21
10.31453885806941
 31
0.0
  0
SOLID
  5
1261
330
125B
100
AcDbEntity
  8
DIM
 62
     0
440
 16777216
100
AcDbTrace
 10
13.93100530654847
 20
10.34453885806941
 30
0.0
 11
13.93100530654847
 21
10.28453885806941
 31
0.0
 12
13.75100530654847
 22
10.31453885806941
 32
0.0
 13
13.75100530654847
 23
10.31453885806941
 33
0.0
  0
SOLID
  5
1262
330
125B
100
AcDbEntity
  8
DIM
 62
     0
440
 16777216
100
AcDbTrace
 10
12.57100530654847
 20
10.34453885806941
 30
0.0
 11
12.57100530654847
 21
10.28453885806941
 31
0.0
 12
12.75100530654847
 22
10.31453885806941
 32
0.0
 13
12.75100530654847
 23
10.31453885806941
 33
0.0
  0
MTEXT
  5
1263
330
125B
100
AcDbEntity
  8
DIM
 62
     0
440
 16777216
370
    25
100
AcDbMText
 10
13.25100530654847
 20
10.31453885806941
 30
0.0
 40
0.18
 41
0.0
 46
0.0
 71
     5
 72
     1
  1
\A1;1.00
 73
     1
 44
1.0
  0
POINT
  5
1264
330
125B
100
AcDbEntity
  8
Defpoints
 62
     0
440
 16777216
100
AcDbPoint
 10
13.75100530654847
 20
10.95914054963079
 30
0.0
  0
POINT
  5
1265
330
125B
100
AcDbEntity
  8
Defpoints
 62
     0
440
 16777216
100
AcDbPoint
 10
12.75100530654847
 20
11.61444690587066
 30
0.0
  0
POINT
  5
1266
330
125B
100
AcDbEntity
  8
Defpoints
 62
     0
440
 16777216
100
AcDbPoint
 10
12.75100530654847
 20
10.31453885806941
 30
0.0
  0
ENDBLK
  5
1267
330
125B
100
AcDbEntity
  8
0
100
AcDbBlockEnd
  0
BLOCK
  5
1269
330
1268
100
AcDbEntity
  8
0
100
AcDbBlockBegin
  2
*D11
 70
     1
 10
0.0
 20
0.0
 30
0.0
  3
*D11
  1

  0
LINE
  5
126A
330
1268
100
AcDbEntity
  8
DIM
 62
     0
440
 16777216
370
    -2
100
AcDbLine
 10
21.23100530654848
 20
10.92164054963079
 30
0.0
 11
21.23100530654848
 21
9.639674373643302
 31
0.0
  0
LINE
  5
126B
330
1268
100
AcDbEntity
  8
DIM
 62
     0
440
 16777216
370
    -2
100
AcDbLine
 10
12.75100530654847
 20
11.55194690587066
 30
0.0
 11
12.75100530654847
 21
9.639674373643302
 31
0.0
  0
LINE
  5
126C
330
1268
100
AcDbEntity
  8
DIM
 62
     0
440
 16777216
370
    -2
100
AcDbLine
 10
21.05100530654848
 20
9.819674373643302
 30
0.0
 11
17.35100530654847
 21
9.819674373643302
 31
0.0
  0
LINE
  5
126D
330
1268
100
AcDbEntity
  8
DIM
 62
     0
440
 16777216
370
    -2
100
AcDbLine
 10
12.93100530654847
 20
9.819674373643302
 30
0.0
 11
16.63100530654847
 21
9.819674373643302
 31
0.0
  0
SOLID
  5
126E
330
1268
100
AcDbEntity
  8
DIM
 62
     0
440
 16777216
100
AcDbTrace
 10
21.05100530654848
 20
9.849674373643301
 30
0.0
 11
21.05100530654848
 21
9.789674373643302
 31
0.0
 12
21.23100530654848
 22
9.819674373643302
 32
0.0
 13
21.23100530654848
 23
9.819674373643302
 33
0.0
  0
SOLID
  5
126F
330
1268
100
AcDbEntity
  8
DIM
 62
     0
440
 16777216
100
AcDbTrace
 10
12.93100530654847
 20
9.849674373643301
 30
0.0
 11
12.93100530654847
 21
9.789674373643302
 31
0.0
 12
12.75100530654847
 22
9.819674373643302
 32
0.0
 13
12.75100530654847
 23
9.819674373643302
 33
0.0
  0
MTEXT
  5
1270
330
1268
100
AcDbEntity
  8
DIM
 62
     0
440
 16777216
370
    25
100
AcDbMText
 10
16.99100530654847
 20
9.819674373643302
 30
0.0
 40
0.18
 41
0.0
 46
0.0
 71
     5
 72
     1
  1
\A1;8.48
 73
     1
 44
1.0
  0
POINT
  5
1271
330
1268
100
AcDbEntity
  8
Defpoints
 62
     0
440
 16777216
100
AcDbPoint
 10
21.23100530654848
 20
10.98414054963079
 30
0.0
  0
POINT
  5
1272
330
1268
100
AcDbEntity
  8
Defpoints
 62
     0
440
 16777216
100
AcDbPoint
 10
12.75100530654847
 20
11.61444690587066
 30
0.0
  0
POINT
  5
1273
330
1268
100
AcDbEntity
  8
Defpoints
 62
     0
440
 16777216
100
AcDbPoint
 10
12.75100530654847
 20
9.819674373643302
 30
0.0
  0
ENDBLK
  5
1274
330
1268
100
AcDbEntity
  8
0
100
AcDbBlockEnd
  0
BLOCK
  5
1276
330
1275
100
AcDbEntity
  8
0
100
AcDbBlockBegin
  2
*D12
 70
     1
 10
0.0
 20
0.0
 30
0.0
  3
*D12
  1

  0
LINE
  5
1277
330
1275
100
AcDbEntity
  8
DIM
 62
     0
440
 16777216
370
    -2
100
AcDbLine
 10
21.23100530654848
 20
10.92164054963079
 30
0.0
 11
21.23100530654848
 21
10.12120040617398
 31
0.0
  0
LINE
  5
1278
330
1275
100
AcDbEntity
  8
DIM
 62
     0
440
 16777216
370
    -2
100
AcDbLine
 10
21.86100530654847
 20
12.47064054963079
 30
0.0
 11
21.86100530654847
 21
10.12120040617398
 31
0.0
  0
LINE
  5
1279
330
1275
100
AcDbEntity
  8
DIM
 62
     0
440
 16777216
370
    -2
100
AcDbLine
 10
21.41100530654847
 20
10.30120040617398
 30
0.0
 11
21.68100530654847
 21
10.30120040617398
 31
0.0
  0
LINE
  5
127A
330
1275
100
AcDbEntity
  8
DIM
 62
     0
440
 16777216
370
    -2
100
AcDbLine
 10
21.86100530654847
 20
10.30120040617398
 30
0.0
 11
22.04100530654848
 21
10.30120040617398
 31
0.0
  0
SOLID
  5
127B
330
1275
100
AcDbEntity
  8
DIM
 62
     0
440
 16777216
100
AcDbTrace
 10
21.41100530654847
 20
10.33120040617398
 30
0.0
 11
21.41100530654847
 21
10.27120040617399
 31
0.0
 12
21.23100530654848
 22
10.30120040617398
 32
0.0
 13
21.23100530654848
 23
10.30120040617398
 33
0.0
  0
SOLID
  5
127C
330
1275
100
AcDbEntity
  8
DIM
 62
     0
440
 16777216
100
AcDbTrace
 10
21.68100530654847
 20
10.33120040617398
 30
0.0
 11
21.68100530654847
 21
10.27120040617399
 31
0.0
 12
21.86100530654847
 22
10.30120040617398
 32
0.0
 13
21.86100530654847
 23
10.30120040617398
 33
0.0
  0
MTEXT
  5
127D
330
1275
100
AcDbEntity
  8
DIM
 62
     0
440
 16777216
370
    25
100
AcDbMText
 10
22.31100530654847
 20
10.30120040617398
 30
0.0
 40
0.18
 41
0.0
 46
0.0
 71
     5
 72
     1
  1
\A1;.63
 73
     1
 44
1.0
  0
POINT
  5
127E
330
1275
100
AcDbEntity
  8
Defpoints
 62
     0
440
 16777216
100
AcDbPoint
 10
21.23100530654848
 20
10.98414054963079
 30
0.0
  0
POINT
  5
127F
330
1275
100
AcDbEntity
  8
Defpoints
 62
     0
440
 16777216
100
AcDbPoint
 10
21.86100530654847
 20
12.53314054963079
 30
0.0
  0
POINT
  5
1280
330
1275
100
AcDbEntity
  8
Defpoints
 62
     0
440
 16777216
100
AcDbPoint
 10
21.86100530654847
 20
10.30120040617398
 30
0.0
  0
ENDBLK
  5
1281
330
1275
100
AcDbEntity
  8
0
100
AcDbBlockEnd
  0
BLOCK
  5
1304
330
1282
100
AcDbEntity
  8
0
100
AcDbBlockBegin
  2
A$C19D4211B
 70
     0
 10
0.0
 20
0.0
 30
0.0
  3
A$C19D4211B
  1

  0
TEXT
  5
1283
330
1282
100
AcDbEntity
  8
NOTES
 62
     7
370
    25
100
AcDbText
 10
0.8560221445979436
 20
5.479143549173535
 30
0.0
 40
0.2
  1
FLAT PACK RESISTOR ASSY
100
AcDbText
  0
LEADER
  5
1284
330
1282
100
AcDbEntity
  8
NOTES
 62
     7
370
    25
100
AcDbLeader
  3
Standard
 76
     3
 10
0.8134269805229639
 20
3.996780305387321
 30
0.0
 10
0.0000000246031995
 20
5.558981898094231
 30
0.0
 10
0.7242846618830399
 20
5.558981898094231
 30
0.0
  0
LINE
  5
1285
330
1282
100
AcDbEntity
  8
Visible (ANSI)
100
AcDbLine
 10
9.437831713252585
 20
1.344466169447844
 30
0.0
 11
9.437831713252585
 21
4.664466169447845
 31
0.0
  0
CIRCLE
  5
1286
330
1282
100
AcDbEntity
  8
Visible (ANSI)
100
AcDbCircle
 10
13.95998926497948
 20
3.004466169447844
 30
0.0
 40
1.734999999999999
  0
INSERT
  5
1287
330
1282
100
AcDbEntity
  8
0
 62
     7
370
    25
100
AcDbBlockReference
  2
A$C087148CE
 10
13.95998926497948
 20
3.004466169447844
 30
0.0
  0
CIRCLE
  5
1288
330
1282
100
AcDbEntity
  8
BORDER
 62
     7
370
    25
100
AcDbCircle
 10
13.95998926497948
 20
3.004466169447844
 30
0.0
 40
0.1933181975482725
  0
CIRCLE
  5
1289
330
1282
100
AcDbEntity
  8
BORDER
 62
     7
370
    25
100
AcDbCircle
 10
13.95998926497948
 20
3.004466169447844
 30
0.0
 40
0.215
  0
LINE
  5
128A
330
1282
100
AcDbEntity
  8
0
 62
     7
370
    25
100
AcDbLine
 10
13.89224965751415
 20
2.886515529725187
 30
0.0
 11
14.03751718824736
 21
2.886515529725187
 31
0.0
  0
LINE
  5
128B
330
1282
100
AcDbEntity
  8
0
 62
     7
370
    25
100
AcDbLine
 10
13.87434922122607
 20
2.922332633885982
 30
0.0
 11
14.05541762453544
 21
2.922332633885982
 31
0.0
  0
LINE
  5
128C
330
1282
100
AcDbEntity
  8
0
 62
     7
370
    25
100
AcDbLine
 10
13.85644878493799
 20
2.958149738046778
 30
0.0
 11
14.07331806082352
 21
2.958149738046778
 31
0.0
  0
LINE
  5
128D
330
1282
100
AcDbEntity
  8
0
 62
     7
370
    25
100
AcDbLine
 10
13.83854834864991
 20
2.993966842207573
 30
0.0
 11
14.0912184971116
 21
2.993966842207573
 31
0.0
  0
LINE
  5
128E
330
1282
100
AcDbEntity
  8
0
 62
     7
370
    25
100
AcDbLine
 10
13.96488342288076
 20
2.993966842207573
 30
0.0
 11
13.96488342288076
 21
3.138797231694656
 31
0.0
  0
LEADER
  5
128F
330
1282
100
AcDbEntity
  8
NOTES
 62
     7
370
    25
100
AcDbLeader
  3
Standard
 76
     3
 10
9.943547834572168
 20
3.228071660269165
 30
0.0
 10
10.5816867745704
 20
5.630901625554976
 30
0.0
 10
11.04318296112495
 20
5.630901625554976
 30
0.0
  0
TEXT
  5
1290
330
1282
100
AcDbEntity
  8
NOTES
 62
     7
370
    25
100
AcDbText
 10
11.13169408099567
 20
5.521598762620172
 30
0.0
 40
0.2
  1
M12 THD.
100
AcDbText
  0
DIMENSION
  5
1291
330
1282
100
AcDbEntity
  8
DIM
 62
     7
370
    25
100
AcDbDimension
280
     0
  2
*D8
 10
11.00709137898651
 20
1.344466169447844
 30
0.0
 11
11.0070913789865
 21
3.004466169447848
 31
0.0
 12
-11.79317359329589
 22
-9.639674380182945
 32
0.0
 71
     5
 42
3.32
 73
     0
 74
     0
 75
     0
  3
Standard
100
AcDbAlignedDimension
 13
9.437831713252585
 23
4.664466169447845
 33
0.0
 14
9.437831713252585
 24
1.344466169447844
 34
0.0
 50
90.0
100
AcDbRotatedDimension
1001
ACAD_DSTYLE_DIMINSPECT
1070
   396
1000
100%
1070
   395
1000

1070
   394
1070
    33
1070
   393
1070
     0
  0
TEXT
  5
1292
330
1282
100
AcDbEntity
  8
NOTES
 62
     7
370
    25
100
AcDbText
 10
10.90516806319805
 20
5.090220013500832
 30
0.0
 40
0.1554361123782673
  1
TIGHTENING TORQUE 88.51 IN-LBS.
100
AcDbText
  0
LINE
  5
1293
330
1282
100
AcDbEntity
  8
Visible (ANSI)
100
AcDbLine
 10
10.06783171325258
 20
3.115466169447845
 30
0.0
 11
10.06783171325258
 21
2.893466169447847
 31
0.0
  0
ARC
  5
1294
330
1282
100
AcDbEntity
  8
Visible (ANSI)
100
AcDbCircle
 10
9.942831713252587
 20
2.893466169447847
 30
0.0
 40
0.125
100
AcDbArc
 50
270.0
 51
0.0
  0
ARC
  5
1295
330
1282
100
AcDbEntity
  8
Visible (ANSI)
100
AcDbCircle
 10
9.942831713252587
 20
3.115466169447845
 30
0.0
 40
0.125
100
AcDbArc
 50
0.0
 51
90.0
  0
LINE
  5
1296
330
1282
100
AcDbEntity
  8
Visible (ANSI)
100
AcDbLine
 10
9.437831713252585
 20
1.344466169447844
 30
0.0
 11
9.437831713252585
 21
4.664466169447845
 31
0.0
  0
LINE
  5
1297
330
1282
100
AcDbEntity
  8
Visible (ANSI)
100
AcDbLine
 10
2.057831713252582
 20
4.664466169447841
 30
0.0
 11
9.437831713252585
 21
4.664466169447845
 31
0.0
  0
LINE
  5
1298
102
{ACAD_REACTORS
330
12FA
330
1300
102
}
330
1282
100
AcDbEntity
  8
Visible (ANSI)
100
AcDbLine
 10
2.057831713252582
 20
1.344466169447841
 30
0.0
 11
9.437831713252585
 21
1.344466169447844
 31
0.0
  0
LINE
  5
1299
330
1282
100
AcDbEntity
  8
Visible (ANSI)
100
AcDbLine
 10
1.617831713252584
 20
3.222657823433802
 30
0.0
 11
1.617831713252584
 21
3.12936612941581
 31
0.0
  0
LINE
  5
129A
330
1282
100
AcDbEntity
  8
Visible (ANSI)
100
AcDbLine
 10
1.617831713252584
 20
3.12936612941581
 30
0.0
 11
1.617831713252584
 21
3.062657823433802
 31
0.0
  0
LINE
  5
129B
330
1282
100
AcDbEntity
  8
Visible (ANSI)
100
AcDbLine
 10
1.617831713252584
 20
3.062657823433802
 30
0.0
 11
1.657831713252583
 21
3.062657823433802
 31
0.0
  0
LINE
  5
129C
330
1282
100
AcDbEntity
  8
Visible (ANSI)
100
AcDbLine
 10
1.657831713252583
 20
3.126786232661224
 30
0.0
 11
1.617831713252584
 21
3.126786232661224
 31
0.0
  0
LINE
  5
129D
330
1282
100
AcDbEntity
  8
Visible (ANSI)
100
AcDbLine
 10
1.657831713252583
 20
3.12936612941581
 30
0.0
 11
1.617831713252584
 21
3.12936612941581
 31
0.0
  0
LINE
  5
129E
330
1282
100
AcDbEntity
  8
Visible (ANSI)
100
AcDbLine
 10
1.617831713252584
 20
3.131816420465383
 30
0.0
 11
1.657831713252583
 21
3.131816420465383
 31
0.0
  0
LINE
  5
129F
330
1282
100
AcDbEntity
  8
Visible (ANSI)
100
AcDbLine
 10
0.8178317132525823
 20
3.262657823433805
 30
0.0
 11
0.8178317132525823
 21
3.352833737213352
 31
0.0
  0
LINE
  5
12A0
330
1282
100
AcDbEntity
  8
Visible (ANSI)
100
AcDbLine
 10
0.7778317132525832
 20
3.352833737213352
 30
0.0
 11
0.7778317132525832
 21
3.222657823433802
 31
0.0
  0
LINE
  5
12A1
330
1282
100
AcDbEntity
  8
Visible (ANSI)
100
AcDbLine
 10
0.7778317132525832
 20
3.352833737213352
 30
0.0
 11
0.7778317132525832
 21
3.452833737213353
 31
0.0
  0
LINE
  5
12A2
330
1282
100
AcDbEntity
  8
Visible (ANSI)
100
AcDbLine
 10
0.8178317132525823
 20
3.452833737213353
 30
0.0
 11
0.7778317132525832
 21
3.452833737213353
 31
0.0
  0
LINE
  5
12A3
330
1282
100
AcDbEntity
  8
Visible (ANSI)
100
AcDbLine
 10
1.657831713252583
 20
3.163211248111718
 30
0.0
 11
1.732831713252583
 21
3.163211248111718
 31
0.0
  0
LINE
  5
12A4
330
1282
100
AcDbEntity
  8
Visible (ANSI)
100
AcDbLine
 10
1.732831713252583
 20
3.02446616944784
 30
0.0
 11
1.732831713252583
 21
3.163211248111718
 31
0.0
  0
LINE
  5
12A5
330
1282
100
AcDbEntity
  8
Visible (ANSI)
100
AcDbLine
 10
1.617831713252584
 20
3.163211248111718
 30
0.0
 11
1.607831713252585
 21
3.163211248111718
 31
0.0
  0
LINE
  5
12A6
330
1282
100
AcDbEntity
  8
Visible (ANSI)
100
AcDbLine
 10
1.732831713252583
 20
3.164466169447841
 30
0.0
 11
1.732831713252583
 21
3.163211248111718
 31
0.0
  0
LINE
  5
12A7
330
1282
100
AcDbEntity
  8
Visible (ANSI)
100
AcDbLine
 10
1.732831713252583
 20
2.845721090783968
 30
0.0
 11
1.732831713252583
 21
2.984466169447841
 31
0.0
  0
LINE
  5
12A8
330
1282
100
AcDbEntity
  8
Visible (ANSI)
100
AcDbLine
 10
1.607831713252585
 20
2.845721090783968
 30
0.0
 11
1.732831713252583
 21
2.845721090783968
 31
0.0
  0
LINE
  5
12A9
330
1282
100
AcDbEntity
  8
Visible (ANSI)
100
AcDbLine
 10
1.732831713252583
 20
2.984466169447841
 30
0.0
 11
1.607831713252585
 21
2.984466169447841
 31
0.0
  0
LINE
  5
12AA
330
1282
100
AcDbEntity
  8
Visible (ANSI)
100
AcDbLine
 10
1.607831713252585
 20
3.02446616944784
 30
0.0
 11
1.732831713252583
 21
3.02446616944784
 31
0.0
  0
LINE
  5
12AB
330
1282
100
AcDbEntity
  8
Visible (ANSI)
100
AcDbLine
 10
1.732831713252583
 20
2.844466169447844
 30
0.0
 11
1.732831713252583
 21
2.845721090783968
 31
0.0
  0
LINE
  5
12AC
330
1282
100
AcDbEntity
  8
Visible (ANSI)
100
AcDbLine
 10
1.732831713252583
 20
2.984466169447841
 30
0.0
 11
1.732831713252583
 21
3.02446616944784
 31
0.0
  0
LINE
  5
12AD
330
1282
100
AcDbEntity
  8
Visible (ANSI)
100
AcDbLine
 10
1.657831713252583
 20
3.164466169447841
 30
0.0
 11
1.732831713252583
 21
3.164466169447841
 31
0.0
  0
LINE
  5
12AE
330
1282
100
AcDbEntity
  8
Visible (ANSI)
100
AcDbLine
 10
1.657831713252583
 20
3.262657823433805
 30
0.0
 11
1.047666737051825
 21
3.262657823433805
 31
0.0
  0
LINE
  5
12AF
330
1282
100
AcDbEntity
  8
Visible (ANSI)
100
AcDbLine
 10
1.044831713252582
 20
3.222657823433802
 30
0.0
 11
1.617831713252584
 21
3.222657823433802
 31
0.0
  0
LINE
  5
12B0
330
1282
100
AcDbEntity
  8
Visible (ANSI)
100
AcDbLine
 10
1.047666737051825
 20
3.262657823433805
 30
0.0
 11
0.8178317132525823
 21
3.262657823433805
 31
0.0
  0
LINE
  5
12B1
330
1282
100
AcDbEntity
  8
Visible (ANSI)
100
AcDbLine
 10
0.7778317132525832
 20
3.222657823433802
 30
0.0
 11
1.044831713252582
 21
3.222657823433802
 31
0.0
  0
LINE
  5
12B2
330
1282
100
AcDbEntity
  8
Visible (ANSI)
100
AcDbLine
 10
1.607831713252585
 20
3.02446616944784
 30
0.0
 11
1.607831713252585
 21
3.163211248111718
 31
0.0
  0
LINE
  5
12B3
330
1282
100
AcDbEntity
  8
Visible (ANSI)
100
AcDbLine
 10
1.607831713252585
 20
2.845721090783968
 30
0.0
 11
1.607831713252585
 21
2.984466169447841
 31
0.0
  0
LINE
  5
12B4
330
1282
100
AcDbEntity
  8
Visible (ANSI)
100
AcDbLine
 10
1.857831713252583
 20
2.844466169447841
 30
0.0
 11
1.732831713252583
 21
2.844466169447841
 31
0.0
  0
LINE
  5
12B5
330
1282
100
AcDbEntity
  8
Visible (ANSI)
100
AcDbLine
 10
1.857831713252583
 20
3.164466169447841
 30
0.0
 11
1.732831713252583
 21
3.164466169447841
 31
0.0
  0
LINE
  5
12B6
330
1282
100
AcDbEntity
  8
Visible (ANSI)
100
AcDbLine
 10
1.657831713252583
 20
3.14739230590068
 30
0.0
 11
1.857831713252583
 21
3.14739230590068
 31
0.0
  0
LINE
  5
12B7
330
1282
100
AcDbEntity
  8
Visible (ANSI)
100
AcDbLine
 10
1.657831713252583
 20
1.974772525687718
 30
0.0
 11
1.857831713252583
 21
1.974772525687718
 31
0.0
  0
LINE
  5
12B8
330
1282
100
AcDbEntity
  8
Visible (ANSI)
100
AcDbLine
 10
1.857831713252583
 20
1.974772525687718
 30
0.0
 11
1.857831713252583
 21
2.223802690586211
 31
0.0
  0
LINE
  5
12B9
330
1282
100
AcDbEntity
  8
Visible (ANSI)
100
AcDbLine
 10
1.657831713252583
 20
2.249281024801785
 30
0.0
 11
1.857831713252583
 21
2.249281024801785
 31
0.0
  0
LINE
  5
12BA
330
1282
100
AcDbEntity
  8
Visible (ANSI)
100
AcDbLine
 10
1.857831713252583
 20
3.14739230590068
 30
0.0
 11
1.857831713252583
 21
3.172870640116251
 31
0.0
  0
LINE
  5
12BB
330
1282
100
AcDbEntity
  8
Visible (ANSI)
100
AcDbLine
 10
1.657831713252583
 20
3.172870640116251
 30
0.0
 11
1.857831713252583
 21
3.172870640116251
 31
0.0
  0
LINE
  5
12BC
330
1282
100
AcDbEntity
  8
Visible (ANSI)
100
AcDbLine
 10
1.657831713252583
 20
2.223802690586211
 30
0.0
 11
1.857831713252583
 21
2.223802690586211
 31
0.0
  0
LINE
  5
12BD
330
1282
100
AcDbEntity
  8
Visible (ANSI)
100
AcDbLine
 10
1.857831713252583
 20
2.223802690586211
 30
0.0
 11
1.857831713252583
 21
3.14739230590068
 31
0.0
  0
LINE
  5
12BE
330
1282
100
AcDbEntity
  8
Visible (ANSI)
100
AcDbLine
 10
1.657831713252583
 20
1.724466169447843
 30
0.0
 11
1.657831713252583
 21
2.349943442569699
 31
0.0
  0
LINE
  5
12BF
330
1282
100
AcDbEntity
  8
Visible (ANSI)
100
AcDbLine
 10
1.657831713252583
 20
3.658988896325986
 30
0.0
 11
1.657831713252583
 21
4.258780521299694
 31
0.0
  0
LINE
  5
12C0
330
1282
100
AcDbEntity
  8
Visible (ANSI)
100
AcDbLine
 10
1.867831713252584
 20
1.724466169447843
 30
0.0
 11
1.867831713252584
 21
4.258780521299694
 31
0.0
  0
LINE
  5
12C1
330
1282
100
AcDbEntity
  8
Visible (ANSI)
100
AcDbLine
 10
1.867831713252584
 20
1.724466169447843
 30
0.0
 11
1.657831713252583
 21
1.724466169447843
 31
0.0
  0
LINE
  5
12C2
330
1282
100
AcDbEntity
  8
Visible (ANSI)
100
AcDbLine
 10
1.657831713252583
 20
2.349943442569699
 30
0.0
 11
1.657831713252583
 21
3.658988896325986
 31
0.0
  0
LINE
  5
12C3
330
1282
100
AcDbEntity
  8
Visible (ANSI)
100
AcDbLine
 10
1.657831713252583
 20
3.658988896325986
 30
0.0
 11
1.184831713252583
 21
3.658988896325986
 31
0.0
  0
LINE
  5
12C4
330
1282
100
AcDbEntity
  8
Visible (ANSI)
100
AcDbLine
 10
1.044831713252582
 20
2.754466169447844
 30
0.0
 11
1.044831713252582
 21
3.254466169447844
 31
0.0
  0
LINE
  5
12C5
330
1282
100
AcDbEntity
  8
Visible (ANSI)
100
AcDbLine
 10
1.657831713252583
 20
2.349943442569699
 30
0.0
 11
1.182389473851818
 21
2.349943442569699
 31
0.0
  0
LINE
  5
12C6
330
1282
100
AcDbEntity
  8
Visible (ANSI)
100
AcDbLine
 10
0.9578317132525828
 20
4.034159813207967
 30
0.0
 11
0.9578317132525828
 21
3.262657823433805
 31
0.0
  0
LINE
  5
12C7
102
{ACAD_REACTORS
330
12FD
330
1300
102
}
330
1282
100
AcDbEntity
  8
Visible (ANSI)
100
AcDbLine
 10
0.9578317132525828
 20
3.222657823433802
 30
0.0
 11
0.9578317132525828
 21
1.974772525687718
 31
0.0
  0
LINE
  5
12C8
330
1282
100
AcDbEntity
  8
Visible (ANSI)
100
AcDbLine
 10
1.657831713252583
 20
1.974772525687718
 30
0.0
 11
0.9578317132525828
 21
1.974772525687718
 31
0.0
  0
LINE
  5
12C9
330
1282
100
AcDbEntity
  8
Visible (ANSI)
100
AcDbLine
 10
1.657831713252583
 20
4.034159813207967
 30
0.0
 11
0.9578317132525828
 21
4.034159813207967
 31
0.0
  0
LINE
  5
12CA
330
1282
100
AcDbEntity
  8
Visible (ANSI)
100
AcDbLine
 10
0.9578317132525828
 20
3.262657823433805
 30
0.0
 11
0.9578317132525828
 21
3.222657823433802
 31
0.0
  0
LINE
  5
12CB
330
1282
100
AcDbEntity
  8
Visible (ANSI)
100
AcDbLine
 10
2.005831713252582
 20
4.139440243521917
 30
0.0
 11
1.957831713252584
 21
4.139440243521917
 31
0.0
  0
LINE
  5
12CC
330
1282
100
AcDbEntity
  8
Visible (ANSI)
100
AcDbLine
 10
2.005831713252582
 20
4.139440243521917
 30
0.0
 11
2.005831713252582
 21
3.775466169447845
 31
0.0
  0
LINE
  5
12CD
330
1282
100
AcDbEntity
  8
Visible (ANSI)
100
AcDbLine
 10
2.005831713252582
 20
4.139440243521917
 30
0.0
 11
2.005831713252582
 21
4.179466169447842
 31
0.0
  0
LINE
  5
12CE
330
1282
100
AcDbEntity
  8
Visible (ANSI)
100
AcDbLine
 10
1.657831713252583
 20
3.775466169447842
 30
0.0
 11
2.005831713252582
 21
3.775466169447842
 31
0.0
  0
LINE
  5
12CF
330
1282
100
AcDbEntity
  8
Visible (ANSI)
100
AcDbLine
 10
1.957831713252584
 20
4.139440243521917
 30
0.0
 11
1.867831713252584
 21
4.139440243521917
 31
0.0
  0
LINE
  5
12D0
330
1282
100
AcDbEntity
  8
Visible (ANSI)
100
AcDbLine
 10
1.867831713252584
 20
4.258780521299694
 30
0.0
 11
1.657831713252583
 21
4.258780521299694
 31
0.0
  0
LINE
  5
12D1
330
1282
100
AcDbEntity
  8
Visible (ANSI)
100
AcDbLine
 10
1.044831713252582
 20
3.254466169447844
 30
0.0
 11
1.184831713252583
 21
3.658988896325986
 31
0.0
  0
LINE
  5
12D2
330
1282
100
AcDbEntity
  8
Visible (ANSI)
100
AcDbLine
 10
1.182389473851818
 20
2.349943442569699
 30
0.0
 11
1.044831713252582
 21
2.754466169447844
 31
0.0
  0
LINE
  5
12D3
330
1282
100
AcDbEntity
  8
Visible (ANSI)
100
AcDbLine
 10
2.007831713252583
 20
4.585774356083817
 30
0.0
 11
2.007831713252583
 21
1.423157982811869
 31
0.0
  0
LINE
  5
12D4
330
1282
100
AcDbEntity
  8
Visible (ANSI)
100
AcDbLine
 10
1.957831713252584
 20
4.585774356083817
 30
0.0
 11
2.007831713252583
 21
4.585774356083817
 31
0.0
  0
LINE
  5
12D5
102
{ACAD_REACTORS
330
12FA
102
}
330
1282
100
AcDbEntity
  8
Visible (ANSI)
100
AcDbLine
 10
1.957831713252584
 20
1.423157982811869
 30
0.0
 11
2.007831713252583
 21
1.423157982811869
 31
0.0
  0
LINE
  5
12D6
102
{ACAD_REACTORS
330
12FD
102
}
330
1282
100
AcDbEntity
  8
Visible (ANSI)
100
AcDbLine
 10
1.957831713252584
 20
1.319466169447842
 30
0.0
 11
1.957831713252584
 21
4.689466169447843
 31
0.0
  0
LINE
  5
12D7
330
1282
100
AcDbEntity
  8
Visible (ANSI)
100
AcDbLine
 10
2.057831713252582
 20
4.689466169447843
 30
0.0
 11
2.057831713252582
 21
1.319466169447842
 31
0.0
  0
ARC
  5
12D8
330
1282
100
AcDbEntity
  8
Visible (ANSI)
100
AcDbCircle
 10
2.007831713252583
 20
4.689466169447843
 30
0.0
 40
0.05
100
AcDbArc
 50
0.0
 51
180.0
  0
ARC
  5
12D9
330
1282
100
AcDbEntity
  8
Visible (ANSI)
100
AcDbCircle
 10
2.007831713252583
 20
1.319466169447842
 30
0.0
 40
0.05
100
AcDbArc
 50
180.0
 51
0.0
  0
LINE
  5
12DA
330
1282
100
AcDbEntity
  8
Visible (ANSI)
100
AcDbLine
 10
0.8178317132525823
 20
4.174833737213351
 30
0.0
 11
0.8178317132525823
 21
3.924833737213351
 31
0.0
  0
LINE
  5
12DB
330
1282
100
AcDbEntity
  8
Visible (ANSI)
100
AcDbLine
 10
0.8178317132525823
 20
3.924833737213351
 30
0.0
 11
0.857831713252585
 21
3.924833737213351
 31
0.0
  0
LINE
  5
12DC
330
1282
100
AcDbEntity
  8
Visible (ANSI)
100
AcDbLine
 10
0.857831713252585
 20
3.924833737213351
 30
0.0
 11
0.857831713252585
 21
4.174833737213351
 31
0.0
  0
LINE
  5
12DD
330
1282
100
AcDbEntity
  8
Visible (ANSI)
100
AcDbLine
 10
0.857831713252585
 20
4.174833737213351
 30
0.0
 11
0.8178317132525823
 21
4.174833737213351
 31
0.0
  0
LINE
  5
12DE
330
1282
100
AcDbEntity
  8
Visible (ANSI)
100
AcDbLine
 10
0.8178317132525823
 20
3.924833737213351
 30
0.0
 11
0.8178317132525823
 21
3.352833737213352
 31
0.0
  0
LINE
  5
12DF
330
1282
100
AcDbEntity
  8
Visible (ANSI)
100
AcDbLine
 10
0.857831713252585
 20
3.352833737213352
 30
0.0
 11
0.8178317132525823
 21
3.352833737213352
 31
0.0
  0
LINE
  5
12E0
330
1282
100
AcDbEntity
  8
Visible (ANSI)
100
AcDbLine
 10
0.857831713252585
 20
3.352833737213352
 30
0.0
 11
0.857831713252585
 21
3.924833737213351
 31
0.0
  0
LINE
  5
12E1
330
1282
100
AcDbEntity
  8
Visible (ANSI)
100
AcDbLine
 10
9.437831713252585
 20
3.240466169447845
 30
0.0
 11
9.942831713252587
 21
3.240466169447845
 31
0.0
  0
LINE
  5
12E2
330
1282
100
AcDbEntity
  8
Visible (ANSI)
100
AcDbLine
 10
9.437831713252585
 20
2.768466169447844
 30
0.0
 11
9.942831713252587
 21
2.768466169447844
 31
0.0
  0
LINE
  5
12E3
330
1282
100
AcDbEntity
  8
Visible (ANSI)
100
AcDbLine
 10
2.007831713252583
 20
1.829466169447844
 30
0.0
 11
1.957831713252584
 21
1.829466169447844
 31
0.0
  0
LINE
  5
12E4
330
1282
100
AcDbEntity
  8
Visible (ANSI)
100
AcDbLine
 10
2.007831713252583
 20
4.179466169447842
 30
0.0
 11
2.005831713252582
 21
4.179466169447842
 31
0.0
  0
LINE
  5
12E5
330
1282
100
AcDbEntity
  8
Visible (ANSI)
100
AcDbLine
 10
1.957831713252584
 20
1.829466169447844
 30
0.0
 11
1.867831713252584
 21
1.829466169447844
 31
0.0
  0
LINE
  5
12E6
330
1282
100
AcDbEntity
  8
Visible (ANSI)
100
AcDbLine
 10
9.942831713252587
 20
3.194666169447845
 30
0.0
 11
9.437831713252585
 21
3.194666169447845
 31
0.0
  0
LINE
  5
12E7
330
1282
100
AcDbEntity
  8
Visible (ANSI)
100
AcDbLine
 10
9.437831713252585
 20
2.814266169447844
 30
0.0
 11
9.942831713252587
 21
2.814266169447844
 31
0.0
  0
LINE
  5
12E8
330
1282
100
AcDbEntity
  8
Visible (ANSI)
100
AcDbLine
 10
9.942831713252587
 20
2.768466169447844
 30
0.0
 11
9.942831713252587
 21
3.240466169447845
 31
0.0
  0
LINE
  5
12E9
330
1282
100
AcDbEntity
  8
Visible (ANSI)
100
AcDbLine
 10
10.06783171325258
 20
3.115466169447845
 30
0.0
 11
10.06783171325258
 21
2.893466169447847
 31
0.0
  0
ARC
  5
12EA
330
1282
100
AcDbEntity
  8
Visible (ANSI)
100
AcDbCircle
 10
9.942831713252584
 20
2.893466169447847
 30
0.0
 40
0.125
100
AcDbArc
 50
270.0
 51
0.0
  0
ARC
  5
12EB
330
1282
100
AcDbEntity
  8
Visible (ANSI)
100
AcDbCircle
 10
9.942831713252584
 20
3.115466169447845
 30
0.0
 40
0.125
100
AcDbArc
 50
0.0
 51
90.0
  0
LINE
  5
12EC
330
1282
100
AcDbEntity
  8
Visible (ANSI)
100
AcDbLine
 10
9.437831713252585
 20
3.240466169447845
 30
0.0
 11
9.942831713252587
 21
3.240466169447845
 31
0.0
  0
LINE
  5
12ED
330
1282
100
AcDbEntity
  8
Visible (ANSI)
100
AcDbLine
 10
9.437831713252585
 20
2.768466169447844
 30
0.0
 11
9.942831713252587
 21
2.768466169447844
 31
0.0
  0
LINE
  5
12EE
330
1282
100
AcDbEntity
  8
Hidden Narrow (ANSI)
 48
1.221577167510986
100
AcDbLine
 10
9.942831713252587
 20
3.194666169447845
 30
0.0
 11
9.437831713252585
 21
3.194666169447845
 31
0.0
  0
LINE
  5
12EF
330
1282
100
AcDbEntity
  8
Hidden Narrow (ANSI)
 48
1.221577167510986
100
AcDbLine
 10
9.437831713252585
 20
2.814266169447844
 30
0.0
 11
9.942831713252587
 21
2.814266169447844
 31
0.0
  0
LINE
  5
12F0
330
1282
100
AcDbEntity
  8
Visible (ANSI)
100
AcDbLine
 10
9.942831713252584
 20
2.768466169447844
 30
0.0
 11
9.942831713252584
 21
3.240466169447845
 31
0.0
  0
INSERT
  5
12F1
330
1282
100
AcDbEntity
  8
0
 62
     7
370
    25
100
AcDbBlockReference
  2
A$C5FFD3D1B
 10
9.582135203630265
 20
3.004466169447844
 30
0.0
  0
LINE
  5
12F2
330
1282
100
AcDbEntity
  8
BORDER
 62
     7
370
    25
100
AcDbLine
 10
9.59990532392053
 20
3.176537947725556
 30
0.0
 11
9.599905323920527
 21
2.832394391170133
 31
0.0
  0
LINE
  5
12F3
330
1282
100
AcDbEntity
  8
BORDER
 62
     7
370
    25
100
AcDbLine
 10
9.564403638408652
 20
3.218466169447843
 30
0.0
 11
9.564403638408652
 21
2.790466169447846
 31
0.0
  0
LINE
  5
12F4
330
1282
100
AcDbEntity
  8
BORDER
 62
     7
370
    25
100
AcDbLine
 10
9.519219708951744
 20
3.176537947725556
 30
0.0
 11
9.519219708951741
 21
2.832394391170133
 31
0.0
  0
LINE
  5
12F5
330
1282
100
AcDbEntity
  8
BORDER
 62
     7
370
    25
100
AcDbLine
 10
9.483718023439866
 20
3.218466169447843
 30
0.0
 11
9.483718023439866
 21
2.790466169447846
 31
0.0
  0
LINE
  5
12F6
330
1282
100
AcDbEntity
  8
BORDER
 62
     7
370
    25
100
AcDbLine
 10
9.80646048331501
 20
3.218466169447843
 30
0.0
 11
9.80646048331501
 21
2.790466169447846
 31
0.0
  0
LINE
  5
12F7
330
1282
100
AcDbEntity
  8
BORDER
 62
     7
370
    25
100
AcDbLine
 10
9.841962168826889
 20
3.176537947725556
 30
0.0
 11
9.841962168826885
 21
2.832394391170133
 31
0.0
  0
DIMENSION
  5
12F8
102
{ACAD_XDICTIONARY
360
12F9
102
}
102
{ACAD_REACTORS
330
12FA
102
}
330
1282
100
AcDbEntity
  8
DIM
 62
     7
370
    25
100
AcDbDimension
280
     0
  2
*D9
 10
1.957831713252584
 20
0.6748644778864659
 30
0.0
 11
5.697831713252583
 21
0.6748644778864659
 31
0.0
 12
-11.79317359329589
 22
-9.639674380182945
 32
0.0
 71
     5
 42
7.48
 73
     0
 74
     0
 75
     0
  3
Standard
100
AcDbAlignedDimension
 13
9.437831713252585
 23
1.344466169447844
 33
0.0
 14
1.957831713252584
 24
1.423157982811869
 34
0.0
100
AcDbRotatedDimension
1001
ACAD_DSTYLE_DIMINSPECT
1070
   396
1000
100%
1070
   395
1000

1070
   394
1070
    33
1070
   393
1070
     0
  0
DIMENSION
  5
12FB
102
{ACAD_XDICTIONARY
360
12FC
102
}
102
{ACAD_REACTORS
330
12FD
102
}
330
1282
100
AcDbEntity
  8
DIM
 62
     7
370
    25
100
AcDbDimension
280
     0
  2
*D10
 10
0.9578317132525828
 20
0.6748644778864659
 30
0.0
 11
1.457831713252584
 21
0.6748644778864659
 31
0.0
 12
-11.79317359329589
 22
-9.639674380182945
 32
0.0
 71
     5
 42
1.000000000000001
 73
     0
 74
     0
 75
     0
  3
Standard
100
AcDbAlignedDimension
 13
1.957831713252584
 23
1.319466169447842
 33
0.0
 14
0.9578317132525828
 24
1.974772525687718
 34
0.0
100
AcDbRotatedDimension
1001
ACAD_DSTYLE_DIMINSPECT
1070
   396
1000
100%
1070
   395
1000

1070
   394
1070
    33
1070
   393
1070
     0
  0
DIMENSION
  5
12FE
102
{ACAD_XDICTIONARY
360
12FF
102
}
102
{ACAD_REACTORS
330
1300
102
}
330
1282
100
AcDbEntity
  8
DIM
 62
     7
370
    25
100
AcDbDimension
280
     0
  2
*D11
 10
0.9578317132525828
 20
0.1799999934603562
 30
0.0
 11
5.197831713252583
 21
0.1799999934603562
 31
0.0
 12
-11.79317359329589
 22
-9.639674380182945
 32
0.0
 71
     5
 42
8.480000000000002
 73
     0
 74
     0
 75
     0
  3
Standard
100
AcDbAlignedDimension
 13
9.437831713252585
 23
1.344466169447844
 33
0.0
 14
0.9578317132525828
 24
1.974772525687718
 34
0.0
100
AcDbRotatedDimension
1001
ACAD_DSTYLE_DIMINSPECT
1070
   396
1000
100%
1070
   395
1000

1070
   394
1070
    33
1070
   393
1070
     0
  0
DIMENSION
  5
1301
330
1282
100
AcDbEntity
  8
DIM
 62
     7
370
    25
100
AcDbDimension
280
     0
  2
*D12
 10
10.06783171325258
 20
0.6615260259910408
 30
0.0
 11
10.51783171325258
 21
0.6615260259910408
 31
0.0
 12
-11.79317359329589
 22
-9.639674380182945
 32
0.0
 71
     5
 42
0.629999999999999
 73
     0
 74
     0
 75
     0
  3
Standard
100
AcDbAlignedDimension
 13
9.437831713252585
 23
1.344466169447844
 33
0.0
 14
10.06783171325258
 24
2.893466169447847
 34
0.0
100
AcDbRotatedDimension
1001
ACAD_DSTYLE_DIMINSPECT
1070
   396
1000
100%
1070
   395
1000

1070
   394
1070
    33
1070
   393
1070
     0
  0
ENDBLK
  5
1305
330
1282
100
AcDbEntity
  8
0
100
AcDbBlockEnd
  0
BLOCK
  5
14E7
330
14E4
100
AcDbEntity
  8
0
100
AcDbBlockBegin
  2
_ACMFILLEDHALF
 70
     0
 10
0.0
 20
0.0
 30
0.0
  3
_ACMFILLEDHALF
  1

  0
TRACE
  5
14E5
330
14E4
100
AcDbEntity
  8
0
 62
     0
100
AcDbTrace
 10
-0.8
 20
0.0
 30
0.0
 11
-1.0
 21
0.166666666
 31
0.0
 12
0.0
 22
0.0
 32
0.0
 13
0.0
 23
0.0
 33
0.0
  0
LINE
  5
14E6
330
14E4
100
AcDbEntity
  8
0
 62
     0
100
AcDbLine
 10
-1.0
 20
0.0
 30
0.0
 11
-0.8
 21
0.0
 31
0.0
  0
ENDBLK
  5
14E8
330
14E4
100
AcDbEntity
  8
0
100
AcDbBlockEnd
  0
ENDSEC
  0
SECTION
  2
ENTITIES
  0
TEXT
  5
C6A
330
1F
100
AcDbEntity
  8
NOTES
 62
     7
370
    25
100
AcDbText
 10
6.701550496191231
 20
10.15932918718478
 30
0.0
 40
0.2
  1
DELTA
100
AcDbText
  0
TEXT
  5
C6B
330
1F
100
AcDbEntity
  8
NOTES
 62
     7
370
    25
100
AcDbText
 10
6.701550496191231
 20
9.789393985041741
 30
0.0
 40
0.2
  1
CONNECTIONS
100
AcDbText
  0
CIRCLE
  5
F23
330
1F
100
AcDbEntity
  8
Visible (ANSI)
100
AcDbCircle
 10
25.75316285827538
 20
12.64414054963079
 30
0.0
 40
1.734999999999999
  0
CIRCLE
  5
F25
330
1F
100
AcDbEntity
  8
Hidden (ANSI)
 48
1.024833559989929
100
AcDbCircle
 10
7.472220127147876
 20
12.60644456402269
 30
0.0
 40
0.2359999999999999
  0
CIRCLE
  5
F26
330
1F
100
AcDbEntity
  8
Hidden (ANSI)
 48
1.096957087516784
100
AcDbCircle
 10
7.472220127144781
 20
12.60644456402269
 30
0.0
 40
1.659999999999999
  0
LINE
  5
F27
330
1F
100
AcDbEntity
  8
Visible (ANSI)
100
AcDbLine
 10
6.575977089429338
 20
12.82463621800864
 30
0.0
 11
6.575977089429338
 21
12.73379481504022
 31
0.0
  0
LINE
  5
F28
330
1F
100
AcDbEntity
  8
Visible (ANSI)
100
AcDbLine
 10
6.652837368005076
 20
12.66463621800864
 30
0.0
 11
6.692837368005077
 21
12.66463621800864
 31
0.0
  0
LINE
  5
F29
330
1F
100
AcDbEntity
  8
Visible (ANSI)
100
AcDbLine
 10
6.775977089429339
 20
12.82463621800864
 30
0.0
 11
6.775977089429339
 21
12.72876462723607
 31
0.0
  0
LINE
  5
F2A
330
1F
100
AcDbEntity
  8
Visible (ANSI)
100
AcDbLine
 10
7.45222012714465
 20
12.66463621800864
 30
0.0
 11
7.492220127144651
 21
12.66463621800864
 31
0.0
  0
LINE
  5
F2B
330
1F
100
AcDbEntity
  8
Visible (ANSI)
100
AcDbLine
 10
7.37222012714465
 20
12.82463621800864
 30
0.0
 11
7.37222012714465
 21
12.73134452399065
 31
0.0
  0
LINE
  5
F2C
330
1F
100
AcDbEntity
  8
Visible (ANSI)
100
AcDbLine
 10
7.57222012714465
 20
12.82463621800864
 30
0.0
 11
7.57222012714465
 21
12.73134452399065
 31
0.0
  0
LINE
  5
F2D
330
1F
100
AcDbEntity
  8
Visible (ANSI)
100
AcDbLine
 10
8.355678926938814
 20
12.82463621800865
 30
0.0
 11
8.355678926938814
 21
12.73134452399065
 31
0.0
  0
LINE
  5
F2E
330
1F
100
AcDbEntity
  8
Visible (ANSI)
100
AcDbLine
 10
8.155678926938815
 20
12.82463621800865
 30
0.0
 11
8.155678926938815
 21
12.73134452399065
 31
0.0
  0
LINE
  5
F2F
330
1F
100
AcDbEntity
  8
Visible (ANSI)
100
AcDbLine
 10
8.235678926938815
 20
12.66463621800864
 30
0.0
 11
8.275678926938816
 21
12.66463621800864
 31
0.0
  0
LINE
  5
F30
330
1F
100
AcDbEntity
  8
Hidden (ANSI)
 48
0.3808393180370331
100
AcDbLine
 10
6.57597708942935
 20
12.77484903469109
 30
0.0
 11
6.77597708942935
 21
12.77484903469109
 31
0.0
  0
ARC
  5
F31
330
1F
100
AcDbEntity
  8
Hidden (ANSI)
 48
0.076287679374218
100
AcDbCircle
 10
7.472220127144662
 20
12.60644456402269
 30
0.0
 40
0.1599999999999994
100
AcDbArc
 50
82.81924421854187
 51
97.18075578145842
  0
LINE
  5
F32
330
1F
100
AcDbEntity
  8
Hidden (ANSI)
 48
0.053388737142086
100
AcDbLine
 10
7.544137576478364
 20
12.74937070047552
 30
0.0
 11
7.572220127144662
 21
12.74937070047552
 31
0.0
  0
LINE
  5
F33
330
1F
100
AcDbEntity
  8
Hidden (ANSI)
 48
0.053388737142086
100
AcDbLine
 10
7.372220127144663
 20
12.74937070047552
 30
0.0
 11
7.400302677810961
 21
12.74937070047552
 31
0.0
  0
LINE
  5
F34
330
1F
100
AcDbEntity
  8
Hidden (ANSI)
 48
0.053388737142086
100
AcDbLine
 10
8.155678926938826
 20
12.74937070047552
 30
0.0
 11
8.183761477605125
 21
12.74937070047552
 31
0.0
  0
ARC
  5
F35
330
1F
100
AcDbEntity
  8
Hidden (ANSI)
 48
0.076287679374218
100
AcDbCircle
 10
8.255678926938827
 20
12.60644456402269
 30
0.0
 40
0.1599999999999996
100
AcDbArc
 50
82.81924421854187
 51
97.18075578145834
  0
LINE
  5
F36
330
1F
100
AcDbEntity
  8
Hidden (ANSI)
 48
0.053388737142086
100
AcDbLine
 10
8.327596376272529
 20
12.74937070047552
 30
0.0
 11
8.355678926938827
 21
12.74937070047552
 31
0.0
  0
LINE
  5
F37
330
1F
100
AcDbEntity
  8
Visible (ANSI)
100
AcDbLine
 10
6.775977089429154
 20
12.95481213178819
 30
0.0
 11
6.775977089429154
 21
12.82463621800864
 31
0.0
  0
LINE
  5
F38
330
1F
100
AcDbEntity
  8
Visible (ANSI)
100
AcDbLine
 10
7.372220127144467
 20
12.82463621800864
 30
0.0
 11
7.372220127144467
 21
12.95481213178819
 31
0.0
  0
LINE
  5
F39
330
1F
100
AcDbEntity
  8
Visible (ANSI)
100
AcDbLine
 10
8.155678926938632
 20
12.82463621800865
 30
0.0
 11
8.155678926938632
 21
12.95481213178819
 31
0.0
  0
LINE
  5
F3A
330
1F
100
AcDbEntity
  8
Visible (ANSI)
100
AcDbLine
 10
8.355678926938631
 20
12.95481213178819
 30
0.0
 11
8.355678926938631
 21
12.82463621800865
 31
0.0
  0
ARC
  5
F3B
330
1F
100
AcDbEntity
  8
Visible (ANSI)
100
AcDbCircle
 10
8.255678926938632
 20
12.95481213178819
 30
0.0
 40
0.1000000000000001
100
AcDbArc
 50
0.0
 51
180.0
  0
ARC
  5
F3C
330
1F
100
AcDbEntity
  8
Visible (ANSI)
100
AcDbCircle
 10
7.472220127144467
 20
12.95481213178819
 30
0.0
 40
0.1
100
AcDbArc
 50
0.0
 51
180.0
  0
LINE
  5
F3D
330
1F
100
AcDbEntity
  8
Visible (ANSI)
100
AcDbLine
 10
7.572220127144468
 20
12.95481213178819
 30
0.0
 11
7.572220127144468
 21
12.82463621800864
 31
0.0
  0
LINE
  5
F3E
330
1F
100
AcDbEntity
  8
Visible (ANSI)
100
AcDbLine
 10
6.575977089429155
 20
12.82463621800864
 30
0.0
 11
6.575977089429155
 21
12.95481213178819
 31
0.0
  0
ARC
  5
F3F
330
1F
100
AcDbEntity
  8
Visible (ANSI)
100
AcDbCircle
 10
6.675977089429155
 20
12.95481213178819
 30
0.0
 40
0.1
100
AcDbArc
 50
0.0
 51
180.0
  0
LINE
  5
F40
330
1F
100
AcDbEntity
  8
Hidden (ANSI)
 48
0.3808393180370331
100
AcDbLine
 10
8.355678926938644
 20
12.95481213178819
 30
0.0
 11
8.155678926938644
 21
12.95481213178819
 31
0.0
  0
LINE
  5
F41
330
1F
100
AcDbEntity
  8
Hidden (ANSI)
 48
0.3808393180370331
100
AcDbLine
 10
7.572220127144479
 20
12.95481213178819
 30
0.0
 11
7.37222012714448
 21
12.95481213178819
 31
0.0
  0
LINE
  5
F42
330
1F
100
AcDbEntity
  8
Hidden (ANSI)
 48
0.3808393180370331
100
AcDbLine
 10
6.775977089429167
 20
12.95481213178819
 30
0.0
 11
6.575977089429168
 21
12.95481213178819
 31
0.0
  0
LINE
  5
F43
330
1F
100
AcDbEntity
  8
Hidden (ANSI)
 48
0.3808393180370331
100
AcDbLine
 10
6.575977089429168
 20
12.86463621800864
 30
0.0
 11
6.775977089429167
 21
12.86463621800864
 31
0.0
  0
LINE
  5
F44
330
1F
100
AcDbEntity
  8
Hidden (ANSI)
 48
0.3808393180370331
100
AcDbLine
 10
8.155678926938644
 20
12.86463621800865
 30
0.0
 11
8.355678926938644
 21
12.86463621800865
 31
0.0
  0
LINE
  5
F45
330
1F
100
AcDbEntity
  8
Hidden (ANSI)
 48
0.3808393180370331
100
AcDbLine
 10
7.37222012714448
 20
12.86463621800865
 30
0.0
 11
7.572220127144479
 21
12.86463621800865
 31
0.0
  0
LINE
  5
F46
330
1F
100
AcDbEntity
  8
Visible (ANSI)
100
AcDbLine
 10
7.372220127144467
 20
12.82463621800864
 30
0.0
 11
7.572220127144468
 21
12.82463621800864
 31
0.0
  0
LINE
  5
F47
330
1F
100
AcDbEntity
  8
Visible (ANSI)
100
AcDbLine
 10
8.155678926938632
 20
12.82463621800865
 30
0.0
 11
8.355678926938631
 21
12.82463621800865
 31
0.0
  0
LINE
  5
F48
330
1F
100
AcDbEntity
  8
Visible (ANSI)
100
AcDbLine
 10
6.575977089429155
 20
12.82463621800864
 30
0.0
 11
6.775977089429154
 21
12.82463621800864
 31
0.0
  0
LINE
  5
F49
330
1F
100
AcDbEntity
  8
Visible (ANSI)
100
AcDbLine
 10
6.692837368005074
 20
12.76518964268656
 30
0.0
 11
6.692837368005074
 21
12.62644456402268
 31
0.0
  0
ARC
  5
F4A
330
1F
100
AcDbEntity
  8
Visible (ANSI)
100
AcDbCircle
 10
7.472220127144684
 20
12.60644456402269
 30
0.0
 40
0.1600000000000008
100
AcDbArc
 50
352.8192442185415
 51
7.180755781458072
  0
ARC
  5
F4B
330
1F
100
AcDbEntity
  8
Visible (ANSI)
100
AcDbCircle
 10
7.472220127144685
 20
12.60644456402269
 30
0.0
 40
0.1599999999999993
100
AcDbArc
 50
262.8192442185419
 51
277.1807557814585
  0
ARC
  5
F4C
330
1F
100
AcDbEntity
  8
Visible (ANSI)
100
AcDbCircle
 10
7.472220127144687
 20
12.60644456402269
 30
0.0
 40
0.160000000000002
100
AcDbArc
 50
172.8192442185415
 51
187.1807557814579
  0
LINE
  5
F4D
330
1F
100
AcDbEntity
  8
Visible (ANSI)
100
AcDbLine
 10
7.492220127144648
 20
12.76518964268656
 30
0.0
 11
7.492220127144648
 21
12.62644456402268
 31
0.0
  0
LINE
  5
F4E
330
1F
100
AcDbEntity
  8
Visible (ANSI)
100
AcDbLine
 10
8.275678926938812
 20
12.76518964268656
 30
0.0
 11
8.275678926938812
 21
12.62644456402268
 31
0.0
  0
LINE
  5
F4F
330
1F
100
AcDbEntity
  8
Visible (ANSI)
100
AcDbLine
 10
6.652837368005073
 20
12.58644456402269
 30
0.0
 11
6.514092289341197
 21
12.58644456402269
 31
0.0
  0
LINE
  5
F50
330
1F
100
AcDbEntity
  8
Visible (ANSI)
100
AcDbLine
 10
6.652837368005073
 20
12.44769948535881
 30
0.0
 11
6.652837368005073
 21
12.58644456402269
 31
0.0
  0
LINE
  5
F51
330
1F
100
AcDbEntity
  8
Visible (ANSI)
100
AcDbLine
 10
6.692837368005074
 20
12.58644456402269
 30
0.0
 11
6.692837368005076
 21
12.44769948535881
 31
0.0
  0
LINE
  5
F52
330
1F
100
AcDbEntity
  8
Visible (ANSI)
100
AcDbLine
 10
6.831582446668949
 20
12.58644456402269
 30
0.0
 11
6.692837368005074
 21
12.58644456402269
 31
0.0
  0
LINE
  5
F53
330
1F
100
AcDbEntity
  8
Visible (ANSI)
100
AcDbLine
 10
6.692837368005074
 20
12.62644456402268
 30
0.0
 11
6.831582446668949
 21
12.62644456402268
 31
0.0
  0
LINE
  5
F54
330
1F
100
AcDbEntity
  8
Visible (ANSI)
100
AcDbLine
 10
6.652837368005073
 20
12.62644456402268
 30
0.0
 11
6.652837368005073
 21
12.76518964268656
 31
0.0
  0
LINE
  5
F55
330
1F
100
AcDbEntity
  8
Visible (ANSI)
100
AcDbLine
 10
6.514092289341197
 20
12.62644456402268
 30
0.0
 11
6.652837368005073
 21
12.62644456402268
 31
0.0
  0
ARC
  5
F56
330
1F
100
AcDbEntity
  8
Visible (ANSI)
100
AcDbCircle
 10
6.672837368005112
 20
12.60644456402269
 30
0.0
 40
0.1599999999999986
100
AcDbArc
 50
262.8192442185415
 51
277.1807557814587
  0
ARC
  5
F57
330
1F
100
AcDbEntity
  8
Visible (ANSI)
100
AcDbCircle
 10
6.672837368005115
 20
12.60644456402269
 30
0.0
 40
0.159999999999996
100
AcDbArc
 50
352.8192442185411
 51
7.180755781458278
  0
ARC
  5
F58
330
1F
100
AcDbEntity
  8
Visible (ANSI)
100
AcDbCircle
 10
6.672837368005115
 20
12.60644456402269
 30
0.0
 40
0.1600000000000039
100
AcDbArc
 50
172.8192442185419
 51
187.1807557814579
  0
LINE
  5
F59
330
1F
100
AcDbEntity
  8
Visible (ANSI)
100
AcDbLine
 10
7.452220127144649
 20
12.58644456402269
 30
0.0
 11
7.313475048480771
 21
12.58644456402269
 31
0.0
  0
LINE
  5
F5A
330
1F
100
AcDbEntity
  8
Visible (ANSI)
100
AcDbLine
 10
7.452220127144649
 20
12.44769948535881
 30
0.0
 11
7.452220127144649
 21
12.58644456402269
 31
0.0
  0
LINE
  5
F5B
330
1F
100
AcDbEntity
  8
Visible (ANSI)
100
AcDbLine
 10
7.492220127144648
 20
12.58644456402269
 30
0.0
 11
7.492220127144648
 21
12.44769948535881
 31
0.0
  0
LINE
  5
F5C
330
1F
100
AcDbEntity
  8
Visible (ANSI)
100
AcDbLine
 10
7.630965205808523
 20
12.58644456402269
 30
0.0
 11
7.492220127144648
 21
12.58644456402269
 31
0.0
  0
LINE
  5
F5D
330
1F
100
AcDbEntity
  8
Visible (ANSI)
100
AcDbLine
 10
7.492220127144648
 20
12.62644456402268
 30
0.0
 11
7.630965205808523
 21
12.62644456402268
 31
0.0
  0
LINE
  5
F5E
330
1F
100
AcDbEntity
  8
Visible (ANSI)
100
AcDbLine
 10
7.452220127144649
 20
12.62644456402268
 30
0.0
 11
7.452220127144649
 21
12.76518964268656
 31
0.0
  0
LINE
  5
F5F
330
1F
100
AcDbEntity
  8
Visible (ANSI)
100
AcDbLine
 10
7.313475048480771
 20
12.62644456402268
 30
0.0
 11
7.452220127144649
 21
12.62644456402268
 31
0.0
  0
LINE
  5
F60
330
1F
100
AcDbEntity
  8
Visible (ANSI)
100
AcDbLine
 10
8.235678926938813
 20
12.62644456402268
 30
0.0
 11
8.235678926938813
 21
12.76518964268656
 31
0.0
  0
LINE
  5
F61
330
1F
100
AcDbEntity
  8
Visible (ANSI)
100
AcDbLine
 10
8.096933848274936
 20
12.62644456402268
 30
0.0
 11
8.235678926938813
 21
12.62644456402268
 31
0.0
  0
LINE
  5
F62
330
1F
100
AcDbEntity
  8
Visible (ANSI)
100
AcDbLine
 10
8.235678926938813
 20
12.58644456402269
 30
0.0
 11
8.096933848274936
 21
12.58644456402269
 31
0.0
  0
LINE
  5
F63
330
1F
100
AcDbEntity
  8
Visible (ANSI)
100
AcDbLine
 10
8.235678926938813
 20
12.44769948535881
 30
0.0
 11
8.235678926938813
 21
12.58644456402269
 31
0.0
  0
LINE
  5
F64
330
1F
100
AcDbEntity
  8
Visible (ANSI)
100
AcDbLine
 10
8.275678926938812
 20
12.58644456402269
 30
0.0
 11
8.275678926938812
 21
12.44769948535881
 31
0.0
  0
LINE
  5
F65
330
1F
100
AcDbEntity
  8
Visible (ANSI)
100
AcDbLine
 10
8.414424005602688
 20
12.58644456402269
 30
0.0
 11
8.275678926938812
 21
12.58644456402269
 31
0.0
  0
LINE
  5
F66
330
1F
100
AcDbEntity
  8
Visible (ANSI)
100
AcDbLine
 10
8.275678926938812
 20
12.62644456402268
 30
0.0
 11
8.414424005602688
 21
12.62644456402268
 31
0.0
  0
ARC
  5
F67
330
1F
100
AcDbEntity
  8
Visible (ANSI)
100
AcDbCircle
 10
8.255678926938847
 20
12.60644456402269
 30
0.0
 40
0.1599999999999965
100
AcDbArc
 50
172.8192442185413
 51
187.1807557814581
  0
ARC
  5
F68
330
1F
100
AcDbEntity
  8
Visible (ANSI)
100
AcDbCircle
 10
8.25567892693885
 20
12.60644456402269
 30
0.0
 40
0.1599999999999993
100
AcDbArc
 50
262.8192442185418
 51
277.1807557814585
  0
ARC
  5
F69
330
1F
100
AcDbEntity
  8
Visible (ANSI)
100
AcDbCircle
 10
8.255678926938845
 20
12.60644456402269
 30
0.0
 40
0.1600000000000055
100
AcDbArc
 50
352.8192442185421
 51
7.180755781457867
  0
ARC
  5
F6A
330
1F
100
AcDbEntity
  8
Hidden (ANSI)
 48
0.076287679374218
100
AcDbCircle
 10
6.672837368005112
 20
12.60644456402269
 30
0.0
 40
0.1599999999999997
100
AcDbArc
 50
82.81924421854155
 51
97.18075578145834
  0
ARC
  5
F6B
330
1F
100
AcDbEntity
  8
Visible (ANSI)
100
AcDbCircle
 10
7.472220127144648
 20
12.60644456402269
 30
0.0
 40
0.1599999999999999
100
AcDbArc
 50
7.180755781458072
 51
82.81924421854176
  0
ARC
  5
F6C
330
1F
100
AcDbEntity
  8
Visible (ANSI)
100
AcDbCircle
 10
7.472220127144648
 20
12.60644456402269
 30
0.0
 40
0.16
100
AcDbArc
 50
277.1807557814585
 51
352.819244218542
  0
ARC
  5
F6D
330
1F
100
AcDbEntity
  8
Visible (ANSI)
100
AcDbCircle
 10
7.472220127144648
 20
12.60644456402269
 30
0.0
 40
0.1599999999999999
100
AcDbArc
 50
187.1807557814581
 51
262.8192442185418
  0
ARC
  5
F6E
330
1F
100
AcDbEntity
  8
Visible (ANSI)
100
AcDbCircle
 10
7.472220127144648
 20
12.60644456402269
 30
0.0
 40
0.1600000000000001
100
AcDbArc
 50
97.18075578145848
 51
172.8192442185419
  0
ARC
  5
F6F
330
1F
100
AcDbEntity
  8
Visible (ANSI)
100
AcDbCircle
 10
6.672837368005072
 20
12.60644456402269
 30
0.0
 40
0.16
100
AcDbArc
 50
187.1807557814585
 51
262.8192442185417
  0
ARC
  5
F70
330
1F
100
AcDbEntity
  8
Visible (ANSI)
100
AcDbCircle
 10
6.672837368005072
 20
12.60644456402269
 30
0.0
 40
0.16
100
AcDbArc
 50
97.18075578145848
 51
172.8192442185419
  0
ARC
  5
F71
330
1F
100
AcDbEntity
  8
Visible (ANSI)
100
AcDbCircle
 10
6.672837368005072
 20
12.60644456402269
 30
0.0
 40
0.1600000000000001
100
AcDbArc
 50
7.180755781458072
 51
82.81924421854155
  0
ARC
  5
F72
330
1F
100
AcDbEntity
  8
Visible (ANSI)
100
AcDbCircle
 10
6.672837368005072
 20
12.60644456402269
 30
0.0
 40
0.16
100
AcDbArc
 50
277.1807557814589
 51
352.819244218542
  0
ARC
  5
F73
330
1F
100
AcDbEntity
  8
Visible (ANSI)
100
AcDbCircle
 10
8.255678926938813
 20
12.60644456402269
 30
0.0
 40
0.1599999999999997
100
AcDbArc
 50
7.180755781458072
 51
82.81924421854187
  0
ARC
  5
F74
330
1F
100
AcDbEntity
  8
Visible (ANSI)
100
AcDbCircle
 10
8.255678926938813
 20
12.60644456402269
 30
0.0
 40
0.1600000000000001
100
AcDbArc
 50
97.18075578145857
 51
172.8192442185419
  0
ARC
  5
F75
330
1F
100
AcDbEntity
  8
Visible (ANSI)
100
AcDbCircle
 10
8.255678926938813
 20
12.60644456402269
 30
0.0
 40
0.1599999999999998
100
AcDbArc
 50
277.1807557814583
 51
352.819244218542
  0
ARC
  5
F76
330
1F
100
AcDbEntity
  8
Visible (ANSI)
100
AcDbCircle
 10
8.255678926938813
 20
12.60644456402269
 30
0.0
 40
0.1599999999999999
100
AcDbArc
 50
187.1807557814585
 51
262.8192442185419
  0
LINE
  5
F77
330
1F
100
AcDbEntity
  8
Visible (ANSI)
100
AcDbLine
 10
8.355678926938827
 20
12.74937070047552
 30
0.0
 11
8.430842479738336
 21
12.74937070047552
 31
0.0
  0
LINE
  5
F78
330
1F
100
AcDbEntity
  8
Visible (ANSI)
100
AcDbLine
 10
8.080515374139318
 20
12.74937070047552
 30
0.0
 11
8.155678926938826
 21
12.74937070047552
 31
0.0
  0
LINE
  5
F79
330
1F
100
AcDbEntity
  8
Visible (ANSI)
100
AcDbLine
 10
6.77597708942935
 20
12.77484903469109
 30
0.0
 11
6.857555296411842
 21
12.77484903469109
 31
0.0
  0
LINE
  5
F7A
330
1F
100
AcDbEntity
  8
Visible (ANSI)
100
AcDbLine
 10
6.857555296411842
 20
12.77484903469109
 30
0.0
 11
6.857555296411842
 21
11.85125941937663
 31
0.0
  0
LINE
  5
F7B
330
1F
100
AcDbEntity
  8
Visible (ANSI)
100
AcDbLine
 10
6.857555296411842
 20
11.85125941937663
 30
0.0
 11
6.488119439598335
 21
11.85125941937663
 31
0.0
  0
LINE
  5
F7C
330
1F
100
AcDbEntity
  8
Visible (ANSI)
100
AcDbLine
 10
6.488119439598335
 20
11.85125941937663
 30
0.0
 11
6.488119439598335
 21
12.77484903469109
 31
0.0
  0
LINE
  5
F7D
330
1F
100
AcDbEntity
  8
Visible (ANSI)
100
AcDbLine
 10
6.488119439598335
 20
12.77484903469109
 30
0.0
 11
6.57597708942935
 21
12.77484903469109
 31
0.0
  0
LINE
  5
F7E
330
1F
100
AcDbEntity
  8
Visible (ANSI)
100
AcDbLine
 10
7.572220127144662
 20
12.74937070047552
 30
0.0
 11
7.788220127144661
 21
12.74937070047552
 31
0.0
  0
LINE
  5
F7F
330
1F
100
AcDbEntity
  8
Visible (ANSI)
100
AcDbLine
 10
7.788220127144663
 20
11.57675092026256
 30
0.0
 11
7.156220127144663
 21
11.57675092026256
 31
0.0
  0
LINE
  5
F80
330
1F
100
AcDbEntity
  8
Visible (ANSI)
100
AcDbLine
 10
7.156220127144663
 20
12.74937070047552
 30
0.0
 11
7.372220127144663
 21
12.74937070047552
 31
0.0
  0
LINE
  5
F81
330
1F
100
AcDbEntity
  8
Visible (ANSI)
100
AcDbLine
 10
8.430842479738336
 20
12.74937070047552
 30
0.0
 11
8.430842479738336
 21
11.82578108516105
 31
0.0
  0
LINE
  5
F82
330
1F
100
AcDbEntity
  8
Visible (ANSI)
100
AcDbLine
 10
8.430842479738336
 20
11.82578108516105
 30
0.0
 11
8.080515374139318
 21
11.82578108516105
 31
0.0
  0
LINE
  5
F83
330
1F
100
AcDbEntity
  8
Visible (ANSI)
100
AcDbLine
 10
8.080515374139318
 20
11.82578108516105
 30
0.0
 11
8.080515374139318
 21
12.74937070047552
 31
0.0
  0
ARC
  5
F84
330
1F
100
AcDbEntity
  8
Visible (ANSI)
100
AcDbCircle
 10
7.472220127144662
 20
13.68644456402268
 30
0.0
 40
0.3090000000000006
100
AcDbArc
 50
17.00479141534112
 51
34.34149044831622
  0
ARC
  5
F85
330
1F
100
AcDbEntity
  8
Visible (ANSI)
100
AcDbCircle
 10
7.472220127144662
 20
13.68644456402268
 30
0.0
 40
0.309000000000001
100
AcDbArc
 50
145.6585095516841
 51
162.9952085846591
  0
ARC
  5
F86
330
1F
100
AcDbEntity
  8
Visible (ANSI)
100
AcDbCircle
 10
7.472220127144765
 20
12.6064445640227
 30
0.0
 40
1.174999999999983
100
AcDbArc
 50
84.9106066110078
 51
95.0893933889923
  0
ARC
  5
F87
330
1F
100
AcDbEntity
  8
Hidden (ANSI)
 48
1.116756796836853
100
AcDbCircle
 10
7.472220127144662
 20
13.68644456402268
 30
0.0
 40
0.3090000000000001
100
AcDbArc
 50
162.9952085846591
 51
17.0047914153409
  0
ARC
  5
F88
330
1F
100
AcDbEntity
  8
Hidden (ANSI)
 48
0.3869335055351257
100
AcDbCircle
 10
7.472220127144765
 20
12.60644456402269
 30
0.0
 40
1.174999999999999
100
AcDbArc
 50
95.08939338899216
 51
104.9978844270927
  0
ARC
  5
F89
330
1F
100
AcDbEntity
  8
Hidden (ANSI)
 48
0.3869335055351257
100
AcDbCircle
 10
7.472220127144767
 20
12.6064445640227
 30
0.0
 40
1.174999999999987
100
AcDbArc
 50
75.0021155729072
 51
84.91060661100791
  0
ARC
  5
F8A
330
1F
100
AcDbEntity
  8
Visible (ANSI)
100
AcDbCircle
 10
7.472220127144623
 20
12.60644456402271
 30
0.0
 40
1.27999999999995
100
AcDbArc
 50
141.3751671269469
 51
149.246480191896
  0
ARC
  5
F8B
330
1F
100
AcDbEntity
  8
Visible (ANSI)
100
AcDbCircle
 10
7.472220127144659
 20
12.6064445640227
 30
0.0
 40
1.279999999999985
100
AcDbArc
 50
101.4975906526414
 51
113.8864613396228
  0
ARC
  5
F8C
330
1F
100
AcDbEntity
  8
Visible (ANSI)
100
AcDbCircle
 10
7.472220127144662
 20
12.60644456402269
 30
0.0
 40
1.28
100
AcDbArc
 50
210.7535198081041
 51
329.2464801918958
  0
ARC
  5
F8D
330
1F
100
AcDbEntity
  8
Visible (ANSI)
100
AcDbCircle
 10
7.472220127144666
 20
12.6064445640227
 30
0.0
 40
1.279999999999989
100
AcDbArc
 50
66.11353866037719
 51
78.50240934735841
  0
ARC
  5
F8E
330
1F
100
AcDbEntity
  8
Visible (ANSI)
100
AcDbCircle
 10
7.47222012714463
 20
12.60644456402266
 30
0.0
 40
1.280000000000039
100
AcDbArc
 50
30.7535198081042
 51
38.62483287305284
  0
ARC
  5
F8F
330
1F
100
AcDbEntity
  8
Hidden (ANSI)
 48
0.9903299212455749
100
AcDbCircle
 10
7.472220127144662
 20
12.60644456402269
 30
0.0
 40
1.28
100
AcDbArc
 50
113.8864613396228
 51
141.375167126947
  0
ARC
  5
F90
330
1F
100
AcDbEntity
  8
Hidden (ANSI)
 48
0.9903299212455749
100
AcDbCircle
 10
7.472220127144662
 20
12.60644456402269
 30
0.0
 40
1.279999999999999
100
AcDbArc
 50
38.62483287305304
 51
66.11353866037728
  0
ARC
  5
F91
330
1F
100
AcDbEntity
  8
Hidden (ANSI)
 48
1.091372489929199
100
AcDbCircle
 10
7.472220127144725
 20
12.60644456402269
 30
0.0
 40
1.175
100
AcDbArc
 50
104.9978844270927
 51
75.0021155729072
  0
LINE
  5
F92
330
1F
100
AcDbEntity
  8
Hidden (ANSI)
 48
1.098735809326171
100
AcDbLine
 10
8.038220127144521
 20
13.63613820778281
 30
0.0
 11
8.038220127144521
 21
12.95481213178819
 31
0.0
  0
LINE
  5
F93
330
1F
100
AcDbEntity
  8
Hidden (ANSI)
 48
1.098735809326171
100
AcDbLine
 10
7.788220127144519
 20
12.95481213178819
 30
0.0
 11
7.788220127144519
 21
13.63613820778281
 31
0.0
  0
LINE
  5
F94
330
1F
100
AcDbEntity
  8
Hidden (ANSI)
 48
0.4760741591453553
100
AcDbLine
 10
7.788220127144519
 20
13.63613820778281
 30
0.0
 11
8.038220127144521
 21
13.63613820778281
 31
0.0
  0
LINE
  5
F95
330
1F
100
AcDbEntity
  8
Hidden (ANSI)
 48
1.098735809326171
100
AcDbLine
 10
6.906220127144521
 20
12.95481213178819
 30
0.0
 11
6.906220127144521
 21
13.63613820778281
 31
0.0
  0
LINE
  5
F96
330
1F
100
AcDbEntity
  8
Hidden (ANSI)
 48
0.4760741591453553
100
AcDbLine
 10
6.906220127144521
 20
13.63613820778281
 30
0.0
 11
7.156220127144521
 21
13.63613820778281
 31
0.0
  0
LINE
  5
F97
330
1F
100
AcDbEntity
  8
Hidden (ANSI)
 48
1.098735809326171
100
AcDbLine
 10
7.156220127144521
 20
13.63613820778281
 30
0.0
 11
7.156220127144521
 21
12.95481213178819
 31
0.0
  0
LINE
  5
F98
330
1F
100
AcDbEntity
  8
Visible (ANSI)
100
AcDbLine
 10
8.038220127144521
 20
12.95481213178819
 30
0.0
 11
8.038220127144521
 21
11.57675092026256
 31
0.0
  0
LINE
  5
F99
330
1F
100
AcDbEntity
  8
Visible (ANSI)
100
AcDbLine
 10
8.038220127144521
 20
11.57675092026256
 30
0.0
 11
7.788220127144521
 21
11.57675092026256
 31
0.0
  0
LINE
  5
F9A
330
1F
100
AcDbEntity
  8
Visible (ANSI)
100
AcDbLine
 10
7.788220127144521
 20
11.57675092026256
 30
0.0
 11
7.788220127144519
 21
12.95481213178819
 31
0.0
  0
LINE
  5
F9B
330
1F
100
AcDbEntity
  8
Visible (ANSI)
100
AcDbLine
 10
6.906220127144521
 20
11.57675092026256
 30
0.0
 11
6.906220127144521
 21
12.95481213178819
 31
0.0
  0
LINE
  5
F9C
330
1F
100
AcDbEntity
  8
Visible (ANSI)
100
AcDbLine
 10
7.156220127144521
 20
12.95481213178819
 30
0.0
 11
7.156220127144521
 21
11.57675092026256
 31
0.0
  0
LINE
  5
F9D
330
1F
100
AcDbEntity
  8
Visible (ANSI)
100
AcDbLine
 10
7.156220127144521
 20
11.57675092026256
 30
0.0
 11
6.906220127144521
 21
11.57675092026256
 31
0.0
  0
ARC
  5
F9E
330
1F
100
AcDbEntity
  8
Visible (ANSI)
100
AcDbCircle
 10
7.472220127144522
 20
12.60644456402269
 30
0.0
 40
1.28
100
AcDbArc
 50
11.26297954603201
 51
30.75351980809663
  0
ARC
  5
F9F
330
1F
100
AcDbEntity
  8
Visible (ANSI)
100
AcDbCircle
 10
7.472220127144522
 20
12.60644456402269
 30
0.0
 40
1.28
100
AcDbArc
 50
329.2464801919032
 51
348.7370204539678
  0
LINE
  5
FA0
330
1F
100
AcDbEntity
  8
Visible (ANSI)
100
AcDbLine
 10
8.572220127144547
 20
12.35644456402269
 30
0.0
 11
8.727568684319008
 21
12.35644456402269
 31
0.0
  0
LINE
  5
FA1
330
1F
100
AcDbEntity
  8
Visible (ANSI)
100
AcDbLine
 10
8.572220127144589
 20
11.95192183714454
 30
0.0
 11
8.572220127144547
 21
12.35644456402269
 31
0.0
  0
LINE
  5
FA2
330
1F
100
AcDbEntity
  8
Visible (ANSI)
100
AcDbLine
 10
8.572220127144547
 20
12.85644456402269
 30
0.0
 11
8.572220127144589
 21
13.26096729090083
 31
0.0
  0
LINE
  5
FA3
330
1F
100
AcDbEntity
  8
Visible (ANSI)
100
AcDbLine
 10
8.727568684319008
 20
12.85644456402269
 30
0.0
 11
8.572220127144547
 21
12.85644456402269
 31
0.0
  0
ARC
  5
FA4
330
1F
100
AcDbEntity
  8
Visible (ANSI)
100
AcDbCircle
 10
7.472220127144545
 20
12.60644456402269
 30
0.0
 40
1.280000000000002
100
AcDbArc
 50
348.7370204539617
 51
11.26297954603823
  0
ARC
  5
FA5
330
1F
100
AcDbEntity
  8
Visible (ANSI)
100
AcDbCircle
 10
7.472220127144547
 20
12.60644456402269
 30
0.0
 40
1.28
100
AcDbArc
 50
168.7370204539617
 51
191.2629795460382
  0
LINE
  5
FA6
330
1F
100
AcDbEntity
  8
Visible (ANSI)
100
AcDbLine
 10
8.572220127144547
 20
12.35644456402269
 30
0.0
 11
8.572220127144547
 21
12.85644456402269
 31
0.0
  0
LINE
  5
FA7
330
1F
100
AcDbEntity
  8
Visible (ANSI)
100
AcDbLine
 10
6.372220127144547
 20
12.85644456402269
 30
0.0
 11
6.372220127144547
 21
12.35644456402269
 31
0.0
  0
ARC
  5
FA8
330
1F
100
AcDbEntity
  8
Visible (ANSI)
100
AcDbCircle
 10
7.472220127144522
 20
12.60644456402269
 30
0.0
 40
1.28
100
AcDbArc
 50
191.2629795460442
 51
210.7535198081113
  0
ARC
  5
FA9
330
1F
100
AcDbEntity
  8
Visible (ANSI)
100
AcDbCircle
 10
7.472220127144522
 20
12.60644456402269
 30
0.0
 40
1.28
100
AcDbArc
 50
149.2464801918884
 51
168.7370204539555
  0
LINE
  5
FAA
330
1F
100
AcDbEntity
  8
Visible (ANSI)
100
AcDbLine
 10
6.372220127144547
 20
12.85644456402269
 30
0.0
 11
6.216871569970086
 21
12.85644456402269
 31
0.0
  0
LINE
  5
FAB
330
1F
100
AcDbEntity
  8
Visible (ANSI)
100
AcDbLine
 10
6.372220127144588
 20
13.26096729090083
 30
0.0
 11
6.372220127144547
 21
12.85644456402269
 31
0.0
  0
LINE
  5
FAC
330
1F
100
AcDbEntity
  8
Visible (ANSI)
100
AcDbLine
 10
6.372220127144547
 20
12.35644456402269
 30
0.0
 11
6.372220127144588
 21
11.95192183714454
 31
0.0
  0
LINE
  5
FAD
330
1F
100
AcDbEntity
  8
Visible (ANSI)
100
AcDbLine
 10
6.216871569970086
 20
12.35644456402269
 30
0.0
 11
6.372220127144547
 21
12.35644456402269
 31
0.0
  0
CIRCLE
  5
FAE
330
1F
100
AcDbEntity
  8
Visible (ANSI)
100
AcDbCircle
 10
7.472220127144751
 20
12.60644456402269
 30
0.0
 40
1.581308186635973
  0
LINE
  5
FAF
330
1F
100
AcDbEntity
  8
Visible (ANSI)
100
AcDbLine
 10
8.222220127144479
 20
13.7768121317882
 30
0.0
 11
8.472220127144478
 21
13.5268121317882
 31
0.0
  0
LINE
  5
FB0
330
1F
100
AcDbEntity
  8
Visible (ANSI)
100
AcDbLine
 10
8.472220127144479
 20
12.95481213178819
 30
0.0
 11
8.355678926938644
 21
12.95481213178819
 31
0.0
  0
LINE
  5
FB1
330
1F
100
AcDbEntity
  8
Visible (ANSI)
100
AcDbLine
 10
8.472220127144478
 20
13.5268121317882
 30
0.0
 11
8.472220127144479
 21
12.95481213178819
 31
0.0
  0
LINE
  5
FB2
330
1F
100
AcDbEntity
  8
Visible (ANSI)
100
AcDbLine
 10
6.722220127144479
 20
13.77681213178819
 30
0.0
 11
8.222220127144479
 21
13.7768121317882
 31
0.0
  0
LINE
  5
FB3
330
1F
100
AcDbEntity
  8
Visible (ANSI)
100
AcDbLine
 10
6.472220127144479
 20
12.95481213178819
 30
0.0
 11
6.472220127144479
 21
13.5268121317882
 31
0.0
  0
LINE
  5
FB4
330
1F
100
AcDbEntity
  8
Visible (ANSI)
100
AcDbLine
 10
6.575977089429168
 20
12.95481213178819
 30
0.0
 11
6.472220127144479
 21
12.95481213178819
 31
0.0
  0
LINE
  5
FB5
330
1F
100
AcDbEntity
  8
Visible (ANSI)
100
AcDbLine
 10
7.37222012714448
 20
12.95481213178819
 30
0.0
 11
6.775977089429167
 21
12.95481213178819
 31
0.0
  0
LINE
  5
FB6
330
1F
100
AcDbEntity
  8
Visible (ANSI)
100
AcDbLine
 10
8.155678926938644
 20
12.95481213178819
 30
0.0
 11
7.572220127144479
 21
12.95481213178819
 31
0.0
  0
LINE
  5
FB7
330
1F
100
AcDbEntity
  8
Visible (ANSI)
100
AcDbLine
 10
6.472220127144479
 20
13.5268121317882
 30
0.0
 11
6.722220127144479
 21
13.77681213178819
 31
0.0
  0
CIRCLE
  5
FB8
330
1F
100
AcDbEntity
  8
Visible (ANSI)
100
AcDbCircle
 10
7.472220127144767
 20
12.60644456402269
 30
0.0
 40
1.734999999999999
  0
CIRCLE
  5
FB9
330
1F
100
AcDbEntity
  8
Hidden Narrow (ANSI)
 48
1.156324982643127
100
AcDbCircle
 10
7.472220127147876
 20
12.60644456402269
 30
0.0
 40
0.1902
  0
INSERT
  5
FBA
330
1F
100
AcDbEntity
  8
0
 62
     7
370
    25
100
AcDbBlockReference
  2
A$C087148CE
 10
25.75316285827538
 20
12.64414054963079
 30
0.0
  0
CIRCLE
  5
FBB
330
1F
100
AcDbEntity
  8
BORDER
 62
     7
370
    25
100
AcDbCircle
 10
25.75316285827538
 20
12.64414054963079
 30
0.0
 40
0.1933181975482725
  0
CIRCLE
  5
FBC
330
1F
100
AcDbEntity
  8
BORDER
 62
     7
370
    25
100
AcDbCircle
 10
25.75316285827538
 20
12.64414054963079
 30
0.0
 40
0.215
  0
LINE
  5
FBD
330
1F
100
AcDbEntity
  8
0
 62
     7
370
    25
100
AcDbLine
 10
25.68542325081005
 20
12.52618990990813
 30
0.0
 11
25.83069078154325
 21
12.52618990990813
 31
0.0
  0
LINE
  5
FBE
330
1F
100
AcDbEntity
  8
0
 62
     7
370
    25
100
AcDbLine
 10
25.66752281452196
 20
12.56200701406893
 30
0.0
 11
25.84859121783134
 21
12.56200701406893
 31
0.0
  0
LINE
  5
FBF
330
1F
100
AcDbEntity
  8
0
 62
     7
370
    25
100
AcDbLine
 10
25.64962237823388
 20
12.59782411822972
 30
0.0
 11
25.86649165411941
 21
12.59782411822972
 31
0.0
  0
LINE
  5
FC0
330
1F
100
AcDbEntity
  8
0
 62
     7
370
    25
100
AcDbLine
 10
25.6317219419458
 20
12.63364122239052
 30
0.0
 11
25.8843920904075
 21
12.63364122239052
 31
0.0
  0
LINE
  5
FC1
330
1F
100
AcDbEntity
  8
0
 62
     7
370
    25
100
AcDbLine
 10
25.75805701617665
 20
12.63364122239052
 30
0.0
 11
25.75805701617665
 21
12.7784716118776
 31
0.0
  0
INSERT
  5
1306
330
1F
100
AcDbEntity
  8
0
100
AcDbBlockReference
  2
A$C19D4211B
 10
11.79317359329589
 20
9.639674380182945
 30
0.0
  0
TEXT
  5
133E
330
1F
100
AcDbEntity
  8
NOTES
370
    25
100
AcDbText
 10
12.70614577742245
 20
8.236041978159526
 30
0.0
 40
0.2
  1
15 KVAR 480 VOLT
100
AcDbText
  0
TEXT
  5
133F
330
1F
100
AcDbEntity
  8
NOTES
370
    25
100
AcDbText
 10
12.69299036801113
 20
7.817479295933562
 30
0.0
 40
0.2
  1
3 PHASE 60 HZ
100
AcDbText
  0
LINE
  5
1340
330
1F
100
AcDbEntity
  8
NOTES
370
    25
100
AcDbLine
 10
20.25676896184536
 20
8.481066506846637
 30
0.0
 11
24.10544421153942
 21
8.481066506846637
 31
0.0
  0
LINE
  5
1341
330
1F
100
AcDbEntity
  8
NOTES
370
    25
100
AcDbLine
 10
24.10544421153942
 20
8.481066506846637
 30
0.0
 11
24.10544421153942
 21
7.481066506846637
 31
0.0
  0
LINE
  5
1342
330
1F
100
AcDbEntity
  8
NOTES
370
    25
100
AcDbLine
 10
20.25676896184536
 20
8.481066506846637
 30
0.0
 11
20.25676896184536
 21
7.481066506846637
 31
0.0
  0
TEXT
  5
1343
330
1F
100
AcDbEntity
  8
NOTES
370
    25
100
AcDbText
 10
20.62541544681876
 20
8.109180677294194
 30
0.0
 40
0.2
  1
VOLTS
100
AcDbText
  0
TEXT
  5
1345
330
1F
100
AcDbEntity
  8
NOTES
370
    25
100
AcDbText
 10
22.28527064353845
 20
8.109180677294194
 30
0.0
 40
0.2
  1
60 HZ
100
AcDbText
  0
LINE
  5
1346
330
1F
100
AcDbEntity
  8
NOTES
370
    25
100
AcDbLine
 10
21.73422252121458
 20
8.481066506846637
 30
0.0
 11
21.73422252121458
 21
7.481066506846637
 31
0.0
  0
LINE
  5
1347
330
1F
100
AcDbEntity
  8
NOTES
370
    25
100
AcDbLine
 10
21.73422252121458
 20
8.481066506846637
 30
0.0
 11
21.73422252121458
 21
7.481066506846637
 31
0.0
  0
LINE
  5
1348
330
1F
100
AcDbEntity
  8
NOTES
370
    25
100
AcDbLine
 10
20.25676896184536
 20
7.981066506846637
 30
0.0
 11
24.10544421153942
 21
7.981066506846637
 31
0.0
  0
LINE
  5
1349
330
1F
100
AcDbEntity
  8
NOTES
370
    25
100
AcDbLine
 10
20.25676896184536
 20
7.981066506846637
 30
0.0
 11
23.72240070114454
 21
7.981066506846637
 31
0.0
  0
LINE
  5
134D
330
1F
100
AcDbEntity
  8
NOTES
370
    25
100
AcDbLine
 10
20.25676896184536
 20
7.981066506846637
 30
0.0
 11
24.10544421153942
 21
7.981066506846637
 31
0.0
  0
TEXT
  5
134E
330
1F
100
AcDbEntity
  8
NOTES
370
    25
100
AcDbText
 10
20.62541544681876
 20
7.609180677294194
 30
0.0
 40
0.2
  1
480
100
AcDbText
  0
LINE
  5
134F
330
1F
100
AcDbEntity
  8
NOTES
370
    25
100
AcDbLine
 10
20.25676896184536
 20
7.481066506846637
 30
0.0
 11
24.10544421153942
 21
7.481066506846637
 31
0.0
  0
LINE
  5
1351
330
1F
100
AcDbEntity
  8
NOTES
370
    25
100
AcDbLine
 10
20.25676896184536
 20
7.481066506846637
 30
0.0
 11
24.10544421153942
 21
7.481066506846637
 31
0.0
  0
TEXT
  5
1352
330
1F
100
AcDbEntity
  8
NOTES
370
    25
100
AcDbText
 10
22.01166814253843
 20
7.609180677294194
 30
0.0
 40
0.2
  1
15.00 KVAR
100
AcDbText
  0
TEXT
  5
1356
330
1F
100
AcDbEntity
  8
NOTES
370
    25
100
AcDbText
 10
12.69122355974633
 20
7.406030935704041
 30
0.0
 40
0.2
  1
3 * 57.7 uF
100
AcDbText
  0
TEXT
  5
1358
330
1F
100
AcDbEntity
  8
NOTES
370
    25
100
AcDbText
 10
12.69122355974632
 20
6.940294554491057
 30
0.0
 40
0.2
  1
PhMKP 525.3.15.00
100
AcDbText
  0
TEXT
  5
1359
330
1F
100
AcDbEntity
  8
NOTES
370
    25
100
AcDbText
 10
16.52343364206485
 20
8.256647074274862
 30
0.0
 40
0.2
  1
CASE MAX. 65%%D C
100
AcDbText
  0
TEXT
  5
135B
330
1F
100
AcDbEntity
  8
NOTES
370
    25
100
AcDbText
 10
16.54511137066203
 20
7.845198906214555
 30
0.0
 40
0.2
  1
NON-PCB
100
AcDbText
  0
TEXT
  5
139D
330
1F
100
AcDbEntity
  8
NOTES
 62
     7
370
    25
100
AcDbText
 10
21.41517270170814
 20
6.999981782026903
 30
0.0
 40
0.2
  1
2.4 LBS
100
AcDbText
  0
VIEWPORT
  5
2E
330
1B
100
AcDbEntity
 67
     1
  8
0
100
AcDbViewport
 10
10.51352653116143
 20
7.980557435525104
 30
0.0
 40
32.69761884245443
 41
16.11027460363355
 68
     1
 69
     1
 12
10.51352653116143
 22
7.980557435525104
 13
0.0
 23
0.0
 14
0.5
 24
0.5
 15
0.5
 25
0.5
 16
0.0
 26
0.0
 36
1.0
 17
0.0
 27
0.0
 37
0.0
 42
50.0
 43
0.0
 44
0.0
 45
16.11027460363355
 50
0.0
 51
0.0
 72
   100
 90
    32832
  1

281
     0
 71
     1
 74
     0
110
0.0
120
0.0
130
0.0
111
1.0
121
0.0
131
0.0
112
0.0
122
1.0
132
0.0
 79
     0
146
0.0
170
     0
 61
     5
348
51F
292
     1
282
     1
141
0.0
142
0.0
 63
   250
421
  3355443
  0
INSERT
  5
48E
330
1B
100
AcDbEntity
 67
     1
  8
BORDER
 62
     7
100
AcDbBlockReference
  2
MASTER-BORDER
 10
-0.4867706241431336
 20
-0.5196777964532871
 30
0.0
1001
PAPERSPACE
1002
{
1040
0.0
1002
}
1001
MASTER_SIZING
1002
{
1040
0.0
1010
22.0
1020
17.0
1030
1.0
1002
}
  0
INSERT
  5
8E1
330
1B
100
AcDbEntity
 67
     1
  8
BORDER
 62
     7
100
AcDbBlockReference
 66
     1
  2
A$C04876F98
 10
12.26322939485256
 20
-0.0196777911337236
 30
0.0
  0
ATTRIB
  5
8E2
330
8E1
100
AcDbEntity
 67
     1
  8
0
100
AcDbText
 10
19.73197937585687
 20
0.230322203546713
 30
0.0
 40
0.1875
  1
28566
 41
0.8000000000000001
100
AcDbAttribute
280
     0
  2
DWGNO
 70
     0
280
     0
  0
ATTRIB
  5
8E3
330
8E1
100
AcDbEntity
 67
     1
  8
0
100
AcDbText
 10
17.66947937585686
 20
0.261572203546713
 30
0.0
 40
0.125
  1
DSW
 41
0.8
100
AcDbAttribute
280
     0
  2
DRNBY
 70
     0
280
     0
  0
ATTRIB
  5
8E4
330
8E1
100
AcDbEntity
 67
     1
  8
0
100
AcDbText
 10
18.51322937585687
 20
0.261572203546713
 30
0.0
 40
0.125
  1
7/25/2013
 41
0.7040816326530612
 72
     5
 11
19.23197937585687
 21
0.261572203546713
 31
0.0
100
AcDbAttribute
280
     0
  2
DATE
 70
     0
280
     0
  0
ATTRIB
  5
8E5
330
8E1
100
AcDbEntity
 67
     1
  8
0
100
AcDbText
 10
17.60697937585687
 20
0.011572203546713
 30
0.0
 40
0.125
  1
TO FIT
 41
0.8
100
AcDbAttribute
280
     0
  2
SCALE
 70
     0
280
     0
  0
ATTRIB
  5
8E6
330
8E1
100
AcDbEntity
 67
     1
  8
0
100
AcDbText
 10
18.60697937585687
 20
0.011572203546713
 30
0.0
 40
0.125
  1

 41
0.8
100
AcDbAttribute
280
     0
  2
APRVD
 70
     0
280
     0
  0
ATTRIB
  5
8E7
330
8E1
100
AcDbEntity
 67
     1
  8
0
100
AcDbText
 10
20.35697937585687
 20
0.011572203546713
 30
0.0
 40
0.125
  1
1
 41
0.8
100
AcDbAttribute
280
     0
  2
SHT
 70
     0
280
     0
  0
ATTRIB
  5
8E8
330
8E1
100
AcDbEntity
 67
     1
  8
0
100
AcDbText
 10
20.73197937585687
 20
0.011572203546713
 30
0.0
 40
0.125
  1
1
 41
0.8
100
AcDbAttribute
280
     0
  2
OFSHT
 70
     0
280
     0
  0
ATTRIB
  5
8E9
330
8E1
100
AcDbEntity
 67
     1
  8
0
100
AcDbText
 10
17.41947937585687
 20
0.8553222035467129
 30
0.0
 40
0.1875
  1
15Kvar CAPACITOR
 41
0.8000000000000001
100
AcDbAttribute
280
     0
  2
DESC1
 70
     0
280
     0
  0
ATTRIB
  5
8EA
330
8E1
100
AcDbEntity
 67
     1
  8
0
100
AcDbText
 10
17.41947937585687
 20
0.574072203546713
 30
0.0
 40
0.1875
  1

 41
0.8000000000000001
100
AcDbAttribute
280
     0
  2
DESC2
 70
     0
280
     0
  0
ATTRIB
  5
8EB
330
8E1
100
AcDbEntity
 67
     1
  8
0
100
AcDbText
 10
16.79447937585687
 20
1.074072203546712
 30
0.0
 40
0.125
  1
.02
 41
0.8
100
AcDbAttribute
280
     0
  2
TOLXX
 70
     0
280
     0
  0
ATTRIB
  5
8EC
330
8E1
100
AcDbEntity
 67
     1
  8
0
100
AcDbText
 10
16.79447937585687
 20
0.8240722035467129
 30
0.0
 40
0.125
  1
.01
 41
0.8
100
AcDbAttribute
280
     0
  2
TOLXXX
 70
     0
280
     0
  0
ATTRIB
  5
8ED
330
8E1
100
AcDbEntity
 67
     1
  8
0
100
AcDbText
 10
16.54447937585686
 20
0.449072203546713
 30
0.0
 40
0.125
  1
1/32
 41
0.8
100
AcDbAttribute
280
     0
  2
TOLFRAC
 70
     0
280
     0
  0
ATTRIB
  5
8EE
330
8E1
100
AcDbEntity
 67
     1
  8
0
100
AcDbText
 10
16.54447937585686
 20
0.074072203546713
 30
0.0
 40
0.125
  1
1/2%%d
 41
0.8
100
AcDbAttribute
280
     0
  2
TOLANG
 70
     0
280
     0
  0
ATTRIB
  5
8EF
330
8E1
100
AcDbEntity
 67
     1
  8
0
100
AcDbText
 10
19.41947937585687
 20
0.074072203546713
 30
0.0
 40
0.25
  1
C
 41
0.8
100
AcDbAttribute
280
     0
  2
DWG.SIZE
 70
     0
280
     0
  0
SEQEND
  5
8F0
330
8E1
100
AcDbEntity
 67
     1
  8
BORDER
 62
     7
  0
SPLINE
  5
8F1
330
1B
100
AcDbEntity
 67
     1
  8
BORDER
 62
     7
100
AcDbSpline
210
0.0
220
0.0
230
1.0
 70
    24
 71
     3
 72
     8
 73
     4
 74
     0
 42
0.000000001
 43
0.0000000001
 40
2.0
 40
2.0
 40
2.0
 40
2.0
 40
3.0
 40
3.0
 40
3.0
 40
3.0
 10
18.06225892949302
 20
1.383575663796655
 30
0.0
 10
18.06225892949302
 20
1.383575663796655
 30
0.0
 10
18.06225273373337
 20
1.383575663796655
 30
0.0
 10
18.06225273373337
 20
1.383575663796655
 30
0.0
  0
SPLINE
  5
8F2
330
1B
100
AcDbEntity
 67
     1
  8
BORDER
 62
     7
100
AcDbSpline
210
0.0
220
0.0
230
1.0
 70
     8
 71
     3
 72
     8
 73
     4
 74
     0
 42
0.000000001
 43
0.0000000001
 40
3.0
 40
3.0
 40
3.0
 40
3.0
 40
4.0
 40
4.0
 40
4.0
 40
4.0
 10
18.06225273373337
 20
1.383575663796655
 30
0.0
 10
18.06123043339186
 20
1.385149386746633
 30
0.0
 10
18.06032585248361
 20
1.386822241850934
 30
0.0
 10
18.05948942493145
 20
1.388544663032403
 30
0.0
  0
SPLINE
  5
8F3
330
1B
100
AcDbEntity
 67
     1
  8
BORDER
 62
     7
100
AcDbSpline
210
0.0
220
0.0
230
1.0
 70
     8
 71
     3
 72
     8
 73
     4
 74
     0
 42
0.000000001
 43
0.0000000001
 40
4.0
 40
4.0
 40
4.0
 40
4.0
 40
5.0
 40
5.0
 40
5.0
 40
5.0
 10
18.05948942493145
 20
1.388544663032403
 30
0.0
 10
18.05926018182457
 20
1.389015540765468
 30
0.0
 10
18.0590743090352
 20
1.389523593056405
 30
0.0
 10
18.0588574574476
 20
1.390006862308759
 30
0.0
  0
SPLINE
  5
8F4
330
1B
100
AcDbEntity
 67
     1
  8
BORDER
 62
     7
100
AcDbSpline
210
0.0
220
0.0
230
1.0
 70
     8
 71
     3
 72
     8
 73
     4
 74
     0
 42
0.000000001
 43
0.0000000001
 40
5.0
 40
5.0
 40
5.0
 40
5.0
 40
6.0
 40
6.0
 40
6.0
 40
6.0
 10
18.0588574574476
 20
1.390006862308759
 30
0.0
 10
18.05829364331986
 20
1.391295580315038
 30
0.0
 10
18.05774841647105
 20
1.392596689840607
 30
0.0
 10
18.05727753873798
 20
1.393947365443342
 30
0.0
  0
SPLINE
  5
8F5
330
1B
100
AcDbEntity
 67
     1
  8
BORDER
 62
     7
100
AcDbSpline
210
0.0
220
0.0
230
1.0
 70
     8
 71
     3
 72
     8
 73
     4
 74
     0
 42
0.000000001
 43
0.0000000001
 40
6.0
 40
6.0
 40
6.0
 40
6.0
 40
7.0
 40
7.0
 40
7.0
 40
7.0
 10
18.05727753873798
 20
1.393947365443342
 30
0.0
 10
18.05706688291003
 20
1.394529766850025
 30
0.0
 10
18.05689340163996
 20
1.395136951295291
 30
0.0
 10
18.05670752885059
 20
1.395744135740557
 30
0.0
  0
SPLINE
  5
8F6
330
1B
100
AcDbEntity
 67
     1
  8
BORDER
 62
     7
100
AcDbSpline
210
0.0
220
0.0
230
1.0
 70
     8
 71
     3
 72
     8
 73
     4
 74
     0
 42
0.000000001
 43
0.0000000001
 40
7.0
 40
7.0
 40
7.0
 40
7.0
 40
8.0
 40
8.0
 40
8.0
 40
8.0
 10
18.05670752885059
 20
1.395744135740557
 30
0.0
 10
18.05628621719469
 20
1.397070028304709
 30
0.0
 10
18.05589588433702
 20
1.398426899667088
 30
0.0
 10
18.0555675090758
 20
1.399814749827697
 30
0.0
  0
SPLINE
  5
8F7
330
1B
100
AcDbEntity
 67
     1
  8
BORDER
 62
     7
100
AcDbSpline
210
0.0
220
0.0
230
1.0
 70
     8
 71
     3
 72
     8
 73
     4
 74
     0
 42
0.000000001
 43
0.0000000001
 40
8.0
 40
8.0
 40
8.0
 40
8.0
 40
9.0
 40
9.0
 40
9.0
 40
9.0
 10
18.0555675090758
 20
1.399814749827697
 30
0.0
 10
18.05541881084431
 20
1.400409542753671
 30
0.0
 10
18.05528869989176
 20
1.401004335679647
 30
0.0
 10
18.0551585889392
 20
1.401599128605623
 30
0.0
  0
SPLINE
  5
8F8
330
1B
100
AcDbEntity
 67
     1
  8
BORDER
 62
     7
100
AcDbSpline
210
0.0
220
0.0
230
1.0
 70
     8
 71
     3
 72
     8
 73
     4
 74
     0
 42
0.000000001
 43
0.0000000001
 40
9.0
 40
9.0
 40
9.0
 40
9.0
 40
10.0
 40
10.0
 40
10.0
 40
10.0
 10
18.0551585889392
 20
1.401599128605623
 30
0.0
 10
18.05483640943763
 20
1.403098502439851
 30
0.0
 10
18.05455140449393
 20
1.404622659312661
 30
0.0
 10
18.05432835714669
 20
1.406171599224053
 30
0.0
  0
SPLINE
  5
8F9
330
1B
100
AcDbEntity
 67
     1
  8
BORDER
 62
     7
100
AcDbSpline
210
0.0
220
0.0
230
1.0
 70
     8
 71
     3
 72
     8
 73
     4
 74
     0
 42
0.000000001
 43
0.0000000001
 40
10.0
 40
10.0
 40
10.0
 40
10.0
 40
11.0
 40
11.0
 40
11.0
 40
11.0
 10
18.05432835714669
 20
1.406171599224053
 30
0.0
 10
18.05425400803095
 20
1.406667259995698
 30
0.0
 10
18.05416726739591
 20
1.407162920767345
 30
0.0
 10
18.05410530979945
 20
1.407658581538989
 30
0.0
  0
SPLINE
  5
8FA
330
1B
100
AcDbEntity
 67
     1
  8
BORDER
 62
     7
100
AcDbSpline
210
0.0
220
0.0
230
1.0
 70
     8
 71
     3
 72
     8
 73
     4
 74
     0
 42
0.000000001
 43
0.0000000001
 40
11.0
 40
11.0
 40
11.0
 40
11.0
 40
12.0
 40
12.0
 40
12.0
 40
12.0
 10
18.05410530979945
 20
1.407658581538989
 30
0.0
 10
18.05385747941363
 20
1.40950491791337
 30
0.0
 10
18.05367160662426
 20
1.411376037326332
 30
0.0
 10
18.0535414956717
 20
1.413271939777878
 30
0.0
  0
SPLINE
  5
8FB
330
1B
100
AcDbEntity
 67
     1
  8
BORDER
 62
     7
100
AcDbSpline
210
0.0
220
0.0
230
1.0
 70
     8
 71
     3
 72
     8
 73
     4
 74
     0
 42
0.000000001
 43
0.0000000001
 40
12.0
 40
12.0
 40
12.0
 40
12.0
 40
13.0
 40
13.0
 40
13.0
 40
13.0
 10
18.0535414956717
 20
1.413271939777878
 30
0.0
 10
18.05352910415241
 20
1.413494987125118
 30
0.0
 10
18.05351051687347
 20
1.413705642953067
 30
0.0
 10
18.05349192959454
 20
1.413928690300309
 30
0.0
  0
SPLINE
  5
8FC
330
1B
100
AcDbEntity
 67
     1
  8
BORDER
 62
     7
100
AcDbSpline
210
0.0
220
0.0
230
1.0
 70
     8
 71
     3
 72
     8
 73
     4
 74
     0
 42
0.000000001
 43
0.0000000001
 40
13.0
 40
13.0
 40
13.0
 40
13.0
 40
14.0
 40
14.0
 40
14.0
 40
14.0
 10
18.05349192959454
 20
1.413928690300309
 30
0.0
 10
18.05307681369828
 20
1.420694459833272
 30
0.0
 10
18.05333083984376
 20
1.427782408867804
 30
0.0
 10
18.0541115055591
 20
1.43489514094092
 30
0.0
  0
SPLINE
  5
8FD
330
1B
100
AcDbEntity
 67
     1
  8
BORDER
 62
     7
100
AcDbSpline
210
0.0
220
0.0
230
1.0
 70
     8
 71
     3
 72
     8
 73
     4
 74
     0
 42
0.000000001
 43
0.0000000001
 40
14.0
 40
14.0
 40
14.0
 40
14.0
 40
15.0
 40
15.0
 40
15.0
 40
15.0
 10
18.0541115055591
 20
1.43489514094092
 30
0.0
 10
18.05788472318325
 20
1.430582892227604
 30
0.0
 10
18.06056129135013
 20
1.427522186962691
 30
0.0
 10
18.06056129135013
 20
1.427522186962691
 30
0.0
  0
SPLINE
  5
8FE
330
1B
100
AcDbEntity
 67
     1
  8
BORDER
 62
     7
100
AcDbSpline
210
0.0
220
0.0
230
1.0
 70
     8
 71
     3
 72
     8
 73
     4
 74
     0
 42
0.000000001
 43
0.0000000001
 40
15.0
 40
15.0
 40
15.0
 40
15.0
 40
16.0
 40
16.0
 40
16.0
 40
16.0
 10
18.06056129135013
 20
1.427522186962691
 30
0.0
 10
18.08003456391617
 20
1.405205060719345
 30
0.0
 10
18.09923522305779
 20
1.383203918217922
 30
0.0
 10
18.11844207795906
 20
1.362720736829665
 30
0.0
  0
SPLINE
  5
8FF
330
1B
100
AcDbEntity
 67
     1
  8
BORDER
 62
     7
100
AcDbSpline
210
0.0
220
0.0
230
1.0
 70
     8
 71
     3
 72
     8
 73
     4
 74
     0
 42
0.000000001
 43
0.0000000001
 40
16.0
 40
16.0
 40
16.0
 40
16.0
 40
17.0
 40
17.0
 40
17.0
 40
17.0
 10
18.11844207795906
 20
1.362720736829665
 30
0.0
 10
18.11673204829688
 20
1.36268356227179
 30
0.0
 10
18.11512115078904
 20
1.362584430117461
 30
0.0
 10
18.11337394656898
 20
1.362584430117461
 30
0.0
  0
HATCH
  5
900
330
1B
100
AcDbEntity
 67
     1
  8
BORDER
 62
     7
100
AcDbHatch
 10
0.0
 20
0.0
 30
0.0
210
0.0
220
0.0
230
1.0
  2
SOLID
 70
     1
 71
     0
 91
        1
 92
        1
 93
        1
 72
     4
 94
        3
 73
     0
 74
     0
 95
       26
 96
       22
 40
0.0
 40
0.0
 40
0.0
 40
0.0
 40
1.0
 40
1.0
 40
1.0
 40
2.0
 40
2.0
 40
2.0
 40
3.0
 40
3.0
 40
3.0
 40
4.0
 40
4.0
 40
4.0
 40
5.0
 40
5.0
 40
5.0
 40
6.0
 40
6.0
 40
6.0
 40
7.0
 40
7.0
 40
7.0
 40
7.0
 10
17.53845082177752
 20
1.475006488886343
 10
17.59485082183116
 20
1.532676619667316
 10
17.72802247965306
 20
1.65789911786395
 10
17.82123768352067
 20
1.65789911786395
 10
17.86201197774817
 20
1.65789911786395
 10
17.90047525362788
 20
1.637254846724909
 10
17.93831895354302
 20
1.605668864051789
 10
17.93831895354302
 20
1.605668864051789
 10
17.96673270727761
 20
1.688035292780005
 10
17.96673270727761
 20
1.688035292780005
 10
17.96673270727761
 20
1.688035292780005
 10
17.43021709652905
 20
1.688035292780005
 10
17.43021709652905
 20
1.688035292780005
 10
17.43021709652905
 20
1.688035292780005
 10
17.39496322414575
 20
1.585792867108798
 10
17.39496322414575
 20
1.585792867108798
 10
17.39496322414575
 20
1.585792867108798
 10
17.53669742179783
 20
1.585792867108798
 10
17.57667246303105
 20
1.585792867108798
 10
17.57123258606224
 20
1.570006071531883
 10
17.55591047245874
 20
1.525601062152078
 10
17.53845082177752
 20
1.475006488886343
 97
        0
 97
        0
 75
     2
 76
     1
 98
        1
 10
17.06746156504052
 20
0.2180975126279683
450
        0
451
        0
460
0.0
461
0.0
452
        0
462
0.0
453
        0
470

  0
HATCH
  5
901
330
1B
100
AcDbEntity
 67
     1
  8
BORDER
 62
     7
100
AcDbHatch
 10
0.0
 20
0.0
 30
0.0
210
0.0
220
0.0
230
1.0
  2
SOLID
 70
     1
 71
     0
 91
        1
 92
        1
 93
        1
 72
     4
 94
        3
 73
     0
 74
     0
 95
       38
 96
       34
 40
0.0
 40
0.0
 40
0.0
 40
0.0
 40
1.0
 40
1.0
 40
1.0
 40
2.0
 40
2.0
 40
2.0
 40
3.0
 40
3.0
 40
3.0
 40
4.0
 40
4.0
 40
4.0
 40
5.0
 40
5.0
 40
5.0
 40
6.0
 40
6.0
 40
6.0
 40
7.0
 40
7.0
 40
7.0
 40
8.0
 40
8.0
 40
8.0
 40
9.0
 40
9.0
 40
9.0
 40
10.0
 40
10.0
 40
10.0
 40
11.0
 40
11.0
 40
11.0
 40
11.0
 10
18.05250060805125
 20
1.48669169157789
 10
18.05250060805125
 20
1.48669169157789
 10
18.06320068495915
 20
1.474448870518243
 10
18.06320068495915
 20
1.474448870518243
 10
18.06865295344725
 20
1.48992587811288
 10
18.11018313035151
 20
1.59777546626333
 10
18.20823102674267
 20
1.59777546626333
 10
18.26041171447767
 20
1.59777546626333
 10
18.276173727016
 20
1.583264997173404
 10
18.28054173756613
 20
1.57701967145067
 10
18.2821278520354
 20
1.574752023420389
 10
18.28696054455894
 20
1.56783755565593
 10
18.28157642942694
 20
1.553147409536284
 10
18.28157642942694
 20
1.553147409536284
 10
18.27178712918694
 20
1.526418902425293
 10
18.27178712918694
 20
1.526418902425293
 10
18.27178712918694
 20
1.526418902425293
 10
18.45477269455923
 20
1.526418902425293
 10
18.45477269455923
 20
1.526418902425293
 10
18.45477269455923
 20
1.526418902425293
 10
18.45884950440601
 20
1.540916979995925
 10
18.45884950440601
 20
1.540916979995925
 10
18.46881228591609
 20
1.576239005735327
 10
18.46433894745199
 20
1.606734534710828
 10
18.44555340420662
 20
1.631542356331692
 10
18.41324871341461
 20
1.674218748770385
 10
18.34016353263546
 20
1.695854341452718
 10
18.22834865831184
 20
1.695854341452718
 10
18.11236403774676
 20
1.695854341452718
 10
18.01585888550734
 20
1.659039137638735
 10
17.95199919084044
 20
1.593760614013001
 10
17.98543770564759
 20
1.563512915423324
 10
18.01855404095316
 20
1.525588670632785
 10
18.05250060805125
 20
1.48669169157789
 97
        0
 97
        0
 75
     2
 76
     1
 98
        1
 10
17.06746156504052
 20
0.2180975126279683
450
        0
451
        0
460
0.0
461
0.0
452
        0
462
0.0
453
        0
470

  0
HATCH
  5
902
330
1B
100
AcDbEntity
 67
     1
  8
BORDER
 62
     7
100
AcDbHatch
 10
0.0
 20
0.0
 30
0.0
210
0.0
220
0.0
230
1.0
  2
SOLID
 70
     1
 71
     0
 91
        1
 92
        1
 93
        1
 72
     4
 94
        3
 73
     0
 74
     0
 95
       17
 96
       13
 40
0.0
 40
0.0
 40
0.0
 40
0.0
 40
1.0
 40
1.0
 40
1.0
 40
2.0
 40
2.0
 40
2.0
 40
3.0
 40
3.0
 40
3.0
 40
4.0
 40
4.0
 40
4.0
 40
4.0
 10
18.52348366902861
 20
1.676709444147904
 10
18.52348366902861
 20
1.676709444147904
 10
18.39259205075628
 20
1.320750660990568
 10
18.39259205075628
 20
1.320750660990568
 10
18.48388037337412
 20
1.376797502744402
 10
18.58928883222422
 20
1.483792076063764
 10
18.62370627705536
 20
1.519900963278152
 10
18.62370627705536
 20
1.519900963278152
 10
18.68136401631704
 20
1.676709444147904
 10
18.68136401631704
 20
1.676709444147904
 10
18.68136401631704
 20
1.676709444147904
 10
18.52348366902861
 20
1.676709444147904
 10
18.52348366902861
 20
1.676709444147904
 97
        0
 97
        0
 75
     2
 76
     1
 98
        1
 10
17.06746156504052
 20
0.2180975126279683
450
        0
451
        0
460
0.0
461
0.0
452
        0
462
0.0
453
        0
470

  0
HATCH
  5
903
330
1B
100
AcDbEntity
 67
     1
  8
BORDER
 62
     7
100
AcDbHatch
 10
0.0
 20
0.0
 30
0.0
210
0.0
220
0.0
230
1.0
  2
SOLID
 70
     1
 71
     0
 91
        2
 92
        1
 93
      248
 72
     1
 10
18.37974204525136
 20
1.285818968108838
 11
18.37972573877255
 21
1.285814141741795
 72
     1
 10
18.37972573877254
 20
1.285814141741795
 11
18.37970656279914
 21
1.285807314626232
 72
     1
 10
18.37970656279914
 20
1.285807314626232
 11
18.37684446264332
 21
1.284403794625504
 72
     1
 10
18.37684446264332
 20
1.284403794625504
 11
18.37247184567223
 21
1.282328132516462
 72
     1
 10
18.37247184567223
 20
1.282328132516462
 11
18.36941366816642
 21
1.280928239946895
 72
     1
 10
18.36941366816642
 20
1.280928239946894
 11
18.3690238429431
 21
1.280751046663567
 72
     1
 10
18.3690238429431
 20
1.280751046663567
 11
18.36086237951511
 21
1.277229579356597
 72
     1
 10
18.36086237951511
 20
1.277229579356597
 11
18.35238302385385
 21
1.273908619311098
 72
     1
 10
18.35238302385385
 20
1.273908619311098
 11
18.34885296952328
 21
1.272639393689236
 72
     1
 10
18.34885296952328
 20
1.272639393689236
 11
18.34851773453655
 21
1.272517441336605
 72
     1
 10
18.34851773453655
 20
1.272517441336605
 11
18.34723570378271
 21
1.272069043641772
 72
     1
 10
18.34723570378271
 20
1.272069043641772
 11
18.34323385404386
 21
1.270747571947257
 72
     1
 10
18.34323385404386
 20
1.270747571947257
 11
18.33925174853384
 21
1.269520451340835
 72
     1
 10
18.33925174853384
 20
1.269520451340835
 11
18.33844567328984
 21
1.269283211680393
 72
     1
 10
18.33844567328984
 20
1.269283211680393
 11
18.33796211993803
 21
1.269140757612918
 72
     1
 10
18.33796211993803
 20
1.269140757612917
 11
18.33334409752376
 21
1.267873212279971
 72
     1
 10
18.33334409752376
 20
1.267873212279971
 11
18.32556353198364
 21
1.266037812277304
 72
     1
 10
18.32556353198364
 20
1.266037812277304
 11
18.31937633171506
 21
1.264869370519605
 72
     1
 10
18.31937633171506
 20
1.264869370519605
 11
18.31875282676105
 21
1.264768197146341
 72
     1
 10
18.31875282676105
 20
1.264768197146342
 11
18.31812974301725
 21
1.264667444983292
 72
     1
 10
18.31812974301725
 20
1.264667444983292
 11
18.31494279415816
 21
1.264206734140437
 72
     1
 10
18.31494279415816
 20
1.264206734140437
 11
18.31137346680915
 21
1.26379105649614
 72
     1
 10
18.31137346680915
 20
1.26379105649614
 11
18.30931194109783
 21
1.263594878472353
 72
     1
 10
18.30931194109783
 20
1.263594878472353
 11
18.30865506956446
 21
1.263542041627942
 72
     1
 10
18.30865506956446
 20
1.263542041627942
 11
18.30750699355197
 21
1.263456096543016
 72
     1
 10
18.30750699355197
 20
1.263456096543016
 11
18.30388790587571
 21
1.263239979313917
 72
     1
 10
18.30388790587571
 20
1.263239979313917
 11
18.30030235706279
 21
1.263144960021546
 72
     1
 10
18.30030235706279
 20
1.263144960021545
 11
18.29690363792815
 21
1.263173939492304
 72
     1
 10
18.29690363792815
 20
1.263173939492304
 11
18.29354535166966
 21
1.263298153998189
 72
     1
 10
18.29354535166966
 20
1.263298153998189
 11
18.29137102666783
 21
1.263436171500945
 72
     1
 10
18.29137102666783
 20
1.263436171500945
 11
18.29053932181984
 21
1.263521058401268
 72
     1
 10
18.29053932181984
 20
1.263521058401269
 11
18.28950235576488
 21
1.263613227494033
 72
     1
 10
18.28950235576488
 20
1.263613227494033
 11
18.28697050878391
 21
1.263834039139958
 72
     1
 10
18.28697050878391
 20
1.263834039139958
 11
18.28444187353082
 21
1.264100446791625
 72
     1
 10
18.28444187353083
 20
1.264100446791625
 11
18.28324488836013
 21
1.264265749930444
 72
     1
 10
18.28324488836013
 20
1.264265749930445
 11
18.28243943544682
 21
1.26439869537054
 72
     1
 10
18.28243943544682
 20
1.26439869537054
 11
18.28089093773607
 21
1.264630255386205
 72
     1
 10
18.28089093773606
 20
1.264630255386205
 11
18.27833078232111
 21
1.265035953198344
 72
     1
 10
18.27833078232111
 20
1.265035953198343
 11
18.27591933159811
 21
1.265469102572001
 72
     1
 10
18.27591933159812
 20
1.265469102572002
 11
18.27524199075379
 21
1.265613001490343
 72
     1
 10
18.27524199075379
 20
1.265613001490343
 11
18.27456830917321
 21
1.265766535592346
 72
     1
 10
18.27456830917321
 20
1.265766535592345
 11
18.27242897447161
 21
1.266211595742341
 72
     1
 10
18.27242897447161
 20
1.266211595742341
 11
18.26973851547892
 21
1.266824876043807
 72
     1
 10
18.26973851547892
 20
1.266824876043807
 11
18.26787548358783
 21
1.267293414032302
 72
     1
 10
18.26787548358783
 20
1.267293414032302
 11
18.26737221060196
 21
1.267433891181194
 72
     1
 10
18.26737221060196
 20
1.267433891181194
 11
18.26680123684522
 21
1.267587186277006
 72
     1
 10
18.26680123684522
 20
1.267587186277006
 11
18.26393736491477
 21
1.268372422911403
 72
     1
 10
18.26393736491477
 20
1.268372422911403
 11
18.26107938992733
 21
1.269221683498434
 72
     1
 10
18.26107938992733
 20
1.269221683498434
 11
18.25993822290851
 21
1.269581517858415
 72
     1
 10
18.25993822290851
 20
1.269581517858414
 11
18.25960583008439
 21
1.269695585883605
 72
     1
 10
18.25960583008439
 20
1.269695585883605
 11
18.25838441710505
 21
1.270099075788388
 72
     1
 10
18.25838441710505
 20
1.270099075788388
 11
18.255358955548
 21
1.271129624704386
 72
     1
 10
18.255358955548
 20
1.271129624704386
 11
18.25233820628023
 21
1.272229357398147
 72
     1
 10
18.25233820628023
 20
1.272229357398147
 11
18.25211196198433
 21
1.272317090401108
 72
     1
 10
18.25211196198433
 20
1.272317090401107
 11
18.25193785145742
 21
1.272387297094963
 72
     1
 10
18.25193785145742
 20
1.272387297094963
 11
18.24986758612973
 21
1.273194149287631
 72
     1
 10
18.24986758612973
 20
1.273194149287631
 11
18.24670733641841
 21
1.274481855734411
 72
     1
 10
18.24670733641841
 20
1.274481855734411
 11
18.2444454243151
 21
1.275449772010309
 72
     1
 10
18.2444454243151
 20
1.275449772010309
 11
18.24430306685547
 21
1.275509087618489
 72
     1
 10
18.24430306685547
 20
1.275509087618489
 11
18.24126928390504
 21
1.276866428195138
 72
     1
 10
18.24126928390504
 20
1.276866428195139
 11
18.23803417305454
 21
1.278392144577852
 72
     1
 10
18.23803417305454
 20
1.278392144577852
 11
18.23669686358178
 21
1.279042743231474
 72
     1
 10
18.23669686358178
 20
1.279042743231473
 11
18.23669264560265
 21
1.279050135502944
 72
     1
 10
18.23669264560265
 20
1.279050135502945
 11
18.24889347849361
 21
1.282066943936093
 72
     1
 10
18.24889347849361
 20
1.282066943936092
 11
18.29585398526641
 21
1.297742063179045
 72
     1
 10
18.29585398526641
 20
1.297742063179045
 11
18.33591446323266
 21
1.318271472192639
 72
     1
 10
18.33591446323266
 20
1.318271472192639
 11
18.3443856987078
 21
1.323839110066816
 72
     1
 10
18.34438569870781
 20
1.323839110066816
 11
18.34929717831145
 21
1.327322957544582
 72
     1
 10
18.34929717831145
 20
1.327322957544583
 11
18.35150598072814
 21
1.32895551793673
 72
     1
 10
18.35150598072814
 20
1.32895551793673
 11
18.35151221962268
 21
1.328962852243494
 72
     1
 10
18.35151221962268
 20
1.328962852243494
 11
18.35225014982712
 21
1.32951943725846
 72
     1
 10
18.35225014982712
 20
1.32951943725846
 11
18.35600912365377
 21
1.332429411902809
 72
     1
 10
18.35600912365377
 20
1.332429411902809
 11
18.35967395699743
 21
1.335399935515525
 72
     1
 10
18.35967395699743
 20
1.335399935515525
 11
18.36043761285534
 21
1.336037763437464
 72
     1
 10
18.36043761285534
 20
1.336037763437463
 11
18.36066961362215
 21
1.336230837199252
 72
     1
 10
18.36066961362215
 20
1.336230837199253
 11
18.36252080934245
 21
1.337801316831018
 72
     1
 10
18.36252080934245
 20
1.337801316831018
 11
18.36596021238001
 21
1.340825197923935
 72
     1
 10
18.36596021238001
 20
1.340825197923935
 11
18.36883764895037
 21
1.343470511610875
 72
     1
 10
18.36883764895037
 20
1.343470511610876
 11
18.36897083337413
 21
1.343597137448632
 72
     1
 10
18.36897083337412
 20
1.343597137448632
 11
18.36910762441034
 21
1.343723763286389
 72
     1
 10
18.36910762441035
 20
1.343723763286388
 11
18.37451323324215
 21
1.349011134202504
 72
     1
 10
18.37451323324215
 20
1.349011134202504
 11
18.38089505807849
 21
1.35583823793138
 72
     1
 10
18.38089505807849
 20
1.355838237931381
 11
18.38434247813009
 21
1.359838863761803
 72
     1
 10
18.38434247813009
 20
1.359838863761802
 11
18.38457709680855
 21
1.360130917818214
 72
     1
 10
18.38457709680855
 20
1.360130917818214
 11
18.38504598876989
 21
1.360699558870641
 72
     1
 10
18.3850459887699
 20
1.360699558870642
 11
18.38752668125161
 21
1.363774432322644
 72
     1
 10
18.38752668125161
 20
1.363774432322643
 11
18.38993639981215
 21
1.366895217688048
 72
     1
 10
18.38993639981215
 20
1.366895217688048
 11
18.39110397711833
 21
1.368469644452042
 72
     1
 10
18.39110397711833
 20
1.368469644452042
 11
18.39186186330631
 21
1.36953384872435
 72
     1
 10
18.39186186330631
 20
1.36953384872435
 11
18.39302233114202
 21
1.371155235608709
 72
     1
 10
18.39302233114202
 20
1.371155235608709
 11
18.39474934659941
 21
1.373626741529454
 72
     1
 10
18.39474934659941
 20
1.373626741529454
 11
18.39638882096888
 21
1.376064410644707
 72
     1
 10
18.39638882096888
 20
1.376064410644707
 11
18.39726036797998
 21
1.377390870041372
 72
     1
 10
18.39726036797998
 20
1.377390870041372
 11
18.39812146371263
 21
1.378732177098104
 72
     1
 10
18.39812146371263
 20
1.378732177098104
 11
18.3993957096621
 21
1.38077716476426
 72
     1
 10
18.3993957096621
 20
1.38077716476426
 11
18.40080953060935
 21
1.383132021056612
 72
     1
 10
18.40080953060935
 20
1.383132021056612
 11
18.40200554863393
 21
1.385180457761777
 72
     1
 10
18.40200554863393
 20
1.385180457761776
 11
18.40285557193992
 21
1.386654833675127
 72
     1
 10
18.40285557193992
 20
1.386654833675127
 11
18.40369465559078
 21
1.388145570117095
 72
     1
 10
18.40369465559078
 20
1.388145570117095
 11
18.40499433557392
 21
1.390580032241793
 72
     1
 10
18.40499433557392
 20
1.390580032241793
 11
18.40625268430473
 21
1.393035660179778
 72
     1
 10
18.40625268430473
 20
1.393035660179778
 11
18.407161379941
 21
1.394830405271473
 72
     1
 10
18.407161379941
 20
1.394830405271473
 11
18.40789985749168
 21
1.39627583682969
 72
     1
 10
18.40789985749168
 20
1.39627583682969
 11
18.40886631794714
 21
1.398296912984131
 72
     1
 10
18.40886631794714
 20
1.398296912984131
 11
18.41034345149124
 21
1.401575908150592
 72
     1
 10
18.41034345149125
 20
1.401575908150592
 11
18.41176606463818
 21
1.404884835567937
 72
     1
 10
18.41176606463818
 20
1.404884835567937
 11
18.41209795338352
 21
1.40563895370458
 72
     1
 10
18.41209795338352
 20
1.405638953704581
 11
18.41239581711384
 21
1.406296209656668
 72
     1
 10
18.41239581711385
 20
1.406296209656668
 11
18.41440022243792
 21
1.411201271984337
 72
     1
 10
18.41440022243792
 20
1.411201271984337
 11
18.42108525724261
 21
1.427589432736811
 72
     1
 10
18.42108525724261
 20
1.427589432736812
 11
18.41714443934444
 21
1.433940993955502
 72
     1
 10
18.41714443934444
 20
1.433940993955501
 11
18.24081611972821
 21
1.433940993955501
 72
     1
 10
18.24081611972822
 20
1.433940993955501
 11
18.23864340490075
 21
1.429280123245106
 72
     1
 10
18.23864340490075
 20
1.429280123245106
 11
18.23609215870174
 21
1.4213957434757
 72
     1
 10
18.23609215870174
 20
1.4213957434757
 11
18.23532110399964
 21
1.419073443542671
 72
     1
 10
18.23532110399963
 20
1.419073443542671
 11
18.23457134019693
 21
1.417127993354681
 72
     1
 10
18.23457134019693
 20
1.41712799335468
 11
18.23386241472272
 21
1.415476387580707
 72
     1
 10
18.23386241472272
 20
1.415476387580707
 11
18.23359805717009
 21
1.414912823609674
 72
     1
 10
18.23359805717009
 20
1.414912823609673
 11
18.23332748676678
 21
1.414348733125872
 72
     1
 10
18.23332748676678
 20
1.414348733125872
 11
18.23270245414283
 21
1.413088628426669
 72
     1
 10
18.23270245414284
 20
1.413088628426669
 11
18.2319808785376
 21
1.411721763522386
 72
     1
 10
18.23198087853759
 20
1.411721763522386
 11
18.23140033303672
 21
1.410670652433351
 72
     1
 10
18.23140033303672
 20
1.410670652433351
 11
18.23097278055708
 21
1.409921443521968
 72
     1
 10
18.23097278055708
 20
1.409921443521969
 11
18.23048003874317
 21
1.409102683669821
 72
     1
 10
18.23048003874317
 20
1.409102683669821
 11
18.22973418506258
 21
1.407938939662953
 72
     1
 10
18.22973418506258
 20
1.407938939662953
 11
18.2289512648831
 21
1.406781935019518
 72
     1
 10
18.2289512648831
 20
1.406781935019518
 11
18.22642491005751
 21
1.403333311000743
 72
     1
 10
18.22642491005751
 20
1.403333311000742
 11
18.22313998634923
 21
1.399433719903568
 72
     1
 10
18.22313998634923
 20
1.399433719903568
 11
18.2211006925295
 21
1.397274846395196
 72
     1
 10
18.2211006925295
 20
1.397274846395196
 11
18.22081226428636
 21
1.396981322611399
 72
     1
 10
18.22081226428636
 20
1.3969813226114
 11
18.22004009393903
 21
1.396211540247199
 72
     1
 10
18.22004009393903
 20
1.396211540247199
 11
18.21570425368355
 21
1.392287609970216
 72
     1
 10
18.21570425368355
 20
1.392287609970216
 11
18.21085998637327
 21
1.388483935209531
 72
     1
 10
18.21085998637327
 20
1.388483935209531
 11
18.19610969610649
 21
1.379514879806158
 72
     1
 10
18.19610969610649
 20
1.379514879806158
 11
18.1743587454689
 21
1.370898368897089
 72
     1
 10
18.1743587454689
 20
1.37089836889709
 11
18.15976200126377
 21
1.367175085786433
 72
     1
 10
18.15976200126377
 20
1.367175085786432
 11
18.15980458117251
 21
1.367132505877687
 72
     1
 10
18.15980458117251
 20
1.367132505877687
 11
18.15893493188003
 21
1.366923502025462
 72
     1
 10
18.15893493188003
 20
1.366923502025462
 11
18.1476447168785
 21
1.364982771211325
 72
     1
 10
18.1476447168785
 20
1.364982771211325
 11
18.13551571438567
 21
1.363597721972936
 72
     1
 10
18.13551571438567
 20
1.363597721972936
 11
18.13213272824706
 21
1.363345165332537
 72
     1
 10
18.13213272824706
 20
1.363345165332537
 11
18.13209565096029
 21
1.363389658076662
 72
     1
 10
18.13209565096029
 20
1.363389658076662
 11
18.12955496724216
 21
1.366064319514848
 72
     1
 10
18.12955496724216
 20
1.366064319514849
 11
18.12299320847862
 21
1.373056996454659
 72
     1
 10
18.12299320847862
 20
1.373056996454659
 11
18.11666932280099
 21
1.37990860934552
 72
     1
 10
18.11666932280099
 20
1.379908609345519
 11
18.11566171647761
 21
1.381004602188493
 72
     1
 10
18.11566171647761
 20
1.381004602188494
 11
18.11132182297673
 21
1.385773343685034
 72
     1
 10
18.11132182297673
 20
1.385773343685034
 11
18.1050774008653
 21
1.392691392994877
 72
     1
 10
18.10507740086531
 20
1.392691392994877
 11
18.10076222375616
 21
1.397512692824934
 72
     1
 10
18.10076222375616
 20
1.397512692824934
 11
18.10022066777732
 21
1.398126606431092
 72
     1
 10
18.10022066777732
 20
1.398126606431092
 11
18.09968005952147
 21
1.398743415857477
 72
     1
 10
18.09968005952147
 20
1.398743415857476
 11
18.09343972727299
 21
1.405764927952688
 72
     1
 10
18.09343972727299
 20
1.405764927952688
 11
18.08713808083151
 21
1.412909206515525
 72
     1
 10
18.0871380808315
 20
1.412909206515525
 11
18.08461917947935
 21
1.415780304961128
 72
     1
 10
18.08461917947935
 20
1.415780304961129
 11
18.08420985327773
 21
1.416247721904183
 72
     1
 10
18.08420985327772
 20
1.416247721904183
 11
18.08198302141486
 21
1.418789989807843
 72
     1
 10
18.08198302141486
 20
1.418789989807843
 11
18.07537349598801
 21
1.426347092138657
 72
     1
 10
18.07537349598802
 20
1.426347092138657
 11
18.06874004055585
 21
1.433943261716886
 72
     1
 10
18.06874004055585
 20
1.433943261716886
 11
18.05671100654919
 21
1.447701042306038
 72
     1
 10
18.05671100654919
 20
1.447701042306037
 11
18.03813045250615
 21
1.468950994428503
 72
     1
 10
18.03813045250615
 20
1.468950994428503
 11
18.01015001510028
 21
1.50087473031075
 72
     1
 10
18.01015001510028
 20
1.50087473031075
 11
17.96812238717312
 21
1.546681350377882
 72
     1
 10
17.96812238717312
 20
1.546681350377882
 11
17.93683081790322
 21
1.577142433318714
 72
     1
 10
17.93683081790322
 20
1.577142433318714
 11
17.93679499667948
 21
1.577106612094971
 72
     1
 10
17.93679499667948
 20
1.577106612094971
 11
17.93306427596257
 21
1.580473457183154
 72
     1
 10
17.93306427596257
 20
1.580473457183154
 11
17.92891370681532
 21
1.584149910035666
 72
     1
 10
17.92891370681532
 20
1.584149910035666
 11
17.9023082954389
 21
1.60503974060843
 72
     1
 10
17.9023082954389
 20
1.60503974060843
 11
17.85734637981196
 21
1.628972893576019
 72
     1
 10
17.85734637981195
 20
1.628972893576019
 11
17.79910132603481
 21
1.632644647199776
 72
     1
 10
17.79910132603481
 20
1.632644647199775
 11
17.66819861000618
 21
1.559036355251108
 72
     1
 10
17.66819861000617
 20
1.559036355251109
 11
17.54705349185756
 21
1.451652769397943
 72
     1
 10
17.54705349185756
 20
1.451652769397942
 11
17.52910707585734
 21
1.43373144028719
 72
     1
 10
17.52910707585734
 20
1.43373144028719
 11
17.52396051530668
 21
1.428498504592321
 72
     1
 10
17.52396051530668
 20
1.428498504592321
 11
17.51982923038976
 21
1.421039440367416
 72
     1
 10
17.51982923038976
 20
1.421039440367416
 11
17.51642793226469
 21
1.411170589695387
 72
     1
 10
17.51642793226469
 20
1.411170589695387
 11
17.50886764279963
 21
1.389247002469722
 72
     1
 10
17.50886764279963
 20
1.389247002469722
 11
17.48250480085956
 21
1.312843556235506
 72
     1
 10
17.48250480085956
 20
1.312843556235506
 11
17.46894359036991
 21
1.273536567471822
 72
     1
 10
17.4689435903699
 20
1.273536567471823
 11
17.51581656559185
 21
1.272324603600785
 72
     1
 10
17.51581656559185
 20
1.272324603600784
 11
17.61825116098663
 21
1.272324603600784
 72
     1
 10
17.61825116098663
 20
1.272324603600784
 11
17.64163593335184
 21
1.272452727173338
 72
     1
 10
17.64163593335184
 20
1.272452727173339
 11
17.64203147840377
 21
1.273599887557629
 72
     1
 10
17.64203147840377
 20
1.273599887557629
 11
17.64474912259361
 21
1.28148501651055
 72
     1
 10
17.64474912259361
 20
1.28148501651055
 11
17.69335960457385
 21
1.422385391420245
 72
     1
 10
17.69335960457386
 20
1.422385391420245
 11
17.74499669255186
 21
1.572059733056066
 72
     1
 10
17.74499669255186
 20
1.572059733056066
 11
17.78953245958292
 21
1.585786671349151
 72
     1
 10
17.78953245958292
 20
1.585786671349151
 11
17.88558393893724
 21
1.585786671349151
 72
     1
 10
17.88558393893724
 20
1.585786671349151
 11
17.91417677050024
 21
1.583012348021389
 72
     1
 10
17.91417677050024
 20
1.583012348021389
 11
17.92250943942245
 21
1.575981266805518
 72
     1
 10
17.92250943942245
 20
1.575981266805518
 11
17.92878399754312
 21
1.567030538919346
 72
     1
 10
17.92878399754312
 20
1.567030538919346
 11
17.90707686271042
 21
1.533957908949652
 72
     1
 10
17.90707686271042
 20
1.533957908949652
 11
17.88991353306885
 21
1.497594890085237
 72
     1
 10
17.88991353306885
 20
1.497594890085237
 11
17.87392645636373
 21
1.434628484285481
 72
     1
 10
17.87392645636373
 20
1.434628484285481
 11
17.87971617641292
 21
1.37068946677411
 72
     1
 10
17.87971617641292
 20
1.37068946677411
 11
17.91518776767264
 21
1.315881724936994
 72
     1
 10
17.91518776767264
 20
1.315881724936995
 11
17.98853411058281
 21
1.277171969549044
 72
     1
 10
17.98853411058282
 20
1.277171969549044
 11
18.09338370057409
 21
1.264517957786232
 72
     1
 10
18.09338370057409
 20
1.264517957786232
 11
18.10062179811705
 21
1.264551881068304
 72
     1
 10
18.10062179811705
 20
1.264551881068304
 11
18.10778689466467
 21
1.264647353693
 72
     1
 10
18.10778689466467
 20
1.264647353693
 11
18.11129833320222
 21
1.264717812488283
 72
     1
 10
18.11129833320222
 20
1.264717812488283
 11
18.11301504857244
 21
1.264768505765575
 72
     1
 10
18.11301504857244
 20
1.264768505765575
 11
18.11589468542825
 21
1.264844432599736
 72
     1
 10
18.11589468542825
 20
1.264844432599736
 11
18.12119667548662
 21
1.264990820860784
 72
     1
 10
18.12119667548662
 20
1.264990820860784
 11
18.12645191121116
 21
1.265181014984163
 72
     1
 10
18.12645191121116
 20
1.265181014984163
 11
18.12860201902718
 21
1.26527415940479
 72
     1
 10
18.12860201902718
 20
1.26527415940479
 11
18.130655205079
 21
1.265373612594824
 72
     1
 10
18.130655205079
 20
1.265373612594824
 11
18.13445630734037
 21
1.265553856784254
 72
     1
 10
18.13445630734037
 20
1.265553856784254
 11
18.1392849720405
 21
1.265809611649601
 72
     1
 10
18.1392849720405
 20
1.2658096116496
 11
18.14331743056287
 21
1.266049246870757
 72
     1
 10
18.14331743056287
 20
1.266049246870757
 11
18.14535217900701
 21
1.266181573618095
 72
     1
 10
18.14535217900701
 20
1.266181573618095
 11
18.14738192557985
 21
1.266317743908643
 72
     1
 10
18.14738192557985
 20
1.266317743908643
 11
18.15194599397449
 21
1.266647790267732
 72
     1
 10
18.15194599397449
 20
1.266647790267732
 11
18.15667804728492
 21
1.267007178142138
 72
     1
 10
18.15667804728493
 20
1.267007178142138
 11
18.15973513077851
 21
1.267263282526995
 72
     1
 10
18.15973513077851
 20
1.267263282526995
 11
18.16158346005092
 21
1.267432521039658
 72
     1
 10
18.16158346005092
 20
1.267432521039658
 11
18.16411706632985
 21
1.267668629963596
 72
     1
 10
18.16411706632985
 20
1.267668629963596
 11
18.16894983911767
 21
1.268133247613765
 72
     1
 10
18.16894983911767
 20
1.268133247613765
 11
18.17373543636145
 21
1.268631877988772
 72
     1
 10
18.17373543636145
 20
1.268631877988772
 11
18.17570972638493
 21
1.26884723349971
 72
     1
 10
18.17570972638493
 20
1.26884723349971
 11
18.17729695837803
 21
1.269021344026624
 72
     1
 10
18.17729695837803
 20
1.269021344026624
 11
18.18072470014601
 21
1.269426674676504
 72
     1
 10
18.18072470014601
 20
1.269426674676504
 11
18.18574364957963
 21
1.2700559704659
 72
     1
 10
18.18574364957963
 20
1.2700559704659
 11
18.19002577657214
 21
1.270618833523366
 72
     1
 10
18.19002577657214
 20
1.270618833523365
 11
18.19123477531753
 21
1.27077711582056
 72
     1
 10
18.19123477531753
 20
1.27077711582056
 11
18.19244366876036
 21
1.270935398117755
 72
     1
 10
18.19244366876036
 20
1.270935398117755
 11
18.19717853133468
 21
1.27162313367804
 72
     1
 10
18.19717853133468
 20
1.27162313367804
 11
18.20255466151566
 21
1.272452693670803
 72
     1
 10
18.20255466151566
 20
1.272452693670802
 11
18.2056187995436
 21
1.272947114099613
 72
     1
 10
18.2056187995436
 20
1.272947114099613
 11
18.20628930296752
 21
1.273050678839126
 72
     1
 10
18.20628930296752
 20
1.273050678839126
 11
18.20768998840981
 21
1.273282358980888
 72
     1
 10
18.20768998840981
 20
1.273282358980888
 11
18.21367114431525
 21
1.274329742619361
 72
     1
 10
18.21367114431525
 20
1.274329742619362
 11
18.21957858843311
 21
1.275431041165317
 72
     1
 10
18.21957858843311
 20
1.275431041165317
 11
18.24666024773279
 21
1.263236967751875
 72
     1
 10
18.24666024773279
 20
1.263236967751875
 11
18.28030485396284
 21
1.254159069678548
 72
     1
 10
18.28030485396284
 20
1.254159069678548
 11
18.31714221807226
 21
1.253998765754311
 72
     1
 10
18.31714221807226
 20
1.253998765754312
 11
18.35891837484678
 21
1.265213842030105
 72
     1
 10
18.35891837484678
 20
1.265213842030104
 11
18.39888516269692
 21
1.283638060713597
 72
     1
 10
18.39888516269692
 20
1.283638060713597
 11
18.53222512025802
 21
1.283638060713597
 72
     1
 10
18.53222512025802
 20
1.283638060713597
 11
18.55091661005758
 21
1.321934484309979
 72
     1
 10
18.55091661005758
 20
1.321934484309979
 11
18.58644130164632
 21
1.418551273258624
 72
     1
 10
18.58644130164632
 20
1.418551273258624
 11
18.59694441418613
 21
1.447116315849811
 72
     1
 10
18.59694441418613
 20
1.447116315849811
 11
18.60213190418097
 21
1.461222096724658
 72
     1
 10
18.60213190418097
 20
1.461222096724658
 11
18.60545302201116
 21
1.470253794109842
 72
     1
 10
18.60545302201116
 20
1.470253794109842
 11
18.60544868734113
 21
1.470250773401076
 72
     1
 10
18.60544868734113
 20
1.470250773401076
 11
18.60545240376451
 21
1.470258206247842
 72
     1
 10
18.60545240376451
 20
1.470258206247842
 11
18.59065829395556
 21
1.454523213614167
 72
     1
 10
18.59065829395556
 20
1.454523213614167
 11
18.50239329926393
 21
1.370957306052886
 72
     1
 10
18.50239329926393
 20
1.370957306052886
 11
18.37974204525136
 21
1.285818968108838
 97
        0
 92
        1
 93
       42
 72
     1
 10
18.07995401904077
 20
1.405354906313744
 11
18.09922696204496
 21
1.383665387575218
 72
     1
 10
18.09922696204496
 20
1.383665387575218
 11
18.11844207795906
 21
1.362720736829664
 72
     1
 10
18.11844207795906
 20
1.362720736829665
 11
18.11592195272321
 21
1.36263864301436
 72
     1
 10
18.11592195272321
 20
1.362638643014359
 11
18.11337394656898
 21
1.36258443011746
 72
     1
 10
18.11337394656898
 20
1.362584430117461
 11
18.10527121879415
 21
1.36284001157708
 72
     1
 10
18.10527121879415
 20
1.362840011577079
 11
18.09779326836233
 21
1.363608387760943
 72
     1
 10
18.09779326836233
 20
1.363608387760944
 11
18.09093152829725
 21
1.364892006376569
 72
     1
 10
18.09093152829725
 20
1.364892006376569
 11
18.08467743162259
 21
1.366693315131467
 72
     1
 10
18.08467743162259
 20
1.366693315131466
 11
18.07902266633159
 21
1.369014795729093
 72
     1
 10
18.07902266633159
 20
1.369014795729093
 11
18.0739606542103
 21
1.37185971177946
 72
     1
 10
18.0739606542103
 20
1.37185971177946
 11
18.0694842561118
 21
1.37523210879916
 72
     1
 10
18.0694842561118
 20
1.37523210879916
 11
18.06558612891355
 21
1.379136066300715
 72
     1
 10
18.06558612891355
 20
1.379136066300715
 11
18.06222835322001
 21
1.383616462777393
 72
     1
 10
18.06222835322001
 20
1.383616462777393
 11
18.0608013770364
 21
1.386004401577734
 72
     1
 10
18.0608013770364
 20
1.386004401577733
 11
18.05948942493146
 21
1.388544663032407
 72
     1
 10
18.05948942493146
 20
1.388544663032407
 11
18.0591687943698
 21
1.389271115850835
 72
     1
 10
18.0591687943698
 20
1.389271115850835
 11
18.0588574574476
 21
1.390006862308759
 72
     1
 10
18.0588574574476
 20
1.390006862308759
 11
18.05803264694479
 21
1.391953879777378
 72
     1
 10
18.05803264694479
 20
1.391953879777378
 11
18.05727753873799
 21
1.393947365443338
 72
     1
 10
18.05727753873799
 20
1.393947365443338
 11
18.05698324015483
 21
1.394836456952441
 72
     1
 10
18.05698324015483
 20
1.394836456952442
 11
18.05670752885068
 21
1.395744135740518
 72
     1
 10
18.05670752885068
 20
1.395744135740518
 11
18.05610266781519
 21
1.397756208685429
 72
     1
 10
18.05610266781519
 20
1.397756208685429
 11
18.0555675090758
 21
1.399814749827672
 72
     1
 10
18.0555675090758
 20
1.399814749827672
 11
18.05535607877792
 21
1.400706939216625
 72
     1
 10
18.05535607877792
 20
1.400706939216625
 11
18.0551585889392
 21
1.401599128605602
 72
     1
 10
18.0551585889392
 20
1.401599128605602
 11
18.05470629848507
 21
1.403866776635943
 72
     1
 10
18.05470629848507
 20
1.403866776635943
 11
18.05432835714668
 21
1.406171599223985
 72
     1
 10
18.05432835714668
 20
1.406171599223985
 11
18.05421218665333
 21
1.406915090381671
 72
     1
 10
18.05421218665333
 20
1.406915090381671
 11
18.05410530979946
 21
1.407658581538961
 72
     1
 10
18.05410530979946
 20
1.40765858153896
 11
18.05377925794811
 21
1.410446673379466
 72
     1
 10
18.05377925794811
 20
1.410446673379466
 11
18.0535414956717
 21
1.413271939777883
 72
     1
 10
18.0535414956717
 20
1.413271939777883
 11
18.05351903604299
 21
1.413600315039102
 72
     1
 10
18.05351903604299
 20
1.413600315039102
 11
18.05349192959454
 21
1.413928690300324
 72
     1
 10
18.05349192959454
 20
1.413928690300324
 11
18.0532945831762
 21
1.420790838316639
 72
     1
 10
18.0532945831762
 20
1.420790838316639
 11
18.05351166423637
 21
1.427801684564461
 72
     1
 10
18.05351166423637
 20
1.42780168456446
 11
18.0541115055591
 21
1.43489514094092
 72
     1
 10
18.0541115055591
 20
1.43489514094092
 11
18.05623119884904
 21
1.43247245022127
 72
     1
 10
18.05623119884904
 20
1.432472450221271
 11
18.05801186017118
 21
1.430436969696431
 72
     1
 10
18.05801186017118
 20
1.43043696969643
 11
18.05937765342745
 21
1.428875539133592
 72
     1
 10
18.05937765342745
 20
1.428875539133592
 11
18.06025274251979
 21
1.427874998299948
 72
     1
 10
18.06025274251979
 20
1.427874998299948
 11
18.06056129135014
 21
1.427522186962691
 72
     1
 10
18.06056129135013
 20
1.427522186962691
 11
18.07995401904076
 21
1.405354906313744
 97
        0
 75
     2
 76
     1
 98
        1
 10
17.06746156504052
 20
0.2180975126279683
450
        0
451
        0
460
0.0
461
0.0
452
        0
462
0.0
453
        0
470

  0
INSERT
  5
904
330
1B
100
AcDbEntity
 67
     1
  8
BORDER
 62
     7
100
AcDbBlockReference
 66
     1
  2
REVISE12
 10
12.26322937585687
 20
0.230322203546713
 30
0.0
  0
ATTRIB
  5
905
330
904
100
AcDbEntity
 67
     1
  8
0
100
AcDbText
 10
12.29447937585687
 20
0.2928222035467138
 30
0.0
 40
0.125
  1

 41
2.25
 72
     5
 11
12.48197937585686
 21
0.2928222035467138
 31
0.0
100
AcDbAttribute
280
     0
  2
NO
 70
     8
280
     0
  0
ATTRIB
  5
906
330
904
100
AcDbEntity
 67
     1
  8
0
100
AcDbText
 10
12.57572937585687
 20
0.2928222035467138
 30
0.0
 40
0.125
  1

100
AcDbAttribute
280
     0
  2
REV
 70
     8
280
     0
  0
ATTRIB
  5
907
330
904
100
AcDbEntity
 67
     1
  8
0
100
AcDbText
 10
15.07572937585687
 20
0.2928222035467138
 30
0.0
 40
0.125
  1

 41
0.984375
 72
     5
 11
15.73197937585687
 21
0.2928222035467138
 31
0.0
100
AcDbAttribute
280
     0
  2
RDATE
 70
     8
280
     0
  0
ATTRIB
  5
908
330
904
100
AcDbEntity
 67
     1
  8
0
100
AcDbText
 10
15.79447937585686
 20
0.2928222035467138
 30
0.0
 40
0.125
  1

100
AcDbAttribute
280
     0
  2
BY
 70
     8
280
     0
  0
SEQEND
  5
909
330
904
100
AcDbEntity
 67
     1
  8
BORDER
  0
INSERT
  5
90A
330
1B
100
AcDbEntity
 67
     1
  8
BORDER
 62
     7
100
AcDbBlockReference
 66
     1
  2
REVISE12
 10
12.26322937585687
 20
0.480322203546713
 30
0.0
  0
ATTRIB
  5
90B
330
90A
100
AcDbEntity
 67
     1
  8
0
100
AcDbText
 10
12.29447937585687
 20
0.5428222035467139
 30
0.0
 40
0.125
  1

 41
0.9
 72
     5
 11
12.48197937585686
 21
0.5428222035467139
 31
0.0
100
AcDbAttribute
280
     0
  2
NO
 70
     8
280
     0
  0
ATTRIB
  5
90C
330
90A
100
AcDbEntity
 67
     1
  8
0
100
AcDbText
 10
12.57572937585687
 20
0.5428222035467139
 30
0.0
 40
0.125
  1

100
AcDbAttribute
280
     0
  2
REV
 70
     8
280
     0
  0
ATTRIB
  5
90D
330
90A
100
AcDbEntity
 67
     1
  8
0
100
AcDbText
 10
15.07572937585687
 20
0.5428222035467139
 30
0.0
 40
0.125
  1

 41
1.125
 72
     5
 11
15.73197937585687
 21
0.5428222035467139
 31
0.0
100
AcDbAttribute
280
     0
  2
RDATE
 70
     8
280
     0
  0
ATTRIB
  5
90E
330
90A
100
AcDbEntity
 67
     1
  8
0
100
AcDbText
 10
15.79447937585686
 20
0.5428222035467139
 30
0.0
 40
0.125
  1

100
AcDbAttribute
280
     0
  2
BY
 70
     8
280
     0
  0
SEQEND
  5
90F
330
90A
100
AcDbEntity
 67
     1
  8
BORDER
  0
INSERT
  5
910
330
1B
100
AcDbEntity
 67
     1
  8
BORDER
 62
     7
100
AcDbBlockReference
 66
     1
  2
REVISE12
 10
12.26322937585687
 20
0.730322203546713
 30
0.0
  0
ATTRIB
  5
911
330
910
100
AcDbEntity
 67
     1
  8
0
100
AcDbText
 10
12.29447937585687
 20
0.7928222035467139
 30
0.0
 40
0.125
  1

 41
0.9
 72
     5
 11
12.48197937585686
 21
0.7928222035467139
 31
0.0
100
AcDbAttribute
280
     0
  2
NO
 70
     8
280
     0
  0
ATTRIB
  5
912
330
910
100
AcDbEntity
 67
     1
  8
0
100
AcDbText
 10
12.57572937585687
 20
0.7928222035467139
 30
0.0
 40
0.125
  1

100
AcDbAttribute
280
     0
  2
REV
 70
     8
280
     0
  0
ATTRIB
  5
913
330
910
100
AcDbEntity
 67
     1
  8
0
100
AcDbText
 10
15.07572937585687
 20
0.7928222035467139
 30
0.0
 40
0.125
  1

 41
1.125
 72
     5
 11
15.73197937585687
 21
0.7928222035467139
 31
0.0
100
AcDbAttribute
280
     0
  2
RDATE
 70
     8
280
     0
  0
ATTRIB
  5
914
330
910
100
AcDbEntity
 67
     1
  8
0
100
AcDbText
 10
15.79447937585686
 20
0.7928222035467139
 30
0.0
 40
0.125
  1

100
AcDbAttribute
280
     0
  2
BY
 70
     8
280
     0
  0
SEQEND
  5
915
330
910
100
AcDbEntity
 67
     1
  8
BORDER
  0
INSERT
  5
916
330
1B
100
AcDbEntity
 67
     1
  8
BORDER
 62
     7
100
AcDbBlockReference
 66
     1
  2
REVISE12
 10
12.26322937585687
 20
0.9803222035467129
 30
0.0
  0
ATTRIB
  5
917
330
916
100
AcDbEntity
 67
     1
  8
0
100
AcDbText
 10
12.29447937585687
 20
1.042822203546713
 30
0.0
 40
0.125
  1

 41
0.9
 72
     5
 11
12.48197937585686
 21
1.042822203546713
 31
0.0
100
AcDbAttribute
280
     0
  2
NO
 70
     8
280
     0
  0
ATTRIB
  5
918
330
916
100
AcDbEntity
 67
     1
  8
0
100
AcDbText
 10
12.57572937585687
 20
1.042822203546713
 30
0.0
 40
0.125
  1

100
AcDbAttribute
280
     0
  2
REV
 70
     8
280
     0
  0
ATTRIB
  5
919
330
916
100
AcDbEntity
 67
     1
  8
0
100
AcDbText
 10
15.07572937585687
 20
1.042822203546713
 30
0.0
 40
0.125
  1

 41
1.125
 72
     5
 11
15.73197937585687
 21
1.042822203546713
 31
0.0
100
AcDbAttribute
280
     0
  2
RDATE
 70
     8
280
     0
  0
ATTRIB
  5
91A
330
916
100
AcDbEntity
 67
     1
  8
0
100
AcDbText
 10
15.79447937585686
 20
1.042822203546713
 30
0.0
 40
0.125
  1

100
AcDbAttribute
280
     0
  2
BY
 70
     8
280
     0
  0
SEQEND
  5
91B
330
916
100
AcDbEntity
 67
     1
  8
BORDER
  0
INSERT
  5
91C
330
1B
100
AcDbEntity
 67
     1
  8
BORDER
 62
     7
100
AcDbBlockReference
 66
     1
  2
REVISE12
 10
12.26322937585687
 20
1.230322203546712
 30
0.0
  0
ATTRIB
  5
91D
330
91C
100
AcDbEntity
 67
     1
  8
0
100
AcDbText
 10
12.29447937585687
 20
1.292822203546713
 30
0.0
 40
0.125
  1

 41
0.9
 72
     5
 11
12.48197937585686
 21
1.292822203546713
 31
0.0
100
AcDbAttribute
280
     0
  2
NO
 70
     8
280
     0
  0
ATTRIB
  5
91E
330
91C
100
AcDbEntity
 67
     1
  8
0
100
AcDbText
 10
12.57572937585687
 20
1.292822203546713
 30
0.0
 40
0.125
  1

100
AcDbAttribute
280
     0
  2
REV
 70
     8
280
     0
  0
ATTRIB
  5
91F
330
91C
100
AcDbEntity
 67
     1
  8
0
100
AcDbText
 10
15.07572937585687
 20
1.292822203546713
 30
0.0
 40
0.125
  1

 41
1.125
 72
     5
 11
15.73197937585687
 21
1.292822203546713
 31
0.0
100
AcDbAttribute
280
     0
  2
RDATE
 70
     8
280
     0
  0
ATTRIB
  5
920
330
91C
100
AcDbEntity
 67
     1
  8
0
100
AcDbText
 10
15.79447937585686
 20
1.292822203546713
 30
0.0
 40
0.125
  1

100
AcDbAttribute
280
     0
  2
BY
 70
     8
280
     0
  0
SEQEND
  5
921
330
91C
100
AcDbEntity
 67
     1
  8
BORDER
  0
INSERT
  5
922
330
1B
100
AcDbEntity
 67
     1
  8
BORDER
 62
     7
100
AcDbBlockReference
 66
     1
  2
REVISE12
 10
12.26322937585687
 20
1.480322203546712
 30
0.0
  0
ATTRIB
  5
923
330
922
100
AcDbEntity
 67
     1
  8
0
100
AcDbText
 10
12.29447937585687
 20
1.542822203546713
 30
0.0
 40
0.125
  1

 41
0.9
 72
     5
 11
12.48197937585686
 21
1.542822203546713
 31
0.0
100
AcDbAttribute
280
     0
  2
NO
 70
     8
280
     0
  0
ATTRIB
  5
924
330
922
100
AcDbEntity
 67
     1
  8
0
100
AcDbText
 10
12.57572937585687
 20
1.542822203546713
 30
0.0
 40
0.125
  1

100
AcDbAttribute
280
     0
  2
REV
 70
     8
280
     0
  0
ATTRIB
  5
925
330
922
100
AcDbEntity
 67
     1
  8
0
100
AcDbText
 10
15.07572937585687
 20
1.542822203546713
 30
0.0
 40
0.125
  1

 41
1.125
 72
     5
 11
15.73197937585687
 21
1.542822203546713
 31
0.0
100
AcDbAttribute
280
     0
  2
RDATE
 70
     8
280
     0
  0
ATTRIB
  5
926
330
922
100
AcDbEntity
 67
     1
  8
0
100
AcDbText
 10
15.79447937585686
 20
1.542822203546713
 30
0.0
 40
0.125
  1

100
AcDbAttribute
280
     0
  2
BY
 70
     8
280
     0
  0
SEQEND
  5
927
330
922
100
AcDbEntity
 67
     1
  8
BORDER
  0
VIEWPORT
  5
1172
102
{ACAD_XDICTIONARY
360
1173
102
}
330
1B
100
AcDbEntity
 67
     1
  8
VIEWPORT
100
AcDbViewport
 10
10.45844393459286
 20
7.958884312699094
 30
0.0
 40
20.72741479021565
 41
15.74010749882102
 68
     2
 69
     2
 12
16.7231140540949
 22
8.510353114002331
 13
0.0
 23
0.0
 14
0.5
 24
0.5
 15
0.5
 25
0.5
 16
0.0
 26
0.0
 36
1.0
 17
0.0
 27
0.0
 37
0.0
 42
50.0
 43
0.0
 44
0.0
 45
17.70251486433284
 50
0.0
 51
0.0
 72
   100
 90
   819264
  1

281
     0
 71
     1
 74
     0
110
0.0
120
0.0
130
0.0
111
1.0
121
0.0
131
0.0
112
0.0
122
1.0
132
0.0
 79
     0
146
0.0
170
     0
 61
     5
348
51F
292
     1
282
     1
141
0.0
142
0.0
 63
   250
421
  3355443
1001
GENIUS_GENODEF_13
1002
{
1000
HIER
1070
     0
1002
}
1002
{
1000
MANEDIT
1070
     0
1002
}
1002
{
1000
NOSEL
1070
     0
1002
}
1002
{
1000
BEHIND
1070
     0
1002
}
1002
{
1000
OTHER
1070
     0
1002
}
1002
{
1000
REACTOR
1002
}
1001
GENIUS_GENOBJ-N-SDF_13
1002
{
1000
OWNER
1000
GEN
1002
}
1001
GENIUS_GENSCREG_15
1000
PF
1040
0.0
1000
DF
1040
0.0
1000
MIN
1011
0.0947365394850408
1021
0.0888305632885818
1031
0.0
1000
MAX
1011
20.82215132970069
1021
15.8289380621096
1031
0.0
1000
FLAGS
1070
     4
  0
ENDSEC
  0
SECTION
  2
OBJECTS
  0
DICTIONARY
  5
C
330
0
100
AcDbDictionary
281
     1
  3
ACAD_CIP_PREVIOUS_PRODUCT_INFO
350
958
  3
ACAD_COLOR
350
52A
  3
ACAD_DETAILVIEWSTYLE
350
94F
  3
ACAD_FIELDLIST
350
14EE
  3
ACAD_GROUP
350
D
  3
ACAD_LAYOUT
350
1A
  3
ACAD_MATERIAL
350
515
  3
ACAD_MLEADERSTYLE
350
94A
  3
ACAD_MLINESTYLE
350
17
  3
ACAD_PLOTSETTINGS
350
19
  3
ACAD_PLOTSTYLENAME
350
E
  3
ACAD_SCALELIST
350
938
  3
ACAD_SECTIONVIEWSTYLE
350
94C
  3
ACAD_TABLESTYLE
350
52B
  3
ACAD_VISUALSTYLE
350
519
  3
ACDB_RECOMPOSE_DATA
350
14FA
  3
AcDbVariableDictionary
350
114
  3
AcDsDecomposeData
350
1500
  3
AcmDictionary
350
983
  3
AMG
350
95A
  3
AMGSNAPSETTINGS
350
B9D
  0
DICTIONARY
  5
548
330
2
100
AcDbDictionary
280
     1
281
     1
  3
ACAD_LAYERSTATES
360
549
  0
DICTIONARY
  5
9BA
330
10
100
AcDbDictionary
280
     1
281
     1
  3
ADSK_XREC_LAYER_RECONCILED
360
9BB
  0
DICTIONARY
  5
9BC
330
310
100
AcDbDictionary
280
     1
281
     1
  3
ADSK_XREC_LAYER_RECONCILED
360
9BD
  0
DICTIONARY
  5
9BE
330
4D7
100
AcDbDictionary
280
     1
281
     1
  3
ADSK_XREC_LAYER_RECONCILED
360
9BF
  0
DICTIONARY
  5
9C0
330
4D8
100
AcDbDictionary
280
     1
281
     1
  3
ADSK_XREC_LAYER_RECONCILED
360
9C1
  0
DICTIONARY
  5
A89
330
A88
100
AcDbDictionary
280
     1
281
     1
  0
DICTIONARY
  5
1054
330
1F
100
AcDbDictionary
280
     1
281
     1
  3
ACAD_SORTENTS
360
1055
  0
DICTIONARY
  5
145C
330
1B
100
AcDbDictionary
280
     1
281
     1
  0
DICTIONARY
  5
14C2
330
7D6
100
AcDbDictionary
280
     1
281
     1
  3
ACAD_SORTENTS
360
14C3
  0
DICTIONARY
  5
1302
330
1282
100
AcDbDictionary
280
     1
281
     1
  3
ACAD_SORTENTS
360
1303
  0
DICTIONARY
  5
12F9
330
12F8
100
AcDbDictionary
280
     1
281
     1
  3
ACAD_DIMASSOC
360
12FA
  0
DICTIONARY
  5
12FC
330
12FB
100
AcDbDictionary
280
     1
281
     1
  3
ACAD_DIMASSOC
360
12FD
  0
DICTIONARY
  5
12FF
330
12FE
100
AcDbDictionary
280
     1
281
     1
  3
ACAD_DIMASSOC
360
1300
  0
DICTIONARY
  5
1173
330
1172
100
AcDbDictionary
280
     1
281
     1
  3
ASDK_XREC_ANNOTATION_SCALE_INFO
360
1174
  0
XRECORD
  5
958
102
{ACAD_REACTORS
330
C
102
}
330
C
100
AcDbXrecord
280
     1
300
AMECH_PP
300
2014
300
86132PDSS_2014_0F
  0
DICTIONARY
  5
52A
102
{ACAD_REACTORS
330
C
102
}
330
C
100
AcDbDictionary
281
     1
  0
DICTIONARY
  5
94F
102
{ACAD_REACTORS
330
C
102
}
330
C
100
AcDbDictionary
281
     1
  3
Imperial24
350
950
  0
FIELDLIST
  5
14EE
102
{ACAD_REACTORS
330
C
102
}
330
C
100
AcDbIdSet
 90
        4
330
14EC
330
14ED
330
14EF
330
14F0
100
AcDbFieldList
  0
DICTIONARY
  5
D
102
{ACAD_REACTORS
330
C
102
}
330
C
100
AcDbDictionary
281
     1
  0
DICTIONARY
  5
1A
102
{ACAD_REACTORS
330
C
102
}
330
C
100
AcDbDictionary
281
     1
  3
Model
350
22
  3
TCI-C
350
1E
  0
DICTIONARY
  5
515
102
{ACAD_REACTORS
330
C
102
}
330
C
100
AcDbDictionary
281
     1
  3
ByBlock
350
517
  3
ByLayer
350
516
  3
Global
350
518
  0
DICTIONARY
  5
94A
102
{ACAD_REACTORS
330
C
102
}
330
C
100
AcDbDictionary
281
     1
  3
Standard
350
94B
  0
DICTIONARY
  5
17
102
{ACAD_REACTORS
330
C
102
}
330
C
100
AcDbDictionary
281
     1
  3
Standard
350
18
  0
DICTIONARY
  5
19
102
{ACAD_REACTORS
330
C
102
}
330
C
100
AcDbDictionary
281
     1
  3
P3-M-L-E
350
4FF
  0
ACDBDICTIONARYWDFLT
  5
E
102
{ACAD_REACTORS
330
C
102
}
330
C
100
AcDbDictionary
281
     1
  3
Normal
350
F
100
AcDbDictionaryWithDefault
340
F
  0
DICTIONARY
  5
938
102
{ACAD_REACTORS
330
C
102
}
330
C
100
AcDbDictionary
281
     1
  3
A0
350
939
  3
A1
350
93A
  3
A2
350
93B
  3
A3
350
93C
  3
A4
350
93D
  3
A5
350
93E
  3
A6
350
93F
  3
A7
350
940
  3
A8
350
941
  3
A9
350
942
  3
B0
350
943
  3
B1
350
944
  3
B2
350
945
  3
B3
350
946
  3
B4
350
947
  3
B5
350
948
  3
B6
350
949
  0
DICTIONARY
  5
94C
102
{ACAD_REACTORS
330
C
102
}
330
C
100
AcDbDictionary
281
     1
  3
Imperial24
350
94E
  0
DICTIONARY
  5
52B
102
{ACAD_REACTORS
330
C
102
}
330
C
100
AcDbDictionary
281
     1
  3
Standard
350
52C
  0
DICTIONARY
  5
519
102
{ACAD_REACTORS
330
C
102
}
330
C
100
AcDbDictionary
281
     1
  3
2dWireframe
350
51F
  3
3D Hidden
350
521
  3
3dWireframe
350
520
  3
Basic
350
51E
  3
Brighten
350
525
  3
ColorChange
350
529
  3
Conceptual
350
522
  3
Dim
350
524
  3
EdgeColorOff
350
937
  3
Facepattern
350
528
  3
Flat
350
51A
  3
FlatWithEdges
350
51B
  3
Gouraud
350
51C
  3
GouraudWithEdges
350
51D
  3
Hidden
350
92F
  3
JitterOff
350
935
  3
Linepattern
350
527
  3
OverhangOff
350
936
  3
Realistic
350
523
  3
Shaded
350
934
  3
Shaded with edges
350
933
  3
Shades of Gray
350
930
  3
Sketchy
350
931
  3
Thicken
350
526
  3
Wireframe
350
92E
  3
X-Ray
350
932
  0
XRECORD
  5
14FA
102
{ACAD_REACTORS
330
C
102
}
330
C
100
AcDbXrecord
280
     1
 90
        1
330
52C
  0
DICTIONARY
  5
114
102
{ACAD_REACTORS
330
C
102
}
330
C
100
AcDbDictionary
281
     1
  3
CANNOSCALE
350
11EB
  3
CMLEADERSTYLE
350
11E7
  3
CTABLESTYLE
350
530
  3
CVIEWDETAILSTYLE
350
11E8
  3
CVIEWSECTIONSTYLE
350
11E9
  3
DIMASSOC
350
2FC
  3
HIDETEXT
350
2FB
  3
LAYEREVAL
350
11ED
  3
LAYERNOTIFY
350
11EE
  3
LIGHTINGUNITS
350
11EC
  3
MSLTSCALE
350
11EA
  3
SORTENTS
350
115
  0
DICTIONARY
  5
1500
102
{ACAD_REACTORS
330
C
102
}
330
C
100
AcDbDictionary
281
     1
  3
AcDsRecords
350
1502
  3
AcDsSchemas
350
1501
1001
ACAD
1070
     2
  0
DICTIONARY
  5
983
102
{ACAD_REACTORS
330
C
102
}
330
C
100
AcDbDictionary
281
     1
  3
AcmStdDictionary
350
985
  0
DICTIONARY
  5
95A
102
{ACAD_REACTORS
330
C
102
}
330
C
100
AcDbDictionary
281
     1
  0
DICTIONARY
  5
B9D
102
{ACAD_REACTORS
330
C
102
}
330
C
100
AcDbDictionary
281
     1
  0
DICTIONARY
  5
549
102
{ACAD_REACTORS
330
548
102
}
330
548
100
AcDbDictionary
281
     1
  0
XRECORD
  5
9BB
102
{ACAD_REACTORS
330
9BA
102
}
330
9BA
100
AcDbXrecord
280
     1
290
     1
  0
XRECORD
  5
9BD
102
{ACAD_REACTORS
330
9BC
102
}
330
9BC
100
AcDbXrecord
280
     1
290
     1
  0
XRECORD
  5
9BF
102
{ACAD_REACTORS
330
9BE
102
}
330
9BE
100
AcDbXrecord
280
     1
290
     1
  0
XRECORD
  5
9C1
102
{ACAD_REACTORS
330
9C0
102
}
330
9C0
100
AcDbXrecord
280
     1
290
     1
  0
SORTENTSTABLE
  5
1055
102
{ACAD_REACTORS
330
1054
102
}
330
1054
100
AcDbSortentsTable
330
1F
331
FBF
  5
FC1
331
F45
  5
F47
331
FBB
  5
FBD
331
F41
  5
F43
331
F7C
  5
F7E
331
FB7
  5
FB9
331
F3D
  5
F3F
331
F78
  5
F7A
331
FB3
  5
FB5
331
F39
  5
F3B
331
F74
  5
F76
331
FAF
  5
FB1
331
F35
  5
F37
331
F70
  5
F72
331
FAB
  5
FAD
331
F31
  5
F33
331
F6C
  5
F6E
331
FA7
  5
FA9
331
F2D
  5
F2F
331
F68
  5
F6A
331
FA3
  5
FA5
331
F29
  5
F2B
331
F64
  5
F66
331
F9F
  5
FA1
331
F25
  5
F27
331
F9B
  5
F9D
331
F60
  5
F62
331
F5C
  5
F5E
331
F97
  5
F99
331
F58
  5
F5A
331
F93
  5
F95
331
F54
  5
F56
331
F8F
  5
F91
331
F50
  5
F52
331
F8B
  5
F8D
331
F4C
  5
F4E
331
F87
  5
F89
331
F48
  5
F4A
331
F83
  5
F85
331
F44
  5
F46
331
FBE
  5
FC0
331
F40
  5
F42
331
FBA
  5
FBC
331
F7F
  5
F81
331
F3C
  5
F3E
331
FB6
  5
FB8
331
F7B
  5
F7D
331
F38
  5
F3A
331
FB2
  5
FB4
331
F77
  5
F79
331
F34
  5
F36
331
FAE
  5
FB0
331
F73
  5
F75
331
F30
  5
F32
331
FAA
  5
FAC
331
F6F
  5
F71
331
F2C
  5
F2E
331
FA6
  5
FA8
331
F6B
  5
F6D
331
F28
  5
F2A
331
FA2
  5
FA4
331
F67
  5
F69
331
F9E
  5
FA0
331
F63
  5
F65
331
F9A
  5
F9C
331
F5F
  5
F61
331
F96
  5
F98
331
F5B
  5
F5D
331
F92
  5
F94
331
F57
  5
F59
331
F8E
  5
F90
331
F53
  5
F55
331
F8A
  5
F8C
331
F4F
  5
F51
331
F86
  5
F88
331
F4B
  5
F4D
331
FC1
  5
FC3
331
F82
  5
F84
331
F47
  5
F49
331
FBD
  5
FBF
331
F43
  5
F45
331
F7E
  5
F80
331
FB9
  5
FBB
331
F3F
  5
F41
331
F7A
  5
F7C
331
FB5
  5
FB7
331
F3B
  5
F3D
331
FB1
  5
FB3
331
F76
  5
F78
331
F37
  5
F39
331
F72
  5
F74
331
FAD
  5
FAF
331
F33
  5
F35
331
F6E
  5
F70
331
FA9
  5
FAB
331
F2F
  5
F31
331
F6A
  5
F6C
331
FA5
  5
FA7
331
F2B
  5
F2D
331
FA1
  5
FA3
331
F66
  5
F68
331
F27
  5
F29
331
F62
  5
F64
331
F9D
  5
F9F
331
F23
  5
F26
331
F99
  5
F9B
331
F5E
  5
F60
331
F95
  5
F97
331
F5A
  5
F5C
331
F91
  5
F93
331
F56
  5
F58
331
F8D
  5
F8F
331
F52
  5
F54
331
F89
  5
F8B
331
F4E
  5
F50
331
C6B
  5
C6B
331
F85
  5
F87
331
F4A
  5
F4C
331
FC0
  5
FC2
331
F81
  5
F83
331
F46
  5
F48
331
FBC
  5
FBE
331
F42
  5
F44
331
F7D
  5
F7F
331
FB8
  5
FBA
331
F3E
  5
F40
331
F79
  5
F7B
331
FB4
  5
FB6
331
F3A
  5
F3C
331
FB0
  5
FB2
331
F75
  5
F77
331
F36
  5
F38
331
F71
  5
F73
331
FAC
  5
FAE
331
F32
  5
F34
331
F6D
  5
F6F
331
FA8
  5
FAA
331
F2E
  5
F30
331
F69
  5
F6B
331
FA4
  5
FA6
331
F2A
  5
F2C
331
FA0
  5
FA2
331
F65
  5
F67
331
F26
  5
F28
331
F9C
  5
F9E
331
F61
  5
F63
331
F98
  5
F9A
331
F5D
  5
F5F
331
F94
  5
F96
331
F59
  5
F5B
331
F90
  5
F92
331
F55
  5
F57
331
F8C
  5
F8E
331
F51
  5
F53
331
F88
  5
F8A
331
F4D
  5
F4F
331
F49
  5
F4B
331
F84
  5
F86
331
C6A
  5
C6A
331
F80
  5
F82
  0
SORTENTSTABLE
  5
14C3
102
{ACAD_REACTORS
330
14C2
102
}
330
14C2
100
AcDbSortentsTable
330
7D6
  0
SORTENTSTABLE
  5
1303
102
{ACAD_REACTORS
330
1302
102
}
330
1302
100
AcDbSortentsTable
330
1282
  0
DIMASSOC
  5
12FA
102
{ACAD_REACTORS
330
12F9
102
}
330
12F9
100
AcDbDimAssoc
330
12F8
 90
        3
 70
     0
 71
     0
  1
AcDbOsnapPointRef
 72
     1
331
1298
 73
     2
 91
        0
 40
1.0
 10
0.0
 20
0.0
 30
2.000000000000000E+50
 75
     0
  1
AcDbOsnapPointRef
 72
    13
331
12D5
 73
     2
 91
        0
 40
0.0
 10
0.0
 20
0.0
 30
2.000000000000000E+50
 75
     0
  0
DIMASSOC
  5
12FD
102
{ACAD_REACTORS
330
12FC
102
}
330
12FC
100
AcDbDimAssoc
330
12FB
 90
        3
 70
     0
 71
     0
  1
AcDbOsnapPointRef
 72
    13
331
12D6
 73
     2
 91
        0
 40
0.0
 10
0.0
 20
0.0
 30
2.000000000000000E+50
 75
     0
  1
AcDbOsnapPointRef
 72
     1
331
12C7
 73
     2
 91
        0
 40
1.0
 10
0.0
 20
0.0
 30
2.000000000000000E+50
 75
     0
  0
DIMASSOC
  5
1300
102
{ACAD_REACTORS
330
12FF
102
}
330
12FF
100
AcDbDimAssoc
330
12FE
 90
        3
 70
     0
 71
     0
  1
AcDbOsnapPointRef
 72
     1
331
1298
 73
     2
 91
        0
 40
1.0
 10
0.0
 20
0.0
 30
2.000000000000000E+50
 75
     0
  1
AcDbOsnapPointRef
 72
     1
331
12C7
 73
     2
 91
        0
 40
1.0
 10
0.0
 20
0.0
 30
2.000000000000000E+50
 75
     0
  0
XRECORD
  5
1174
102
{ACAD_REACTORS
330
1173
102
}
330
1173
100
AcDbXrecord
280
     1
 90
        1
340
939
  0
ACDBDETAILVIEWSTYLE
  5
950
102
{ACAD_XDICTIONARY
360
14CD
102
}
102
{ACAD_REACTORS
330
94F
330
14E2
102
}
330
94F
100
AcDbModelDocViewStyle
 70
     0
  3
Imperial24
290
     0
100
AcDbDetailViewStyle
 70
     0
 71
     0
 90
        3
 71
     1
340
11
 62
   256
 40
0.24
340
0
 62
   256
 40
0.24
300

 40
0.36
280
     3
 71
     2
340
16
 90
       25
 62
   256
 71
     3
340
11
 62
   256
 40
0.24
 90
        1
 40
0.75
 90
        1
300
%<\AcVar ViewType \f "%tc1">% %<\AcVar ViewDetailId>%\PSCALE %<\AcVar ViewScale \f "%sn">%
 71
     4
340
16
 90
       25
 62
   256
340
16
 90
       25
 62
   256
280
     0
  0
LAYOUT
  5
22
102
{ACAD_XDICTIONARY
360
13B6
102
}
102
{ACAD_REACTORS
330
1A
102
}
330
1A
100
AcDbPlotSettings
  1

  2
none_device
  4
ANSI_A_(8.50_x_11.00_Inches)
  6

 40
6.349999904632568
 41
19.04999923706055
 42
6.350006103515625
 43
19.04998779296875
 44
215.8999938964844
 45
279.3999938964844
 46
0.0
 47
0.0
 48
0.0
 49
0.0
140
0.0
141
0.0
142
1.0
143
2.187503370771307
 70
 11952
 72
     0
 73
     1
 74
     0
  7

 75
     0
147
0.4571421527215306
 76
     0
 77
     2
 78
   300
148
1.821692977681004
149
47.9252139705347
100
AcDbLayout
  1
Model
 70
     1
 71
     0
 10
0.0
 20
0.0
 11
12.0
 21
9.0
 12
0.0
 22
0.0
 32
0.0
 14
0.0
 24
0.0
 34
0.0
 15
0.0
 25
0.0
 35
0.0
146
0.0
 13
0.0
 23
0.0
 33
0.0
 16
1.0
 26
0.0
 36
0.0
 17
0.0
 27
1.0
 37
0.0
 76
     0
330
1F
331
50E
  0
LAYOUT
  5
1E
102
{ACAD_XDICTIONARY
360
60B
102
}
102
{ACAD_REACTORS
330
1A
102
}
330
1A
100
AcDbPlotSettings
  1
P3-M-L-E
  2
\\tci3050\HP LaserJet 5000N #3
  4
Letter
  6

 40
4.233333110809326
 41
4.233341693878173
 42
8.466659545898437
 43
4.23333740234375
 44
215.8999938964844
 45
279.3999938964844
 46
0.0
 47
0.0
 48
0.0
 49
0.0
140
0.0
141
0.0
142
1.0
143
2.00013153816304
 70
   688
 72
     0
 73
     1
 74
     1
  7
monochrome.ctb
 75
     0
147
0.4999671176218838
 76
     0
 77
     2
 78
   300
148
-0.3098608609952279
149
0.5072066548853812
100
AcDbLayout
  1
TCI-C
 70
     1
 71
     1
 10
-0.50241871400597
 20
-0.5032299008207635
 11
21.49758080540225
 21
16.49676961858745
 12
0.0
 22
0.0
 32
0.0
 14
0.0121992464958751
 24
-0.0199687659403694
 34
-0.0000000349181948
 15
21.01485381582699
 25
15.98108363699057
 35
0.0000000814935746
146
0.0
 13
0.0
 23
0.0
 33
0.0
 16
1.0
 26
0.0
 36
0.0
 17
0.0
 27
1.0
 37
0.0
 76
     0
330
1B
331
2E
  0
MATERIAL
  5
517
102
{ACAD_REACTORS
330
515
102
}
330
515
100
AcDbMaterial
  1
ByBlock
 73
     1
 78
     1
172
     1
176
     1
270
     1
274
     1
 94
       63
  0
MATERIAL
  5
516
102
{ACAD_REACTORS
330
515
102
}
330
515
100
AcDbMaterial
  1
ByLayer
 73
     1
 78
     1
172
     1
176
     1
270
     1
274
     1
 94
       63
  0
MATERIAL
  5
518
102
{ACAD_REACTORS
330
515
102
}
330
515
100
AcDbMaterial
  1
Global
 73
     1
 78
     1
172
     1
176
     1
270
     1
274
     1
 94
       63
  0
MLEADERSTYLE
  5
94B
102
{ACAD_XDICTIONARY
360
1537
102
}
102
{ACAD_REACTORS
330
94A
102
}
330
94A
100
AcDbMLeaderStyle
179
     2
170
     2
171
     1
172
     0
 90
        2
 40
0.0
 41
0.0
173
     1
 91
-1056964608
340
14
 92
       -2
290
     1
 42
0.09
291
     1
 43
0.36
  3
Standard
 44
0.18
300

342
11
174
     1
178
     6
175
     1
176
     0
 93
-1056964608
 45
0.18
292
     0
297
     0
 46
0.18
 94
-1056964608
 47
1.0
 49
1.0
140
1.0
293
     1
141
0.0
294
     1
177
     0
142
1.0
295
     0
296
     0
143
0.125
271
     0
272
     9
273
     9
  0
MLINESTYLE
  5
18
102
{ACAD_REACTORS
330
17
102
}
330
17
100
AcDbMlineStyle
  2
STANDARD
 70
     0
  3

 62
   256
 51
90.0
 52
90.0
 71
     2
 49
0.5
 62
   256
  6
BYLAYER
 49
-0.5
 62
   256
  6
BYLAYER
  0
PLOTSETTINGS
  5
4FF
102
{ACAD_REACTORS
330
19
102
}
330
19
100
AcDbPlotSettings
  1
P3-M-L-E
  2
\\tci3050\HP LaserJet 5000N #3
  4
Letter
  6

 40
4.233333110809326
 41
4.233341693878173
 42
8.466659545898437
 43
4.23333740234375
 44
215.8999938964844
 45
279.3999938964844
 46
0.0
 47
0.0
 48
0.0
 49
0.0
140
0.0
141
0.0
142
1.0
143
2.00013153816304
 70
   688
 72
     0
 73
     1
 74
     1
  7
monochrome.ctb
 75
     0
147
0.4999671176218838
 76
     0
 77
     2
 78
   300
148
-0.3098608609952279
149
0.5072066548853812
  0
ACDBPLACEHOLDER
  5
F
102
{ACAD_REACTORS
330
E
102
}
330
E
  0
SCALE
  5
939
102
{ACAD_REACTORS
330
938
102
}
330
938
100
AcDbScale
 70
     0
300
1:1
140
1.0
141
1.0
290
     1
  0
SCALE
  5
93A
102
{ACAD_REACTORS
330
938
102
}
330
938
100
AcDbScale
 70
     0
300
1/128" = 1'-0"
140
0.0078125
141
12.0
290
     0
  0
SCALE
  5
93B
102
{ACAD_REACTORS
330
938
102
}
330
938
100
AcDbScale
 70
     0
300
1/64" = 1'-0"
140
0.015625
141
12.0
290
     0
  0
SCALE
  5
93C
102
{ACAD_REACTORS
330
938
102
}
330
938
100
AcDbScale
 70
     0
300
1/32" = 1'-0"
140
0.03125
141
12.0
290
     0
  0
SCALE
  5
93D
102
{ACAD_REACTORS
330
938
102
}
330
938
100
AcDbScale
 70
     0
300
1/16" = 1'-0"
140
0.0625
141
12.0
290
     0
  0
SCALE
  5
93E
102
{ACAD_REACTORS
330
938
102
}
330
938
100
AcDbScale
 70
     0
300
3/32" = 1'-0"
140
0.09375
141
12.0
290
     0
  0
SCALE
  5
93F
102
{ACAD_REACTORS
330
938
102
}
330
938
100
AcDbScale
 70
     0
300
1/8" = 1'-0"
140
0.125
141
12.0
290
     0
  0
SCALE
  5
940
102
{ACAD_REACTORS
330
938
102
}
330
938
100
AcDbScale
 70
     0
300
3/16" = 1'-0"
140
0.1875
141
12.0
290
     0
  0
SCALE
  5
941
102
{ACAD_REACTORS
330
938
102
}
330
938
100
AcDbScale
 70
     0
300
1/4" = 1'-0"
140
0.25
141
12.0
290
     0
  0
SCALE
  5
942
102
{ACAD_REACTORS
330
938
102
}
330
938
100
AcDbScale
 70
     0
300
3/8" = 1'-0"
140
0.375
141
12.0
290
     0
  0
SCALE
  5
943
102
{ACAD_REACTORS
330
938
102
}
330
938
100
AcDbScale
 70
     0
300
1/2" = 1'-0"
140
0.5
141
12.0
290
     0
  0
SCALE
  5
944
102
{ACAD_REACTORS
330
938
102
}
330
938
100
AcDbScale
 70
     0
300
3/4" = 1'-0"
140
0.75
141
12.0
290
     0
  0
SCALE
  5
945
102
{ACAD_REACTORS
330
938
102
}
330
938
100
AcDbScale
 70
     0
300
1" = 1'-0"
140
1.0
141
12.0
290
     0
  0
SCALE
  5
946
102
{ACAD_REACTORS
330
938
102
}
330
938
100
AcDbScale
 70
     0
300
1-1/2" = 1'-0"
140
1.5
141
12.0
290
     0
  0
SCALE
  5
947
102
{ACAD_REACTORS
330
938
102
}
330
938
100
AcDbScale
 70
     0
300
3" = 1'-0"
140
3.0
141
12.0
290
     0
  0
SCALE
  5
948
102
{ACAD_REACTORS
330
938
102
}
330
938
100
AcDbScale
 70
     0
300
6" = 1'-0"
140
6.0
141
12.0
290
     0
  0
SCALE
  5
949
102
{ACAD_REACTORS
330
938
102
}
330
938
100
AcDbScale
 70
     0
300
1'-0" = 1'-0"
140
12.0
141
12.0
290
     0
  0
ACDBSECTIONVIEWSTYLE
  5
94E
102
{ACAD_XDICTIONARY
360
14CB
102
}
102
{ACAD_REACTORS
330
94C
330
14E1
102
}
330
94C
100
AcDbModelDocViewStyle
 70
     0
  3
Imperial24
290
     0
100
AcDbSectionViewStyle
 70
     0
 71
     0
 90
       78
 71
     1
340
11
 62
   256
 40
0.24
340
0
340
0
 62
   256
 40
0.24
300
I, O, Q, S, X, Z
 40
0.48
 90
        3
 40
0.18
 90
        1
 71
     2
340
94D
 90
       25
 62
   256
340
16
 90
       50
 62
   256
 40
0.24
 40
0.0
 40
0.24
 71
     3
340
11
 62
   256
 40
0.24
 90
        1
 40
0.75
 90
        1
300
%<\AcVar ViewType \f "%tc1">% %<\AcVar ViewSectionStartId>%-%<\AcVar ViewSectionEndId>%\PSCALE %<\AcVar ViewScale \f "%sn">%
 71
     4
 62
   256
 62
   257
300
ANSI31
 40
1.0
 90
        0
290
     0
290
     0
 90
        6
 40
0.0
 40
1.570796326794896
 40
0.2617993877991494
 40
1.308996938995747
 40
-0.2617993877991494
 40
1.832595714594046
  0
TABLESTYLE
  5
52C
102
{ACAD_XDICTIONARY
360
14F8
102
}
102
{ACAD_REACTORS
330
52B
102
}
330
52B
100
AcDbTableStyle
280
     0
  3
Standard
 70
     0
 71
     0
 40
0.06
 41
0.06
280
     0
281
     0
  7
Standard
140
0.18
170
     2
 62
     0
 63
     7
283
     0
 90
      512
 91
        0
  1

274
    -2
284
     1
 64
     0
275
    -2
285
     1
 65
     0
276
    -2
286
     1
 66
     0
277
    -2
287
     1
 67
     0
278
    -2
288
     1
 68
     0
279
    -2
289
     1
 69
     0
  7
Standard
140
0.25
170
     5
 62
     0
 63
     7
283
     0
 90
      512
 91
        0
  1

274
    -2
284
     1
 64
     0
275
    -2
285
     1
 65
     0
276
    -2
286
     1
 66
     0
277
    -2
287
     1
 67
     0
278
    -2
288
     1
 68
     0
279
    -2
289
     1
 69
     0
  7
Standard
140
0.18
170
     5
 62
     0
 63
     7
283
     0
 90
      512
 91
        0
  1

274
    -2
284
     1
 64
     0
275
    -2
285
     1
 65
     0
276
    -2
286
     1
 66
     0
277
    -2
287
     1
 67
     0
278
    -2
288
     1
 68
     0
279
    -2
289
     1
 69
     0
  0
VISUALSTYLE
  5
51F
102
{ACAD_XDICTIONARY
360
150D
102
}
102
{ACAD_REACTORS
330
519
102
}
330
519
100
AcDbVisualStyle
  2
2dWireframe
 70
     4
177
     2
291
     0
 71
     0
176
     1
 72
     2
176
     1
 73
     0
176
     1
 90
        0
176
     1
 40
0.6
176
     1
 41
30.0
176
     1
 63
     7
421
 16777215
176
     1
 74
     1
176
     1
 91
        4
176
     1
 64
     7
176
     1
 65
   257
176
     1
 75
     1
176
     1
175
     1
176
     1
 42
1.0
176
     1
 92
        0
176
     1
 66
   257
176
     1
 43
1.0
176
     1
 76
     1
176
     1
 77
     6
176
     1
 78
     2
176
     1
 67
     7
176
     1
 79
     5
176
     1
170
     0
176
     1
171
     0
176
     1
290
     0
176
     1
 93
        1
176
     1
 44
0.0
176
     1
173
     0
176
     1
1001
ACAD
1000
AcDbSavedByObjectVersion
1070
     0
  0
VISUALSTYLE
  5
521
102
{ACAD_XDICTIONARY
360
1511
102
}
102
{ACAD_REACTORS
330
519
102
}
330
519
100
AcDbVisualStyle
  2
3D Hidden
 70
     6
177
     2
291
     0
 71
     1
176
     1
 72
     2
176
     1
 73
     2
176
     1
 90
        0
176
     1
 40
0.6
176
     1
 41
30.0
176
     1
 63
     7
421
 16777215
176
     1
 74
     2
176
     1
 91
        2
176
     1
 64
     7
176
     1
 65
   257
176
     1
 75
     2
176
     1
175
     1
176
     1
 42
40.0
176
     1
 92
        0
176
     1
 66
   257
176
     1
 43
1.0
176
     1
 76
     1
176
     1
 77
     6
176
     1
 78
     2
176
     1
 67
     7
176
     1
 79
     3
176
     1
170
     0
176
     1
171
     0
176
     1
290
     0
176
     1
 93
        1
176
     1
 44
0.0
176
     1
173
     0
176
     1
1001
ACAD
1000
AcDbSavedByObjectVersion
1070
     0
  0
VISUALSTYLE
  5
520
102
{ACAD_XDICTIONARY
360
150F
102
}
102
{ACAD_REACTORS
330
519
102
}
330
519
100
AcDbVisualStyle
  2
3dWireframe
 70
     5
177
     2
291
     0
 71
     0
176
     1
 72
     2
176
     1
 73
     0
176
     1
 90
        0
176
     1
 40
0.6
176
     1
 41
30.0
176
     1
 63
     7
421
 16777215
176
     1
 74
     1
176
     1
 91
        4
176
     1
 64
     7
176
     1
 65
   257
176
     1
 75
     1
176
     1
175
     1
176
     1
 42
1.0
176
     1
 92
        0
176
     1
 66
   257
176
     1
 43
1.0
176
     1
 76
     1
176
     1
 77
     6
176
     1
 78
     2
176
     1
 67
     7
176
     1
 79
     5
176
     1
170
     0
176
     1
171
     0
176
     1
290
     0
176
     1
 93
        1
176
     1
 44
0.0
176
     1
173
     0
176
     1
1001
ACAD
1000
AcDbSavedByObjectVersion
1070
     0
  0
VISUALSTYLE
  5
51E
102
{ACAD_XDICTIONARY
360
150B
102
}
102
{ACAD_REACTORS
330
519
102
}
330
519
100
AcDbVisualStyle
  2
Basic
 70
     7
177
     2
291
     1
 71
     1
176
     1
 72
     0
176
     1
 73
     1
176
     1
 90
        0
176
     1
 40
0.6
176
     1
 41
30.0
176
     1
 63
     7
421
 16777215
176
     1
 74
     0
176
     1
 91
        4
176
     1
 64
     7
176
     1
 65
   257
176
     1
 75
     1
176
     1
175
     1
176
     1
 42
1.0
176
     1
 92
        8
176
     1
 66
     7
176
     1
 43
1.0
176
     1
 76
     1
176
     1
 77
     6
176
     1
 78
     2
176
     1
 67
     7
176
     1
 79
     5
176
     1
170
     0
176
     1
171
     0
176
     1
290
     0
176
     1
 93
        1
176
     1
 44
0.0
176
     1
173
     0
176
     1
1001
ACAD
1000
AcDbSavedByObjectVersion
1070
     0
  0
VISUALSTYLE
  5
525
102
{ACAD_XDICTIONARY
360
1519
102
}
102
{ACAD_REACTORS
330
519
102
}
330
519
100
AcDbVisualStyle
  2
Brighten
 70
    12
177
     2
291
     1
 71
     2
176
     1
 72
     2
176
     1
 73
     0
176
     1
 90
        0
176
     1
 40
0.6
176
     1
 41
30.0
176
     1
 63
     7
421
 16777215
176
     1
 74
     1
176
     1
 91
        4
176
     1
 64
     7
176
     1
 65
   257
176
     1
 75
     1
176
     1
175
     1
176
     1
 42
1.0
176
     1
 92
        8
176
     1
 66
     7
176
     1
 43
1.0
176
     1
 76
     1
176
     1
 77
     6
176
     1
 78
     2
176
     1
 67
     7
176
     1
 79
     5
176
     1
170
     0
176
     1
171
     0
176
     1
290
     0
176
     1
 93
        1
176
     1
 44
50.0
176
     1
173
     0
176
     1
1001
ACAD
1000
AcDbSavedByObjectVersion
1070
     0
  0
VISUALSTYLE
  5
529
102
{ACAD_XDICTIONARY
360
1521
102
}
102
{ACAD_REACTORS
330
519
102
}
330
519
100
AcDbVisualStyle
  2
ColorChange
 70
    16
177
     2
291
     1
 71
     2
176
     1
 72
     2
176
     1
 73
     3
176
     1
 90
        0
176
     1
 40
0.6
176
     1
 41
30.0
176
     1
 63
     8
421
  8421504
176
     1
 74
     1
176
     1
 91
        4
176
     1
 64
     7
176
     1
 65
   257
176
     1
 75
     1
176
     1
175
     1
176
     1
 42
1.0
176
     1
 92
        8
176
     1
 66
     8
424
  8421504
176
     1
 43
1.0
176
     1
 76
     1
176
     1
 77
     6
176
     1
 78
     2
176
     1
 67
     7
176
     1
 79
     5
176
     1
170
     0
176
     1
171
     0
176
     1
290
     0
176
     1
 93
        1
176
     1
 44
0.0
176
     1
173
     0
176
     1
1001
ACAD
1000
AcDbSavedByObjectVersion
1070
     0
  0
VISUALSTYLE
  5
522
102
{ACAD_XDICTIONARY
360
1513
102
}
102
{ACAD_REACTORS
330
519
102
}
330
519
100
AcDbVisualStyle
  2
Conceptual
 70
     9
177
     2
291
     0
 71
     3
176
     1
 72
     2
176
     1
 73
     0
176
     1
 90
        0
176
     1
 40
0.6
176
     1
 41
30.0
176
     1
 63
     7
421
 16777215
176
     1
 74
     2
176
     1
 91
        2
176
     1
 64
     7
176
     1
 65
   257
176
     1
 75
     1
176
     1
175
     1
176
     1
 42
40.0
176
     1
 92
        8
176
     1
 66
     7
176
     1
 43
1.0
176
     1
 76
     1
176
     1
 77
     6
176
     1
 78
     2
176
     1
 67
     7
176
     1
 79
     3
176
     1
170
     0
176
     1
171
     0
176
     1
290
     0
176
     1
 93
        1
176
     1
 44
0.0
176
     1
173
     0
176
     1
1001
ACAD
1000
AcDbSavedByObjectVersion
1070
     0
  0
VISUALSTYLE
  5
524
102
{ACAD_XDICTIONARY
360
1517
102
}
102
{ACAD_REACTORS
330
519
102
}
330
519
100
AcDbVisualStyle
  2
Dim
 70
    11
177
     2
291
     1
 71
     2
176
     1
 72
     2
176
     1
 73
     0
176
     1
 90
        0
176
     1
 40
0.6
176
     1
 41
30.0
176
     1
 63
     7
421
 16777215
176
     1
 74
     1
176
     1
 91
        4
176
     1
 64
     7
176
     1
 65
   257
176
     1
 75
     1
176
     1
175
     1
176
     1
 42
1.0
176
     1
 92
        8
176
     1
 66
     7
176
     1
 43
1.0
176
     1
 76
     1
176
     1
 77
     6
176
     1
 78
     2
176
     1
 67
     7
176
     1
 79
     5
176
     1
170
     0
176
     1
171
     0
176
     1
290
     0
176
     1
 93
        1
176
     1
 44
-50.0
176
     1
173
     0
176
     1
1001
ACAD
1000
AcDbSavedByObjectVersion
1070
     0
  0
VISUALSTYLE
  5
937
102
{ACAD_XDICTIONARY
360
1535
102
}
102
{ACAD_REACTORS
330
519
102
}
330
519
100
AcDbVisualStyle
  2
EdgeColorOff
 70
    22
177
     2
291
     1
 71
     2
176
     0
 72
     2
176
     0
 73
     0
176
     0
 90
        0
176
     0
 40
0.6
176
     0
 41
30.0
176
     0
 63
     7
421
 16777215
176
     0
 74
     1
176
     0
 91
        4
176
     0
 64
     7
176
     0
 65
   257
176
     0
 75
     1
176
     0
175
     1
176
     0
 42
1.0
176
     0
 92
        8
176
     2
 66
     7
176
     0
 43
1.0
176
     0
 76
     1
176
     0
 77
     6
176
     0
 78
     2
176
     0
 67
     7
176
     0
 79
     5
176
     0
170
     0
176
     0
171
     0
176
     0
290
     0
176
     0
 93
        1
176
     0
 44
0.0
176
     0
173
     0
176
     0
1001
ACAD
1000
AcDbSavedByObjectVersion
1070
     0
  0
VISUALSTYLE
  5
528
102
{ACAD_XDICTIONARY
360
151F
102
}
102
{ACAD_REACTORS
330
519
102
}
330
519
100
AcDbVisualStyle
  2
Facepattern
 70
    15
177
     2
291
     1
 71
     2
176
     1
 72
     2
176
     1
 73
     0
176
     1
 90
        0
176
     1
 40
0.6
176
     1
 41
30.0
176
     1
 63
     7
421
 16777215
176
     1
 74
     1
176
     1
 91
        4
176
     1
 64
     7
176
     1
 65
   257
176
     1
 75
     1
176
     1
175
     1
176
     1
 42
1.0
176
     1
 92
        8
176
     1
 66
     7
176
     1
 43
1.0
176
     1
 76
     1
176
     1
 77
     6
176
     1
 78
     2
176
     1
 67
     7
176
     1
 79
     5
176
     1
170
     0
176
     1
171
     0
176
     1
290
     0
176
     1
 93
        1
176
     1
 44
0.0
176
     1
173
     0
176
     1
1001
ACAD
1000
AcDbSavedByObjectVersion
1070
     0
  0
VISUALSTYLE
  5
51A
102
{ACAD_XDICTIONARY
360
1503
102
}
102
{ACAD_REACTORS
330
519
102
}
330
519
100
AcDbVisualStyle
  2
Flat
 70
     0
177
     2
291
     1
 71
     2
176
     1
 72
     1
176
     1
 73
     1
176
     1
 90
        2
176
     1
 40
0.6
176
     1
 41
30.0
176
     1
 63
     7
421
 16777215
176
     1
 74
     0
176
     1
 91
        4
176
     1
 64
     7
176
     1
 65
   257
176
     1
 75
     1
176
     1
175
     1
176
     1
 42
1.0
176
     1
 92
        8
176
     1
 66
     7
176
     1
 43
1.0
176
     1
 76
     1
176
     1
 77
     6
176
     1
 78
     2
176
     1
 67
     7
176
     1
 79
     5
176
     1
170
     0
176
     1
171
     0
176
     1
290
     0
176
     1
 93
       13
176
     1
 44
0.0
176
     1
173
     0
176
     1
1001
ACAD
1000
AcDbSavedByObjectVersion
1070
     0
  0
VISUALSTYLE
  5
51B
102
{ACAD_XDICTIONARY
360
1505
102
}
102
{ACAD_REACTORS
330
519
102
}
330
519
100
AcDbVisualStyle
  2
FlatWithEdges
 70
     1
177
     2
291
     1
 71
     2
176
     1
 72
     1
176
     1
 73
     1
176
     1
 90
        2
176
     1
 40
0.6
176
     1
 41
30.0
176
     1
 63
     7
421
 16777215
176
     1
 74
     1
176
     1
 91
        4
176
     1
 64
     7
176
     1
 65
   257
176
     1
 75
     1
176
     1
175
     1
176
     1
 42
1.0
176
     1
 92
        0
176
     1
 66
   257
176
     1
 43
1.0
176
     1
 76
     1
176
     1
 77
     6
176
     1
 78
     2
176
     1
 67
     7
176
     1
 79
     5
176
     1
170
     0
176
     1
171
     0
176
     1
290
     0
176
     1
 93
       13
176
     1
 44
0.0
176
     1
173
     0
176
     1
1001
ACAD
1000
AcDbSavedByObjectVersion
1070
     0
  0
VISUALSTYLE
  5
51C
102
{ACAD_XDICTIONARY
360
1507
102
}
102
{ACAD_REACTORS
330
519
102
}
330
519
100
AcDbVisualStyle
  2
Gouraud
 70
     2
177
     2
291
     1
 71
     2
176
     1
 72
     2
176
     1
 73
     1
176
     1
 90
        2
176
     1
 40
0.6
176
     1
 41
30.0
176
     1
 63
     7
421
 16777215
176
     1
 74
     0
176
     1
 91
        4
176
     1
 64
     7
176
     1
 65
   257
176
     1
 75
     1
176
     1
175
     1
176
     1
 42
1.0
176
     1
 92
        0
176
     1
 66
     7
176
     1
 43
1.0
176
     1
 76
     1
176
     1
 77
     6
176
     1
 78
     2
176
     1
 67
     7
176
     1
 79
     5
176
     1
170
     0
176
     1
171
     0
176
     1
290
     0
176
     1
 93
       13
176
     1
 44
0.0
176
     1
173
     0
176
     1
1001
ACAD
1000
AcDbSavedByObjectVersion
1070
     0
  0
VISUALSTYLE
  5
51D
102
{ACAD_XDICTIONARY
360
1509
102
}
102
{ACAD_REACTORS
330
519
102
}
330
519
100
AcDbVisualStyle
  2
GouraudWithEdges
 70
     3
177
     2
291
     1
 71
     2
176
     1
 72
     2
176
     1
 73
     1
176
     1
 90
        2
176
     1
 40
0.6
176
     1
 41
30.0
176
     1
 63
     7
421
 16777215
176
     1
 74
     1
176
     1
 91
        4
176
     1
 64
     7
176
     1
 65
   257
176
     1
 75
     1
176
     1
175
     1
176
     1
 42
1.0
176
     1
 92
        0
176
     1
 66
   257
176
     1
 43
1.0
176
     1
 76
     1
176
     1
 77
     6
176
     1
 78
     2
176
     1
 67
     7
176
     1
 79
     5
176
     1
170
     0
176
     1
171
     0
176
     1
290
     0
176
     1
 93
       13
176
     1
 44
0.0
176
     1
173
     0
176
     1
1001
ACAD
1000
AcDbSavedByObjectVersion
1070
     0
  0
VISUALSTYLE
  5
92F
102
{ACAD_XDICTIONARY
360
1525
102
}
102
{ACAD_REACTORS
330
519
102
}
330
519
100
AcDbVisualStyle
  2
Hidden
 70
     6
177
     2
291
     0
 71
     1
176
     1
 72
     2
176
     1
 73
     2
176
     1
 90
        0
176
     1
 40
0.6
176
     1
 41
30.0
176
     1
 63
     7
421
 16777215
176
     1
 74
     2
176
     1
 91
        2
176
     1
 64
     7
176
     1
 65
   257
176
     1
 75
     2
176
     1
175
     1
176
     1
 42
40.0
176
     1
 92
        0
176
     1
 66
   257
176
     1
 43
1.0
176
     1
 76
     1
176
     1
 77
     6
176
     1
 78
     2
176
     1
 67
     7
176
     1
 79
     3
176
     1
170
     0
176
     1
171
     0
176
     1
290
     0
176
     1
 93
        1
176
     1
 44
0.0
176
     1
173
     0
176
     1
1001
ACAD
1000
AcDbSavedByObjectVersion
1070
     0
  0
VISUALSTYLE
  5
935
102
{ACAD_XDICTIONARY
360
1531
102
}
102
{ACAD_REACTORS
330
519
102
}
330
519
100
AcDbVisualStyle
  2
JitterOff
 70
    20
177
     2
291
     1
 71
     2
176
     0
 72
     2
176
     0
 73
     0
176
     0
 90
        0
176
     0
 40
0.6
176
     0
 41
30.0
176
     0
 63
     7
421
 16777215
176
     0
 74
     1
176
     0
 91
        4
176
     0
 64
     7
176
     0
 65
   257
176
     0
 75
     1
176
     0
175
     1
176
     0
 42
1.0
176
     0
 92
       10
176
     2
 66
     7
176
     0
 43
1.0
176
     0
 76
     1
176
     0
 77
     6
176
     0
 78
     2
176
     0
 67
     7
176
     0
 79
     5
176
     0
170
     0
176
     0
171
     0
176
     0
290
     0
176
     0
 93
        1
176
     0
 44
0.0
176
     0
173
     0
176
     0
1001
ACAD
1000
AcDbSavedByObjectVersion
1070
     0
  0
VISUALSTYLE
  5
527
102
{ACAD_XDICTIONARY
360
151D
102
}
102
{ACAD_REACTORS
330
519
102
}
330
519
100
AcDbVisualStyle
  2
Linepattern
 70
    14
177
     2
291
     1
 71
     2
176
     1
 72
     2
176
     1
 73
     0
176
     1
 90
        0
176
     1
 40
0.6
176
     1
 41
30.0
176
     1
 63
     7
421
 16777215
176
     1
 74
     1
176
     1
 91
        4
176
     1
 64
     7
176
     1
 65
   257
176
     1
 75
     7
176
     1
175
     7
176
     1
 42
1.0
176
     1
 92
        8
176
     1
 66
     7
176
     1
 43
1.0
176
     1
 76
     1
176
     1
 77
     6
176
     1
 78
     2
176
     1
 67
     7
176
     1
 79
     5
176
     1
170
     0
176
     1
171
     0
176
     1
290
     0
176
     1
 93
        1
176
     1
 44
0.0
176
     1
173
     0
176
     1
1001
ACAD
1000
AcDbSavedByObjectVersion
1070
     0
  0
VISUALSTYLE
  5
936
102
{ACAD_XDICTIONARY
360
1533
102
}
102
{ACAD_REACTORS
330
519
102
}
330
519
100
AcDbVisualStyle
  2
OverhangOff
 70
    21
177
     2
291
     1
 71
     2
176
     0
 72
     2
176
     0
 73
     0
176
     0
 90
        0
176
     0
 40
0.6
176
     0
 41
30.0
176
     0
 63
     7
421
 16777215
176
     0
 74
     1
176
     0
 91
        4
176
     0
 64
     7
176
     0
 65
   257
176
     0
 75
     1
176
     0
175
     1
176
     0
 42
1.0
176
     0
 92
        9
176
     2
 66
     7
176
     0
 43
1.0
176
     0
 76
     1
176
     0
 77
     6
176
     0
 78
     2
176
     0
 67
     7
176
     0
 79
     5
176
     0
170
     0
176
     0
171
     0
176
     0
290
     0
176
     0
 93
        1
176
     0
 44
0.0
176
     0
173
     0
176
     0
1001
ACAD
1000
AcDbSavedByObjectVersion
1070
     0
  0
VISUALSTYLE
  5
523
102
{ACAD_XDICTIONARY
360
1515
102
}
102
{ACAD_REACTORS
330
519
102
}
330
519
100
AcDbVisualStyle
  2
Realistic
 70
     8
177
     2
291
     0
 71
     2
176
     1
 72
     2
176
     1
 73
     0
176
     1
 90
        0
176
     1
 40
0.6
176
     1
 41
30.0
176
     1
 63
     7
421
 16777215
176
     1
 74
     1
176
     1
 91
        0
176
     1
 64
     7
176
     1
 65
   257
176
     1
 75
     1
176
     1
175
     1
176
     1
 42
1.0
176
     1
 92
        8
176
     1
 66
     8
424
  7895160
176
     1
 43
1.0
176
     1
 76
     1
176
     1
 77
     6
176
     1
 78
     2
176
     1
 67
     7
176
     1
 79
     5
176
     1
170
     0
176
     1
171
     0
176
     1
290
     0
176
     1
 93
       13
176
     1
 44
0.0
176
     1
173
     0
176
     1
1001
ACAD
1000
AcDbSavedByObjectVersion
1070
     0
  0
VISUALSTYLE
  5
934
102
{ACAD_XDICTIONARY
360
152F
102
}
102
{ACAD_REACTORS
330
519
102
}
330
519
100
AcDbVisualStyle
  2
Shaded
 70
    27
177
     2
291
     0
 71
     2
176
     1
 72
     2
176
     1
 73
     1
176
     1
 90
        2
176
     1
 40
0.6
176
     1
 41
30.0
176
     1
 63
     7
421
 16777215
176
     1
 74
     0
176
     1
 91
        4
176
     1
 64
     7
176
     1
 65
   257
176
     1
 75
     1
176
     1
175
     1
176
     1
 42
1.0
176
     1
 92
        8
176
     1
 66
   257
176
     1
 43
1.0
176
     1
 76
     1
176
     1
 77
     6
176
     1
 78
     2
176
     1
 67
     8
425
  7895160
176
     1
 79
     3
176
     1
170
     0
176
     1
171
     0
176
     1
290
     0
176
     1
 93
        5
176
     1
 44
0.0
176
     1
173
     0
176
     1
1001
ACAD
1000
AcDbSavedByObjectVersion
1070
     0
  0
VISUALSTYLE
  5
933
102
{ACAD_XDICTIONARY
360
152D
102
}
102
{ACAD_REACTORS
330
519
102
}
330
519
100
AcDbVisualStyle
  2
Shaded with edges
 70
    26
177
     2
291
     0
 71
     2
176
     1
 72
     2
176
     1
 73
     1
176
     1
 90
        2
176
     1
 40
0.6
176
     1
 41
30.0
176
     1
 63
     7
421
 16777215
176
     1
 74
     1
176
     1
 91
       10
176
     1
 64
     7
176
     1
 65
   257
176
     1
 75
     2
176
     1
175
     1
176
     1
 42
1.0
176
     1
 92
        8
176
     1
 66
   257
176
     1
 43
1.0
176
     1
 76
     1
176
     1
 77
     6
176
     1
 78
     2
176
     1
 67
     7
176
     1
 79
     3
176
     1
170
     0
176
     1
171
     0
176
     1
290
     0
176
     1
 93
        5
176
     1
 44
0.0
176
     1
173
     0
176
     1
1001
ACAD
1000
AcDbSavedByObjectVersion
1070
     0
  0
VISUALSTYLE
  5
930
102
{ACAD_XDICTIONARY
360
1527
102
}
102
{ACAD_REACTORS
330
519
102
}
330
519
100
AcDbVisualStyle
  2
Shades of Gray
 70
    23
177
     2
291
     0
 71
     2
176
     1
 72
     2
176
     1
 73
     3
176
     1
 90
        0
176
     1
 40
0.6
176
     1
 41
30.0
176
     1
 63
     7
421
 16777215
176
     1
 74
     2
176
     1
 91
        2
176
     1
 64
     7
176
     1
 65
     7
176
     1
 75
     1
176
     1
175
     1
176
     1
 42
40.0
176
     1
 92
        8
176
     1
 66
     7
176
     1
 43
1.0
176
     1
 76
     1
176
     1
 77
     6
176
     1
 78
     2
176
     1
 67
     7
176
     1
 79
     3
176
     1
170
     0
176
     1
171
     0
176
     1
290
     0
176
     1
 93
        1
176
     1
 44
0.0
176
     1
173
     0
176
     1
1001
ACAD
1000
AcDbSavedByObjectVersion
1070
     0
  0
VISUALSTYLE
  5
931
102
{ACAD_XDICTIONARY
360
1529
102
}
102
{ACAD_REACTORS
330
519
102
}
330
519
100
AcDbVisualStyle
  2
Sketchy
 70
    24
177
     2
291
     0
 71
     1
176
     1
 72
     2
176
     1
 73
     2
176
     1
 90
        0
176
     1
 40
0.6
176
     1
 41
30.0
176
     1
 63
     7
421
 16777215
176
     1
 74
     2
176
     1
 91
        2
176
     1
 64
     7
176
     1
 65
     7
176
     1
 75
     1
176
     1
175
     1
176
     1
 42
40.0
176
     1
 92
       11
176
     1
 66
     7
176
     1
 43
1.0
176
     1
 76
     1
176
     1
 77
     6
176
     1
 78
     2
176
     1
 67
     7
176
     1
 79
     6
176
     1
170
     0
176
     1
171
     0
176
     1
290
     0
176
     1
 93
        1
176
     1
 44
0.0
176
     1
173
     0
176
     1
1001
ACAD
1000
AcDbSavedByObjectVersion
1070
     0
  0
VISUALSTYLE
  5
526
102
{ACAD_XDICTIONARY
360
151B
102
}
102
{ACAD_REACTORS
330
519
102
}
330
519
100
AcDbVisualStyle
  2
Thicken
 70
    13
177
     2
291
     1
 71
     2
176
     1
 72
     2
176
     1
 73
     0
176
     1
 90
        0
176
     1
 40
0.6
176
     1
 41
30.0
176
     1
 63
     7
421
 16777215
176
     1
 74
     1
176
     1
 91
        4
176
     1
 64
     7
176
     1
 65
   257
176
     1
 75
     1
176
     1
175
     1
176
     1
 42
1.0
176
     1
 92
       12
176
     1
 66
     7
176
     1
 43
1.0
176
     1
 76
     1
176
     1
 77
     6
176
     1
 78
     2
176
     1
 67
     7
176
     1
 79
     5
176
     1
170
     0
176
     1
171
     0
176
     1
290
     0
176
     1
 93
        1
176
     1
 44
0.0
176
     1
173
     0
176
     1
1001
ACAD
1000
AcDbSavedByObjectVersion
1070
     0
  0
VISUALSTYLE
  5
92E
102
{ACAD_XDICTIONARY
360
1523
102
}
102
{ACAD_REACTORS
330
519
102
}
330
519
100
AcDbVisualStyle
  2
Wireframe
 70
     5
177
     2
291
     0
 71
     0
176
     1
 72
     2
176
     1
 73
     0
176
     1
 90
        0
176
     1
 40
0.6
176
     1
 41
30.0
176
     1
 63
     7
421
 16777215
176
     1
 74
     1
176
     1
 91
        4
176
     1
 64
     7
176
     1
 65
   257
176
     1
 75
     1
176
     1
175
     1
176
     1
 42
1.0
176
     1
 92
        0
176
     1
 66
   257
176
     1
 43
1.0
176
     1
 76
     1
176
     1
 77
     6
176
     1
 78
     2
176
     1
 67
     7
176
     1
 79
     3
176
     1
170
     0
176
     1
171
     0
176
     1
290
     0
176
     1
 93
        1
176
     1
 44
0.0
176
     1
173
     0
176
     1
1001
ACAD
1000
AcDbSavedByObjectVersion
1070
     0
  0
VISUALSTYLE
  5
932
102
{ACAD_XDICTIONARY
360
152B
102
}
102
{ACAD_REACTORS
330
519
102
}
330
519
100
AcDbVisualStyle
  2
X-Ray
 70
    25
177
     2
291
     0
 71
     2
176
     1
 72
     2
176
     1
 73
     1
176
     1
 90
        1
176
     1
 40
0.5
176
     1
 41
30.0
176
     1
 63
     7
421
 16777215
176
     1
 74
     1
176
     1
 91
        0
176
     1
 64
     7
176
     1
 65
   257
176
     1
 75
     1
176
     1
175
     1
176
     1
 42
1.0
176
     1
 92
        8
176
     1
 66
     7
176
     1
 43
1.0
176
     1
 76
     1
176
     1
 77
     6
176
     1
 78
     2
176
     1
 67
     7
176
     1
 79
     3
176
     1
170
     0
176
     1
171
     0
176
     1
290
     0
176
     1
 93
       13
176
     1
 44
0.0
176
     1
173
     0
176
     1
1001
ACAD
1000
AcDbSavedByObjectVersion
1070
     0
  0
DICTIONARYVAR
  5
11EB
102
{ACAD_REACTORS
330
114
102
}
330
114
100
DictionaryVariables
280
     0
  1
1:1
  0
DICTIONARYVAR
  5
11E7
102
{ACAD_REACTORS
330
114
102
}
330
114
100
DictionaryVariables
280
     0
  1
STANDARD
  0
DICTIONARYVAR
  5
530
102
{ACAD_REACTORS
330
114
102
}
330
114
100
DictionaryVariables
280
     0
  1
STANDARD
  0
DICTIONARYVAR
  5
11E8
102
{ACAD_REACTORS
330
114
102
}
330
114
100
DictionaryVariables
280
     0
  1
Imperial24
  0
DICTIONARYVAR
  5
11E9
102
{ACAD_REACTORS
330
114
102
}
330
114
100
DictionaryVariables
280
     0
  1
Imperial24
  0
DICTIONARYVAR
  5
2FC
102
{ACAD_REACTORS
330
114
102
}
330
114
100
DictionaryVariables
280
     0
  1
2
  0
DICTIONARYVAR
  5
2FB
102
{ACAD_REACTORS
330
114
102
}
330
114
100
DictionaryVariables
280
     0
  1
1
  0
DICTIONARYVAR
  5
11ED
102
{ACAD_REACTORS
330
114
102
}
330
114
100
DictionaryVariables
280
     0
  1
1
  0
DICTIONARYVAR
  5
11EE
102
{ACAD_REACTORS
330
114
102
}
330
114
100
DictionaryVariables
280
     0
  1
15
  0
DICTIONARYVAR
  5
11EC
102
{ACAD_REACTORS
330
114
102
}
330
114
100
DictionaryVariables
280
     0
  1
0
  0
DICTIONARYVAR
  5
11EA
102
{ACAD_REACTORS
330
114
102
}
330
114
100
DictionaryVariables
280
     0
  1
0
  0
DICTIONARYVAR
  5
115
102
{ACAD_REACTORS
330
114
102
}
330
114
100
DictionaryVariables
280
     0
  1
96
  0
DICTIONARY
  5
1502
102
{ACAD_REACTORS
330
1500
102
}
330
1500
100
AcDbDictionary
281
     1
  0
DICTIONARY
  5
1501
102
{ACAD_REACTORS
330
1500
102
}
330
1500
100
AcDbDictionary
281
     1
  3
8796088306096
350
14FB
  3
8796088306112
350
14FC
  3
8796088306128
350
14FD
  3
8796088306144
350
14FE
  3
8796088306160
350
14FF
  0
DICTIONARY
  5
985
102
{ACAD_REACTORS
330
983
102
}
330
983
100
AcDbDictionary
281
     1
  0
DICTIONARY
  5
14CD
330
950
100
AcDbDictionary
280
     1
281
     1
  3
ACAD_XREC_ROUNDTRIP
360
153A
  0
DICTIONARY
  5
13B6
330
22
100
AcDbDictionary
280
     1
281
     1
  0
DICTIONARY
  5
60B
330
1E
100
AcDbDictionary
280
     1
281
     1
  0
DICTIONARY
  5
1537
330
94B
100
AcDbDictionary
280
     1
281
     1
  3
ACAD_XREC_ROUNDTRIP
360
1538
  0
DICTIONARY
  5
14CB
330
94E
100
AcDbDictionary
280
     1
281
     1
  3
ACAD_XREC_ROUNDTRIP
360
1539
  0
DICTIONARY
  5
14F8
330
52C
100
AcDbDictionary
280
     1
281
     1
  3
ACAD_ROUNDTRIP_2008_TABLESTYLE_CELLSTYLEMAP
360
14F9
  0
DICTIONARY
  5
150D
330
51F
100
AcDbDictionary
280
     1
281
     1
  3
ACAD_XREC_ROUNDTRIP
360
150E
  0
DICTIONARY
  5
1511
330
521
100
AcDbDictionary
280
     1
281
     1
  3
ACAD_XREC_ROUNDTRIP
360
1512
  0
DICTIONARY
  5
150F
330
520
100
AcDbDictionary
280
     1
281
     1
  3
ACAD_XREC_ROUNDTRIP
360
1510
  0
DICTIONARY
  5
150B
330
51E
100
AcDbDictionary
280
     1
281
     1
  3
ACAD_XREC_ROUNDTRIP
360
150C
  0
DICTIONARY
  5
1519
330
525
100
AcDbDictionary
280
     1
281
     1
  3
ACAD_XREC_ROUNDTRIP
360
151A
  0
DICTIONARY
  5
1521
330
529
100
AcDbDictionary
280
     1
281
     1
  3
ACAD_XREC_ROUNDTRIP
360
1522
  0
DICTIONARY
  5
1513
330
522
100
AcDbDictionary
280
     1
281
     1
  3
ACAD_XREC_ROUNDTRIP
360
1514
  0
DICTIONARY
  5
1517
330
524
100
AcDbDictionary
280
     1
281
     1
  3
ACAD_XREC_ROUNDTRIP
360
1518
  0
DICTIONARY
  5
1535
330
937
100
AcDbDictionary
280
     1
281
     1
  3
ACAD_XREC_ROUNDTRIP
360
1536
  0
DICTIONARY
  5
151F
330
528
100
AcDbDictionary
280
     1
281
     1
  3
ACAD_XREC_ROUNDTRIP
360
1520
  0
DICTIONARY
  5
1503
330
51A
100
AcDbDictionary
280
     1
281
     1
  3
ACAD_XREC_ROUNDTRIP
360
1504
  0
DICTIONARY
  5
1505
330
51B
100
AcDbDictionary
280
     1
281
     1
  3
ACAD_XREC_ROUNDTRIP
360
1506
  0
DICTIONARY
  5
1507
330
51C
100
AcDbDictionary
280
     1
281
     1
  3
ACAD_XREC_ROUNDTRIP
360
1508
  0
DICTIONARY
  5
1509
330
51D
100
AcDbDictionary
280
     1
281
     1
  3
ACAD_XREC_ROUNDTRIP
360
150A
  0
DICTIONARY
  5
1525
330
92F
100
AcDbDictionary
280
     1
281
     1
  3
ACAD_XREC_ROUNDTRIP
360
1526
  0
DICTIONARY
  5
1531
330
935
100
AcDbDictionary
280
     1
281
     1
  3
ACAD_XREC_ROUNDTRIP
360
1532
  0
DICTIONARY
  5
151D
330
527
100
AcDbDictionary
280
     1
281
     1
  3
ACAD_XREC_ROUNDTRIP
360
151E
  0
DICTIONARY
  5
1533
330
936
100
AcDbDictionary
280
     1
281
     1
  3
ACAD_XREC_ROUNDTRIP
360
1534
  0
DICTIONARY
  5
1515
330
523
100
AcDbDictionary
280
     1
281
     1
  3
ACAD_XREC_ROUNDTRIP
360
1516
  0
DICTIONARY
  5
152F
330
934
100
AcDbDictionary
280
     1
281
     1
  3
ACAD_XREC_ROUNDTRIP
360
1530
  0
DICTIONARY
  5
152D
330
933
100
AcDbDictionary
280
     1
281
     1
  3
ACAD_XREC_ROUNDTRIP
360
152E
  0
DICTIONARY
  5
1527
330
930
100
AcDbDictionary
280
     1
281
     1
  3
ACAD_XREC_ROUNDTRIP
360
1528
  0
DICTIONARY
  5
1529
330
931
100
AcDbDictionary
280
     1
281
     1
  3
ACAD_XREC_ROUNDTRIP
360
152A
  0
DICTIONARY
  5
151B
330
526
100
AcDbDictionary
280
     1
281
     1
  3
ACAD_XREC_ROUNDTRIP
360
151C
  0
DICTIONARY
  5
1523
330
92E
100
AcDbDictionary
280
     1
281
     1
  3
ACAD_XREC_ROUNDTRIP
360
1524
  0
DICTIONARY
  5
152B
330
932
100
AcDbDictionary
280
     1
281
     1
  3
ACAD_XREC_ROUNDTRIP
360
152C
  0
XRECORD
  5
14FB
102
{ACAD_REACTORS
330
1501
102
}
330
1501
100
AcDbXrecord
280
     1
  1
AcDb_Thumbnail_Schema
102
{ATTRRECORD
341
14FC
  2
AcDbDs::TreatedAsObjectData
280
     1
291
     1
102
ATTRRECORD}
102
{ATTRRECORD
341
14FD
  2
AcDbDs::Legacy
280
     1
291
     1
102
ATTRRECORD}
  2
AcDbDs::ID
280
    10
 91
        8
102
{ATTRRECORD
341
14FE
  2
AcDs:Indexable
280
     1
291
     1
102
ATTRRECORD}
102
{ATTRRECORD
341
14FF
  2
AcDbDs::HandleAttribute
280
     7
282
     1
102
ATTRRECORD}
  2
Thumbnail_Data
280
    15
 91
        0
  0
XRECORD
  5
14FC
102
{ACAD_REACTORS
330
1501
102
}
330
1501
100
AcDbXrecord
280
     1
  1
AcDbDs::TreatedAsObjectDataSchema
  2
AcDbDs::TreatedAsObjectData
280
     1
 91
        0
  0
XRECORD
  5
14FD
102
{ACAD_REACTORS
330
1501
102
}
330
1501
100
AcDbXrecord
280
     1
  1
AcDbDs::LegacySchema
  2
AcDbDs::Legacy
280
     1
 91
        0
  0
XRECORD
  5
14FE
102
{ACAD_REACTORS
330
1501
102
}
330
1501
100
AcDbXrecord
280
     1
  1
AcDbDs::IndexedPropertySchema
  2
AcDs:Indexable
280
     1
 91
        0
  0
XRECORD
  5
14FF
102
{ACAD_REACTORS
330
1501
102
}
330
1501
100
AcDbXrecord
280
     1
  1
AcDbDs::HandleAttributeSchema
  2
AcDbDs::HandleAttribute
280
     7
 91
        1
284
     1
  0
XRECORD
  5
153A
102
{ACAD_REACTORS
330
14CD
102
}
330
14CD
100
AcDbXrecord
280
     1
102
DISPLAYNAME
  1
Imperial24
102
FLAGS
 90
        0
  0
XRECORD
  5
1538
102
{ACAD_REACTORS
330
1537
102
}
330
1537
100
AcDbXrecord
280
     1
102
ACAD_ROUNDTRIP_2012_MLEADER_STYLE
298
     1
  0
XRECORD
  5
1539
102
{ACAD_REACTORS
330
14CB
102
}
330
14CB
100
AcDbXrecord
280
     1
102
DISPLAYNAME
  1
Imperial24
102
FLAGS
 90
        0
  0
CELLSTYLEMAP
  5
14F9
102
{ACAD_REACTORS
330
14F8
102
}
330
14F8
100
AcDbCellStyleMap
 90
        3
300
CELLSTYLE
  1
TABLEFORMAT_BEGIN
 90
        5
170
     1
 91
        0
 92
    32768
 62
   257
 93
        1
300
CONTENTFORMAT
  1
CONTENTFORMAT_BEGIN
 90
        0
 91
        0
 92
      512
 93
        0
300

 40
0.0
140
1.0
 94
        5
 62
     0
340
11
144
0.25
309
CONTENTFORMAT_END
171
     0
 94
        6
 95
        1
302
GRIDFORMAT
  1
GRIDFORMAT_BEGIN
 90
        0
 91
        1
 62
     0
 92
       -2
340
0
 93
        0
 40
0.045
309
GRIDFORMAT_END
 95
        2
302
GRIDFORMAT
  1
GRIDFORMAT_BEGIN
 90
        0
 91
        1
 62
     0
 92
       -2
340
0
 93
        0
 40
0.045
309
GRIDFORMAT_END
 95
        4
302
GRIDFORMAT
  1
GRIDFORMAT_BEGIN
 90
        0
 91
        1
 62
     0
 92
       -2
340
0
 93
        0
 40
0.045
309
GRIDFORMAT_END
 95
        8
302
GRIDFORMAT
  1
GRIDFORMAT_BEGIN
 90
        0
 91
        1
 62
     0
 92
       -2
340
0
 93
        0
 40
0.045
309
GRIDFORMAT_END
 95
       16
302
GRIDFORMAT
  1
GRIDFORMAT_BEGIN
 90
        0
 91
        1
 62
     0
 92
       -2
340
0
 93
        0
 40
0.045
309
GRIDFORMAT_END
 95
       32
302
GRIDFORMAT
  1
GRIDFORMAT_BEGIN
 90
        0
 91
        1
 62
     0
 92
       -2
340
0
 93
        0
 40
0.045
309
GRIDFORMAT_END
309
TABLEFORMAT_END
  1
CELLSTYLE_BEGIN
 90
        1
 91
        1
300
_TITLE
309
CELLSTYLE_END
300
CELLSTYLE
  1
TABLEFORMAT_BEGIN
 90
        5
170
     1
 91
        0
 92
        0
 62
   257
 93
        1
300
CONTENTFORMAT
  1
CONTENTFORMAT_BEGIN
 90
        0
 91
        0
 92
      512
 93
        0
300

 40
0.0
140
1.0
 94
        5
 62
     0
340
11
144
0.18
309
CONTENTFORMAT_END
171
     0
 94
        6
 95
        1
302
GRIDFORMAT
  1
GRIDFORMAT_BEGIN
 90
        0
 91
        1
 62
     0
 92
       -2
340
0
 93
        0
 40
0.045
309
GRIDFORMAT_END
 95
        2
302
GRIDFORMAT
  1
GRIDFORMAT_BEGIN
 90
        0
 91
        1
 62
     0
 92
       -2
340
0
 93
        0
 40
0.045
309
GRIDFORMAT_END
 95
        4
302
GRIDFORMAT
  1
GRIDFORMAT_BEGIN
 90
        0
 91
        1
 62
     0
 92
       -2
340
0
 93
        0
 40
0.045
309
GRIDFORMAT_END
 95
        8
302
GRIDFORMAT
  1
GRIDFORMAT_BEGIN
 90
        0
 91
        1
 62
     0
 92
       -2
340
0
 93
        0
 40
0.045
309
GRIDFORMAT_END
 95
       16
302
GRIDFORMAT
  1
GRIDFORMAT_BEGIN
 90
        0
 91
        1
 62
     0
 92
       -2
340
0
 93
        0
 40
0.045
309
GRIDFORMAT_END
 95
       32
302
GRIDFORMAT
  1
GRIDFORMAT_BEGIN
 90
        0
 91
        1
 62
     0
 92
       -2
340
0
 93
        0
 40
0.045
309
GRIDFORMAT_END
309
TABLEFORMAT_END
  1
CELLSTYLE_BEGIN
 90
        2
 91
        1
300
_HEADER
309
CELLSTYLE_END
300
CELLSTYLE
  1
TABLEFORMAT_BEGIN
 90
        5
170
     1
 91
        0
 92
        0
 62
   257
 93
        1
300
CONTENTFORMAT
  1
CONTENTFORMAT_BEGIN
 90
        0
 91
        0
 92
      512
 93
        0
300

 40
0.0
140
1.0
 94
        2
 62
     0
340
11
144
0.18
309
CONTENTFORMAT_END
171
     0
 94
        6
 95
        1
302
GRIDFORMAT
  1
GRIDFORMAT_BEGIN
 90
        0
 91
        1
 62
     0
 92
       -2
340
0
 93
        0
 40
0.045
309
GRIDFORMAT_END
 95
        2
302
GRIDFORMAT
  1
GRIDFORMAT_BEGIN
 90
        0
 91
        1
 62
     0
 92
       -2
340
0
 93
        0
 40
0.045
309
GRIDFORMAT_END
 95
        4
302
GRIDFORMAT
  1
GRIDFORMAT_BEGIN
 90
        0
 91
        1
 62
     0
 92
       -2
340
0
 93
        0
 40
0.045
309
GRIDFORMAT_END
 95
        8
302
GRIDFORMAT
  1
GRIDFORMAT_BEGIN
 90
        0
 91
        1
 62
     0
 92
       -2
340
0
 93
        0
 40
0.045
309
GRIDFORMAT_END
 95
       16
302
GRIDFORMAT
  1
GRIDFORMAT_BEGIN
 90
        0
 91
        1
 62
     0
 92
       -2
340
0
 93
        0
 40
0.045
309
GRIDFORMAT_END
 95
       32
302
GRIDFORMAT
  1
GRIDFORMAT_BEGIN
 90
        0
 91
        1
 62
     0
 92
       -2
340
0
 93
        0
 40
0.045
309
GRIDFORMAT_END
309
TABLEFORMAT_END
  1
CELLSTYLE_BEGIN
 90
        3
 91
        2
300
_DATA
309
CELLSTYLE_END
  0
XRECORD
  5
150E
102
{ACAD_REACTORS
330
150D
102
}
330
150D
100
AcDbXrecord
280
     1
102
RTVSPost2010Prop28
280
     1
102
RTVSPost2010PropOp28
 70
     1
102
RTVSPost2010Prop29
280
     1
102
RTVSPost2010PropOp29
 70
     1
102
RTVSPost2010Prop30
280
     0
102
RTVSPost2010PropOp30
 70
     1
102
RTVSPost2010Prop31
280
     0
102
RTVSPost2010PropOp31
 70
     1
102
RTVSPost2010Prop32
280
     0
102
RTVSPost2010PropOp32
 70
     1
102
RTVSPost2010Prop33
280
     0
102
RTVSPost2010PropOp33
 70
     1
102
RTVSPost2010Prop34
280
     0
102
RTVSPost2010PropOp34
 70
     1
102
RTVSPost2010Prop35
280
     0
102
RTVSPost2010PropOp35
 70
     1
102
RTVSPost2010Prop36
280
     0
102
RTVSPost2010PropOp36
 70
     1
102
RTVSPost2010Prop37
 90
       50
102
RTVSPost2010PropOp37
 70
     1
102
RTVSPost2010Prop38
140
0.0
102
RTVSPost2010PropOp38
 70
     1
102
RTVSPost2010Prop39
140
1.0
102
RTVSPost2010PropOp39
 70
     1
102
RTVSPost2010Prop40
 90
        0
102
RTVSPost2010PropOp40
 70
     1
102
RTVSPost2010Prop41ColorIndex
 90
       18
102
RTVSPost2010Prop41ColorRGB
 90
        0
102
RTVSPost2010PropOp41
 70
     1
102
RTVSPost2010Prop42
 90
       50
102
RTVSPost2010PropOp42
 70
     1
102
RTVSPost2010Prop43
 90
        3
102
RTVSPost2010PropOp43
 70
     1
102
RTVSPost2010Prop44ColorIndex
 90
        5
102
RTVSPost2010Prop44ColorRGB
 90
      255
102
RTVSPost2010PropOp44
 70
     1
102
RTVSPost2010Prop45
280
     0
102
RTVSPost2010PropOp45
 70
     1
102
RTVSPost2010Prop46
 90
       50
102
RTVSPost2010PropOp46
 70
     1
102
RTVSPost2010Prop47
 90
       50
102
RTVSPost2010PropOp47
 70
     1
102
RTVSPost2010Prop48
 90
       50
102
RTVSPost2010PropOp48
 70
     1
102
RTVSPost2010Prop49
280
     0
102
RTVSPost2010PropOp49
 70
     1
102
RTVSPost2010Prop50
 90
       50
102
RTVSPost2010PropOp50
 70
     1
102
RTVSPost2010Prop51ColorIndex
 90
      256
102
RTVSPost2010Prop51ColorRGB
 90
-16777216
102
RTVSPost2010PropOp51
 70
     0
102
RTVSPost2010Prop52
140
1.0
102
RTVSPost2010PropOp52
 70
     0
102
RTVSPost2010Prop53
 90
        2
102
RTVSPost2010PropOp53
 70
     1
102
RTVSPost2010Prop54
  1
strokes_ogs.tif
102
RTVSPost2010PropOp54
 70
     1
102
RTVSPost2010Prop55
280
     0
102
RTVSPost2010PropOp55
 70
     1
102
RTVSPost2010Prop56
140
1.0
102
RTVSPost2010PropOp56
 70
     1
102
RTVSPost2010Prop57
140
1.0
102
RTVSPost2010PropOp57
 70
     1
  0
XRECORD
  5
1512
102
{ACAD_REACTORS
330
1511
102
}
330
1511
100
AcDbXrecord
280
     1
102
RTVSPost2010Prop28
280
     0
102
RTVSPost2010PropOp28
 70
     1
102
RTVSPost2010Prop29
280
     1
102
RTVSPost2010PropOp29
 70
     1
102
RTVSPost2010Prop30
280
     1
102
RTVSPost2010PropOp30
 70
     1
102
RTVSPost2010Prop31
280
     0
102
RTVSPost2010PropOp31
 70
     1
102
RTVSPost2010Prop32
280
     0
102
RTVSPost2010PropOp32
 70
     1
102
RTVSPost2010Prop33
280
     0
102
RTVSPost2010PropOp33
 70
     1
102
RTVSPost2010Prop34
280
     0
102
RTVSPost2010PropOp34
 70
     1
102
RTVSPost2010Prop35
280
     0
102
RTVSPost2010PropOp35
 70
     1
102
RTVSPost2010Prop36
280
     0
102
RTVSPost2010PropOp36
 70
     1
102
RTVSPost2010Prop37
 90
       50
102
RTVSPost2010PropOp37
 70
     1
102
RTVSPost2010Prop38
140
0.0
102
RTVSPost2010PropOp38
 70
     1
102
RTVSPost2010Prop39
140
1.0
102
RTVSPost2010PropOp39
 70
     1
102
RTVSPost2010Prop40
 90
        0
102
RTVSPost2010PropOp40
 70
     1
102
RTVSPost2010Prop41ColorIndex
 90
       18
102
RTVSPost2010Prop41ColorRGB
 90
        0
102
RTVSPost2010PropOp41
 70
     1
102
RTVSPost2010Prop42
 90
       50
102
RTVSPost2010PropOp42
 70
     1
102
RTVSPost2010Prop43
 90
        3
102
RTVSPost2010PropOp43
 70
     1
102
RTVSPost2010Prop44ColorIndex
 90
        5
102
RTVSPost2010Prop44ColorRGB
 90
      255
102
RTVSPost2010PropOp44
 70
     1
102
RTVSPost2010Prop45
280
     0
102
RTVSPost2010PropOp45
 70
     1
102
RTVSPost2010Prop46
 90
       50
102
RTVSPost2010PropOp46
 70
     1
102
RTVSPost2010Prop47
 90
       50
102
RTVSPost2010PropOp47
 70
     1
102
RTVSPost2010Prop48
 90
       50
102
RTVSPost2010PropOp48
 70
     1
102
RTVSPost2010Prop49
280
     0
102
RTVSPost2010PropOp49
 70
     1
102
RTVSPost2010Prop50
 90
       50
102
RTVSPost2010PropOp50
 70
     1
102
RTVSPost2010Prop51ColorIndex
 90
      256
102
RTVSPost2010Prop51ColorRGB
 90
-16777216
102
RTVSPost2010PropOp51
 70
     0
102
RTVSPost2010Prop52
140
1.0
102
RTVSPost2010PropOp52
 70
     0
102
RTVSPost2010Prop53
 90
        2
102
RTVSPost2010PropOp53
 70
     1
102
RTVSPost2010Prop54
  1
strokes_ogs.tif
102
RTVSPost2010PropOp54
 70
     1
102
RTVSPost2010Prop55
280
     0
102
RTVSPost2010PropOp55
 70
     1
102
RTVSPost2010Prop56
140
1.0
102
RTVSPost2010PropOp56
 70
     1
102
RTVSPost2010Prop57
140
1.0
102
RTVSPost2010PropOp57
 70
     1
  0
XRECORD
  5
1510
102
{ACAD_REACTORS
330
150F
102
}
330
150F
100
AcDbXrecord
280
     1
102
RTVSPost2010Prop28
280
     0
102
RTVSPost2010PropOp28
 70
     1
102
RTVSPost2010Prop29
280
     1
102
RTVSPost2010PropOp29
 70
     1
102
RTVSPost2010Prop30
280
     1
102
RTVSPost2010PropOp30
 70
     1
102
RTVSPost2010Prop31
280
     0
102
RTVSPost2010PropOp31
 70
     1
102
RTVSPost2010Prop32
280
     0
102
RTVSPost2010PropOp32
 70
     1
102
RTVSPost2010Prop33
280
     0
102
RTVSPost2010PropOp33
 70
     1
102
RTVSPost2010Prop34
280
     0
102
RTVSPost2010PropOp34
 70
     1
102
RTVSPost2010Prop35
280
     0
102
RTVSPost2010PropOp35
 70
     1
102
RTVSPost2010Prop36
280
     0
102
RTVSPost2010PropOp36
 70
     1
102
RTVSPost2010Prop37
 90
       50
102
RTVSPost2010PropOp37
 70
     1
102
RTVSPost2010Prop38
140
0.0
102
RTVSPost2010PropOp38
 70
     1
102
RTVSPost2010Prop39
140
1.0
102
RTVSPost2010PropOp39
 70
     1
102
RTVSPost2010Prop40
 90
        0
102
RTVSPost2010PropOp40
 70
     1
102
RTVSPost2010Prop41ColorIndex
 90
       18
102
RTVSPost2010Prop41ColorRGB
 90
        0
102
RTVSPost2010PropOp41
 70
     1
102
RTVSPost2010Prop42
 90
       50
102
RTVSPost2010PropOp42
 70
     1
102
RTVSPost2010Prop43
 90
        3
102
RTVSPost2010PropOp43
 70
     1
102
RTVSPost2010Prop44ColorIndex
 90
        5
102
RTVSPost2010Prop44ColorRGB
 90
      255
102
RTVSPost2010PropOp44
 70
     1
102
RTVSPost2010Prop45
280
     0
102
RTVSPost2010PropOp45
 70
     1
102
RTVSPost2010Prop46
 90
       50
102
RTVSPost2010PropOp46
 70
     1
102
RTVSPost2010Prop47
 90
       50
102
RTVSPost2010PropOp47
 70
     1
102
RTVSPost2010Prop48
 90
       50
102
RTVSPost2010PropOp48
 70
     1
102
RTVSPost2010Prop49
280
     0
102
RTVSPost2010PropOp49
 70
     1
102
RTVSPost2010Prop50
 90
       50
102
RTVSPost2010PropOp50
 70
     1
102
RTVSPost2010Prop51ColorIndex
 90
      256
102
RTVSPost2010Prop51ColorRGB
 90
-16777216
102
RTVSPost2010PropOp51
 70
     0
102
RTVSPost2010Prop52
140
1.0
102
RTVSPost2010PropOp52
 70
     0
102
RTVSPost2010Prop53
 90
        2
102
RTVSPost2010PropOp53
 70
     1
102
RTVSPost2010Prop54
  1
strokes_ogs.tif
102
RTVSPost2010PropOp54
 70
     1
102
RTVSPost2010Prop55
280
     0
102
RTVSPost2010PropOp55
 70
     1
102
RTVSPost2010Prop56
140
1.0
102
RTVSPost2010PropOp56
 70
     1
102
RTVSPost2010Prop57
140
1.0
102
RTVSPost2010PropOp57
 70
     1
  0
XRECORD
  5
150C
102
{ACAD_REACTORS
330
150B
102
}
330
150B
100
AcDbXrecord
280
     1
102
RTVSPost2010Prop28
280
     0
102
RTVSPost2010PropOp28
 70
     1
102
RTVSPost2010Prop29
280
     1
102
RTVSPost2010PropOp29
 70
     1
102
RTVSPost2010Prop30
280
     1
102
RTVSPost2010PropOp30
 70
     1
102
RTVSPost2010Prop31
280
     0
102
RTVSPost2010PropOp31
 70
     1
102
RTVSPost2010Prop32
280
     0
102
RTVSPost2010PropOp32
 70
     1
102
RTVSPost2010Prop33
280
     0
102
RTVSPost2010PropOp33
 70
     1
102
RTVSPost2010Prop34
280
     0
102
RTVSPost2010PropOp34
 70
     1
102
RTVSPost2010Prop35
280
     0
102
RTVSPost2010PropOp35
 70
     1
102
RTVSPost2010Prop36
280
     0
102
RTVSPost2010PropOp36
 70
     1
102
RTVSPost2010Prop37
 90
       50
102
RTVSPost2010PropOp37
 70
     1
102
RTVSPost2010Prop38
140
0.0
102
RTVSPost2010PropOp38
 70
     1
102
RTVSPost2010Prop39
140
1.0
102
RTVSPost2010PropOp39
 70
     1
102
RTVSPost2010Prop40
 90
        0
102
RTVSPost2010PropOp40
 70
     1
102
RTVSPost2010Prop41ColorIndex
 90
       18
102
RTVSPost2010Prop41ColorRGB
 90
        0
102
RTVSPost2010PropOp41
 70
     1
102
RTVSPost2010Prop42
 90
       50
102
RTVSPost2010PropOp42
 70
     1
102
RTVSPost2010Prop43
 90
        3
102
RTVSPost2010PropOp43
 70
     1
102
RTVSPost2010Prop44ColorIndex
 90
        5
102
RTVSPost2010Prop44ColorRGB
 90
      255
102
RTVSPost2010PropOp44
 70
     1
102
RTVSPost2010Prop45
280
     0
102
RTVSPost2010PropOp45
 70
     1
102
RTVSPost2010Prop46
 90
       50
102
RTVSPost2010PropOp46
 70
     1
102
RTVSPost2010Prop47
 90
       50
102
RTVSPost2010PropOp47
 70
     1
102
RTVSPost2010Prop48
 90
       50
102
RTVSPost2010PropOp48
 70
     1
102
RTVSPost2010Prop49
280
     0
102
RTVSPost2010PropOp49
 70
     1
102
RTVSPost2010Prop50
 90
       50
102
RTVSPost2010PropOp50
 70
     1
102
RTVSPost2010Prop51ColorIndex
 90
      256
102
RTVSPost2010Prop51ColorRGB
 90
-16777216
102
RTVSPost2010PropOp51
 70
     0
102
RTVSPost2010Prop52
140
1.0
102
RTVSPost2010PropOp52
 70
     0
102
RTVSPost2010Prop53
 90
        2
102
RTVSPost2010PropOp53
 70
     1
102
RTVSPost2010Prop54
  1
strokes_ogs.tif
102
RTVSPost2010PropOp54
 70
     1
102
RTVSPost2010Prop55
280
     0
102
RTVSPost2010PropOp55
 70
     1
102
RTVSPost2010Prop56
140
1.0
102
RTVSPost2010PropOp56
 70
     1
102
RTVSPost2010Prop57
140
1.0
102
RTVSPost2010PropOp57
 70
     1
  0
XRECORD
  5
151A
102
{ACAD_REACTORS
330
1519
102
}
330
1519
100
AcDbXrecord
280
     1
102
RTVSPost2010Prop28
280
     0
102
RTVSPost2010PropOp28
 70
     1
102
RTVSPost2010Prop29
280
     1
102
RTVSPost2010PropOp29
 70
     1
102
RTVSPost2010Prop30
280
     1
102
RTVSPost2010PropOp30
 70
     1
102
RTVSPost2010Prop31
280
     0
102
RTVSPost2010PropOp31
 70
     1
102
RTVSPost2010Prop32
280
     0
102
RTVSPost2010PropOp32
 70
     1
102
RTVSPost2010Prop33
280
     0
102
RTVSPost2010PropOp33
 70
     1
102
RTVSPost2010Prop34
280
     0
102
RTVSPost2010PropOp34
 70
     1
102
RTVSPost2010Prop35
280
     0
102
RTVSPost2010PropOp35
 70
     1
102
RTVSPost2010Prop36
280
     0
102
RTVSPost2010PropOp36
 70
     1
102
RTVSPost2010Prop37
 90
       50
102
RTVSPost2010PropOp37
 70
     1
102
RTVSPost2010Prop38
140
0.0
102
RTVSPost2010PropOp38
 70
     1
102
RTVSPost2010Prop39
140
1.0
102
RTVSPost2010PropOp39
 70
     1
102
RTVSPost2010Prop40
 90
        0
102
RTVSPost2010PropOp40
 70
     1
102
RTVSPost2010Prop41ColorIndex
 90
       18
102
RTVSPost2010Prop41ColorRGB
 90
        0
102
RTVSPost2010PropOp41
 70
     1
102
RTVSPost2010Prop42
 90
       50
102
RTVSPost2010PropOp42
 70
     1
102
RTVSPost2010Prop43
 90
        3
102
RTVSPost2010PropOp43
 70
     1
102
RTVSPost2010Prop44ColorIndex
 90
        5
102
RTVSPost2010Prop44ColorRGB
 90
      255
102
RTVSPost2010PropOp44
 70
     1
102
RTVSPost2010Prop45
280
     0
102
RTVSPost2010PropOp45
 70
     1
102
RTVSPost2010Prop46
 90
       50
102
RTVSPost2010PropOp46
 70
     1
102
RTVSPost2010Prop47
 90
       50
102
RTVSPost2010PropOp47
 70
     1
102
RTVSPost2010Prop48
 90
       50
102
RTVSPost2010PropOp48
 70
     1
102
RTVSPost2010Prop49
280
     0
102
RTVSPost2010PropOp49
 70
     1
102
RTVSPost2010Prop50
 90
       50
102
RTVSPost2010PropOp50
 70
     1
102
RTVSPost2010Prop51ColorIndex
 90
      256
102
RTVSPost2010Prop51ColorRGB
 90
-16777216
102
RTVSPost2010PropOp51
 70
     0
102
RTVSPost2010Prop52
140
1.0
102
RTVSPost2010PropOp52
 70
     0
102
RTVSPost2010Prop53
 90
        2
102
RTVSPost2010PropOp53
 70
     1
102
RTVSPost2010Prop54
  1
strokes_ogs.tif
102
RTVSPost2010PropOp54
 70
     1
102
RTVSPost2010Prop55
280
     0
102
RTVSPost2010PropOp55
 70
     1
102
RTVSPost2010Prop56
140
1.0
102
RTVSPost2010PropOp56
 70
     1
102
RTVSPost2010Prop57
140
1.0
102
RTVSPost2010PropOp57
 70
     1
  0
XRECORD
  5
1522
102
{ACAD_REACTORS
330
1521
102
}
330
1521
100
AcDbXrecord
280
     1
102
RTVSPost2010Prop28
280
     0
102
RTVSPost2010PropOp28
 70
     1
102
RTVSPost2010Prop29
280
     1
102
RTVSPost2010PropOp29
 70
     1
102
RTVSPost2010Prop30
280
     1
102
RTVSPost2010PropOp30
 70
     1
102
RTVSPost2010Prop31
280
     0
102
RTVSPost2010PropOp31
 70
     1
102
RTVSPost2010Prop32
280
     0
102
RTVSPost2010PropOp32
 70
     1
102
RTVSPost2010Prop33
280
     0
102
RTVSPost2010PropOp33
 70
     1
102
RTVSPost2010Prop34
280
     0
102
RTVSPost2010PropOp34
 70
     1
102
RTVSPost2010Prop35
280
     0
102
RTVSPost2010PropOp35
 70
     1
102
RTVSPost2010Prop36
280
     0
102
RTVSPost2010PropOp36
 70
     1
102
RTVSPost2010Prop37
 90
       50
102
RTVSPost2010PropOp37
 70
     1
102
RTVSPost2010Prop38
140
0.0
102
RTVSPost2010PropOp38
 70
     1
102
RTVSPost2010Prop39
140
1.0
102
RTVSPost2010PropOp39
 70
     1
102
RTVSPost2010Prop40
 90
        0
102
RTVSPost2010PropOp40
 70
     1
102
RTVSPost2010Prop41ColorIndex
 90
       18
102
RTVSPost2010Prop41ColorRGB
 90
        0
102
RTVSPost2010PropOp41
 70
     1
102
RTVSPost2010Prop42
 90
       50
102
RTVSPost2010PropOp42
 70
     1
102
RTVSPost2010Prop43
 90
        3
102
RTVSPost2010PropOp43
 70
     1
102
RTVSPost2010Prop44ColorIndex
 90
        5
102
RTVSPost2010Prop44ColorRGB
 90
      255
102
RTVSPost2010PropOp44
 70
     1
102
RTVSPost2010Prop45
280
     0
102
RTVSPost2010PropOp45
 70
     1
102
RTVSPost2010Prop46
 90
       50
102
RTVSPost2010PropOp46
 70
     1
102
RTVSPost2010Prop47
 90
       50
102
RTVSPost2010PropOp47
 70
     1
102
RTVSPost2010Prop48
 90
       50
102
RTVSPost2010PropOp48
 70
     1
102
RTVSPost2010Prop49
280
     0
102
RTVSPost2010PropOp49
 70
     1
102
RTVSPost2010Prop50
 90
       50
102
RTVSPost2010PropOp50
 70
     1
102
RTVSPost2010Prop51ColorIndex
 90
      256
102
RTVSPost2010Prop51ColorRGB
 90
-16777216
102
RTVSPost2010PropOp51
 70
     0
102
RTVSPost2010Prop52
140
1.0
102
RTVSPost2010PropOp52
 70
     0
102
RTVSPost2010Prop53
 90
        2
102
RTVSPost2010PropOp53
 70
     1
102
RTVSPost2010Prop54
  1
strokes_ogs.tif
102
RTVSPost2010PropOp54
 70
     1
102
RTVSPost2010Prop55
280
     0
102
RTVSPost2010PropOp55
 70
     1
102
RTVSPost2010Prop56
140
1.0
102
RTVSPost2010PropOp56
 70
     1
102
RTVSPost2010Prop57
140
1.0
102
RTVSPost2010PropOp57
 70
     1
  0
XRECORD
  5
1514
102
{ACAD_REACTORS
330
1513
102
}
330
1513
100
AcDbXrecord
280
     1
102
RTVSPost2010Prop28
280
     0
102
RTVSPost2010PropOp28
 70
     1
102
RTVSPost2010Prop29
280
     1
102
RTVSPost2010PropOp29
 70
     1
102
RTVSPost2010Prop30
280
     1
102
RTVSPost2010PropOp30
 70
     1
102
RTVSPost2010Prop31
280
     0
102
RTVSPost2010PropOp31
 70
     1
102
RTVSPost2010Prop32
280
     0
102
RTVSPost2010PropOp32
 70
     1
102
RTVSPost2010Prop33
280
     0
102
RTVSPost2010PropOp33
 70
     1
102
RTVSPost2010Prop34
280
     0
102
RTVSPost2010PropOp34
 70
     1
102
RTVSPost2010Prop35
280
     0
102
RTVSPost2010PropOp35
 70
     1
102
RTVSPost2010Prop36
280
     0
102
RTVSPost2010PropOp36
 70
     1
102
RTVSPost2010Prop37
 90
       50
102
RTVSPost2010PropOp37
 70
     1
102
RTVSPost2010Prop38
140
0.0
102
RTVSPost2010PropOp38
 70
     1
102
RTVSPost2010Prop39
140
1.0
102
RTVSPost2010PropOp39
 70
     1
102
RTVSPost2010Prop40
 90
        0
102
RTVSPost2010PropOp40
 70
     1
102
RTVSPost2010Prop41ColorIndex
 90
       18
102
RTVSPost2010Prop41ColorRGB
 90
        0
102
RTVSPost2010PropOp41
 70
     1
102
RTVSPost2010Prop42
 90
       50
102
RTVSPost2010PropOp42
 70
     1
102
RTVSPost2010Prop43
 90
        3
102
RTVSPost2010PropOp43
 70
     1
102
RTVSPost2010Prop44ColorIndex
 90
        5
102
RTVSPost2010Prop44ColorRGB
 90
      255
102
RTVSPost2010PropOp44
 70
     1
102
RTVSPost2010Prop45
280
     0
102
RTVSPost2010PropOp45
 70
     1
102
RTVSPost2010Prop46
 90
       50
102
RTVSPost2010PropOp46
 70
     1
102
RTVSPost2010Prop47
 90
       50
102
RTVSPost2010PropOp47
 70
     1
102
RTVSPost2010Prop48
 90
       50
102
RTVSPost2010PropOp48
 70
     1
102
RTVSPost2010Prop49
280
     0
102
RTVSPost2010PropOp49
 70
     1
102
RTVSPost2010Prop50
 90
       50
102
RTVSPost2010PropOp50
 70
     1
102
RTVSPost2010Prop51ColorIndex
 90
      256
102
RTVSPost2010Prop51ColorRGB
 90
-16777216
102
RTVSPost2010PropOp51
 70
     0
102
RTVSPost2010Prop52
140
1.0
102
RTVSPost2010PropOp52
 70
     0
102
RTVSPost2010Prop53
 90
        2
102
RTVSPost2010PropOp53
 70
     1
102
RTVSPost2010Prop54
  1
strokes_ogs.tif
102
RTVSPost2010PropOp54
 70
     1
102
RTVSPost2010Prop55
280
     0
102
RTVSPost2010PropOp55
 70
     1
102
RTVSPost2010Prop56
140
1.0
102
RTVSPost2010PropOp56
 70
     1
102
RTVSPost2010Prop57
140
1.0
102
RTVSPost2010PropOp57
 70
     1
  0
XRECORD
  5
1518
102
{ACAD_REACTORS
330
1517
102
}
330
1517
100
AcDbXrecord
280
     1
102
RTVSPost2010Prop28
280
     0
102
RTVSPost2010PropOp28
 70
     1
102
RTVSPost2010Prop29
280
     1
102
RTVSPost2010PropOp29
 70
     1
102
RTVSPost2010Prop30
280
     1
102
RTVSPost2010PropOp30
 70
     1
102
RTVSPost2010Prop31
280
     0
102
RTVSPost2010PropOp31
 70
     1
102
RTVSPost2010Prop32
280
     0
102
RTVSPost2010PropOp32
 70
     1
102
RTVSPost2010Prop33
280
     0
102
RTVSPost2010PropOp33
 70
     1
102
RTVSPost2010Prop34
280
     0
102
RTVSPost2010PropOp34
 70
     1
102
RTVSPost2010Prop35
280
     0
102
RTVSPost2010PropOp35
 70
     1
102
RTVSPost2010Prop36
280
     0
102
RTVSPost2010PropOp36
 70
     1
102
RTVSPost2010Prop37
 90
       50
102
RTVSPost2010PropOp37
 70
     1
102
RTVSPost2010Prop38
140
0.0
102
RTVSPost2010PropOp38
 70
     1
102
RTVSPost2010Prop39
140
1.0
102
RTVSPost2010PropOp39
 70
     1
102
RTVSPost2010Prop40
 90
        0
102
RTVSPost2010PropOp40
 70
     1
102
RTVSPost2010Prop41ColorIndex
 90
       18
102
RTVSPost2010Prop41ColorRGB
 90
        0
102
RTVSPost2010PropOp41
 70
     1
102
RTVSPost2010Prop42
 90
       50
102
RTVSPost2010PropOp42
 70
     1
102
RTVSPost2010Prop43
 90
        3
102
RTVSPost2010PropOp43
 70
     1
102
RTVSPost2010Prop44ColorIndex
 90
        5
102
RTVSPost2010Prop44ColorRGB
 90
      255
102
RTVSPost2010PropOp44
 70
     1
102
RTVSPost2010Prop45
280
     0
102
RTVSPost2010PropOp45
 70
     1
102
RTVSPost2010Prop46
 90
       50
102
RTVSPost2010PropOp46
 70
     1
102
RTVSPost2010Prop47
 90
       50
102
RTVSPost2010PropOp47
 70
     1
102
RTVSPost2010Prop48
 90
       50
102
RTVSPost2010PropOp48
 70
     1
102
RTVSPost2010Prop49
280
     0
102
RTVSPost2010PropOp49
 70
     1
102
RTVSPost2010Prop50
 90
       50
102
RTVSPost2010PropOp50
 70
     1
102
RTVSPost2010Prop51ColorIndex
 90
      256
102
RTVSPost2010Prop51ColorRGB
 90
-16777216
102
RTVSPost2010PropOp51
 70
     0
102
RTVSPost2010Prop52
140
1.0
102
RTVSPost2010PropOp52
 70
     0
102
RTVSPost2010Prop53
 90
        2
102
RTVSPost2010PropOp53
 70
     1
102
RTVSPost2010Prop54
  1
strokes_ogs.tif
102
RTVSPost2010PropOp54
 70
     1
102
RTVSPost2010Prop55
280
     0
102
RTVSPost2010PropOp55
 70
     1
102
RTVSPost2010Prop56
140
1.0
102
RTVSPost2010PropOp56
 70
     1
102
RTVSPost2010Prop57
140
1.0
102
RTVSPost2010PropOp57
 70
     1
  0
XRECORD
  5
1536
102
{ACAD_REACTORS
330
1535
102
}
330
1535
100
AcDbXrecord
280
     1
102
RTVSPost2010Prop28
280
     0
102
RTVSPost2010PropOp28
 70
     0
102
RTVSPost2010Prop29
280
     1
102
RTVSPost2010PropOp29
 70
     0
102
RTVSPost2010Prop30
280
     1
102
RTVSPost2010PropOp30
 70
     0
102
RTVSPost2010Prop31
280
     0
102
RTVSPost2010PropOp31
 70
     0
102
RTVSPost2010Prop32
280
     0
102
RTVSPost2010PropOp32
 70
     0
102
RTVSPost2010Prop33
280
     0
102
RTVSPost2010PropOp33
 70
     0
102
RTVSPost2010Prop34
280
     0
102
RTVSPost2010PropOp34
 70
     0
102
RTVSPost2010Prop35
280
     0
102
RTVSPost2010PropOp35
 70
     0
102
RTVSPost2010Prop36
280
     0
102
RTVSPost2010PropOp36
 70
     0
102
RTVSPost2010Prop37
 90
       50
102
RTVSPost2010PropOp37
 70
     0
102
RTVSPost2010Prop38
140
0.0
102
RTVSPost2010PropOp38
 70
     0
102
RTVSPost2010Prop39
140
1.0
102
RTVSPost2010PropOp39
 70
     0
102
RTVSPost2010Prop40
 90
        0
102
RTVSPost2010PropOp40
 70
     0
102
RTVSPost2010Prop41ColorIndex
 90
       18
102
RTVSPost2010Prop41ColorRGB
 90
        0
102
RTVSPost2010PropOp41
 70
     0
102
RTVSPost2010Prop42
 90
       50
102
RTVSPost2010PropOp42
 70
     0
102
RTVSPost2010Prop43
 90
        3
102
RTVSPost2010PropOp43
 70
     0
102
RTVSPost2010Prop44ColorIndex
 90
        5
102
RTVSPost2010Prop44ColorRGB
 90
      255
102
RTVSPost2010PropOp44
 70
     0
102
RTVSPost2010Prop45
280
     0
102
RTVSPost2010PropOp45
 70
     0
102
RTVSPost2010Prop46
 90
       50
102
RTVSPost2010PropOp46
 70
     0
102
RTVSPost2010Prop47
 90
       50
102
RTVSPost2010PropOp47
 70
     0
102
RTVSPost2010Prop48
 90
       50
102
RTVSPost2010PropOp48
 70
     0
102
RTVSPost2010Prop49
280
     0
102
RTVSPost2010PropOp49
 70
     0
102
RTVSPost2010Prop50
 90
       50
102
RTVSPost2010PropOp50
 70
     0
102
RTVSPost2010Prop51ColorIndex
 90
      256
102
RTVSPost2010Prop51ColorRGB
 90
-16777216
102
RTVSPost2010PropOp51
 70
     0
102
RTVSPost2010Prop52
140
1.0
102
RTVSPost2010PropOp52
 70
     0
102
RTVSPost2010Prop53
 90
        2
102
RTVSPost2010PropOp53
 70
     0
102
RTVSPost2010Prop54
  1
strokes_ogs.tif
102
RTVSPost2010PropOp54
 70
     0
102
RTVSPost2010Prop55
280
     0
102
RTVSPost2010PropOp55
 70
     0
102
RTVSPost2010Prop56
140
1.0
102
RTVSPost2010PropOp56
 70
     0
102
RTVSPost2010Prop57
140
1.0
102
RTVSPost2010PropOp57
 70
     0
  0
XRECORD
  5
1520
102
{ACAD_REACTORS
330
151F
102
}
330
151F
100
AcDbXrecord
280
     1
102
RTVSPost2010Prop28
280
     0
102
RTVSPost2010PropOp28
 70
     1
102
RTVSPost2010Prop29
280
     1
102
RTVSPost2010PropOp29
 70
     1
102
RTVSPost2010Prop30
280
     1
102
RTVSPost2010PropOp30
 70
     1
102
RTVSPost2010Prop31
280
     0
102
RTVSPost2010PropOp31
 70
     1
102
RTVSPost2010Prop32
280
     0
102
RTVSPost2010PropOp32
 70
     1
102
RTVSPost2010Prop33
280
     0
102
RTVSPost2010PropOp33
 70
     1
102
RTVSPost2010Prop34
280
     0
102
RTVSPost2010PropOp34
 70
     1
102
RTVSPost2010Prop35
280
     0
102
RTVSPost2010PropOp35
 70
     1
102
RTVSPost2010Prop36
280
     0
102
RTVSPost2010PropOp36
 70
     1
102
RTVSPost2010Prop37
 90
       50
102
RTVSPost2010PropOp37
 70
     1
102
RTVSPost2010Prop38
140
0.0
102
RTVSPost2010PropOp38
 70
     1
102
RTVSPost2010Prop39
140
1.0
102
RTVSPost2010PropOp39
 70
     1
102
RTVSPost2010Prop40
 90
        0
102
RTVSPost2010PropOp40
 70
     1
102
RTVSPost2010Prop41ColorIndex
 90
       18
102
RTVSPost2010Prop41ColorRGB
 90
        0
102
RTVSPost2010PropOp41
 70
     1
102
RTVSPost2010Prop42
 90
       50
102
RTVSPost2010PropOp42
 70
     1
102
RTVSPost2010Prop43
 90
        3
102
RTVSPost2010PropOp43
 70
     1
102
RTVSPost2010Prop44ColorIndex
 90
        5
102
RTVSPost2010Prop44ColorRGB
 90
      255
102
RTVSPost2010PropOp44
 70
     1
102
RTVSPost2010Prop45
280
     0
102
RTVSPost2010PropOp45
 70
     1
102
RTVSPost2010Prop46
 90
       50
102
RTVSPost2010PropOp46
 70
     1
102
RTVSPost2010Prop47
 90
       50
102
RTVSPost2010PropOp47
 70
     1
102
RTVSPost2010Prop48
 90
       50
102
RTVSPost2010PropOp48
 70
     1
102
RTVSPost2010Prop49
280
     0
102
RTVSPost2010PropOp49
 70
     1
102
RTVSPost2010Prop50
 90
       50
102
RTVSPost2010PropOp50
 70
     1
102
RTVSPost2010Prop51ColorIndex
 90
      256
102
RTVSPost2010Prop51ColorRGB
 90
-16777216
102
RTVSPost2010PropOp51
 70
     0
102
RTVSPost2010Prop52
140
1.0
102
RTVSPost2010PropOp52
 70
     0
102
RTVSPost2010Prop53
 90
        2
102
RTVSPost2010PropOp53
 70
     1
102
RTVSPost2010Prop54
  1
strokes_ogs.tif
102
RTVSPost2010PropOp54
 70
     1
102
RTVSPost2010Prop55
280
     0
102
RTVSPost2010PropOp55
 70
     1
102
RTVSPost2010Prop56
140
1.0
102
RTVSPost2010PropOp56
 70
     1
102
RTVSPost2010Prop57
140
1.0
102
RTVSPost2010PropOp57
 70
     1
  0
XRECORD
  5
1504
102
{ACAD_REACTORS
330
1503
102
}
330
1503
100
AcDbXrecord
280
     1
102
RTVSPost2010Prop28
280
     0
102
RTVSPost2010PropOp28
 70
     1
102
RTVSPost2010Prop29
280
     1
102
RTVSPost2010PropOp29
 70
     1
102
RTVSPost2010Prop30
280
     1
102
RTVSPost2010PropOp30
 70
     1
102
RTVSPost2010Prop31
280
     0
102
RTVSPost2010PropOp31
 70
     1
102
RTVSPost2010Prop32
280
     0
102
RTVSPost2010PropOp32
 70
     1
102
RTVSPost2010Prop33
280
     0
102
RTVSPost2010PropOp33
 70
     1
102
RTVSPost2010Prop34
280
     0
102
RTVSPost2010PropOp34
 70
     1
102
RTVSPost2010Prop35
280
     0
102
RTVSPost2010PropOp35
 70
     1
102
RTVSPost2010Prop36
280
     0
102
RTVSPost2010PropOp36
 70
     1
102
RTVSPost2010Prop37
 90
       50
102
RTVSPost2010PropOp37
 70
     1
102
RTVSPost2010Prop38
140
0.0
102
RTVSPost2010PropOp38
 70
     1
102
RTVSPost2010Prop39
140
1.0
102
RTVSPost2010PropOp39
 70
     1
102
RTVSPost2010Prop40
 90
        0
102
RTVSPost2010PropOp40
 70
     1
102
RTVSPost2010Prop41ColorIndex
 90
       18
102
RTVSPost2010Prop41ColorRGB
 90
        0
102
RTVSPost2010PropOp41
 70
     1
102
RTVSPost2010Prop42
 90
       50
102
RTVSPost2010PropOp42
 70
     1
102
RTVSPost2010Prop43
 90
        3
102
RTVSPost2010PropOp43
 70
     1
102
RTVSPost2010Prop44ColorIndex
 90
        5
102
RTVSPost2010Prop44ColorRGB
 90
      255
102
RTVSPost2010PropOp44
 70
     1
102
RTVSPost2010Prop45
280
     0
102
RTVSPost2010PropOp45
 70
     1
102
RTVSPost2010Prop46
 90
       50
102
RTVSPost2010PropOp46
 70
     1
102
RTVSPost2010Prop47
 90
       50
102
RTVSPost2010PropOp47
 70
     1
102
RTVSPost2010Prop48
 90
       50
102
RTVSPost2010PropOp48
 70
     1
102
RTVSPost2010Prop49
280
     0
102
RTVSPost2010PropOp49
 70
     1
102
RTVSPost2010Prop50
 90
       50
102
RTVSPost2010PropOp50
 70
     1
102
RTVSPost2010Prop51ColorIndex
 90
      256
102
RTVSPost2010Prop51ColorRGB
 90
-16777216
102
RTVSPost2010PropOp51
 70
     0
102
RTVSPost2010Prop52
140
1.0
102
RTVSPost2010PropOp52
 70
     0
102
RTVSPost2010Prop53
 90
        2
102
RTVSPost2010PropOp53
 70
     1
102
RTVSPost2010Prop54
  1
strokes_ogs.tif
102
RTVSPost2010PropOp54
 70
     1
102
RTVSPost2010Prop55
280
     0
102
RTVSPost2010PropOp55
 70
     1
102
RTVSPost2010Prop56
140
1.0
102
RTVSPost2010PropOp56
 70
     1
102
RTVSPost2010Prop57
140
1.0
102
RTVSPost2010PropOp57
 70
     1
  0
XRECORD
  5
1506
102
{ACAD_REACTORS
330
1505
102
}
330
1505
100
AcDbXrecord
280
     1
102
RTVSPost2010Prop28
280
     0
102
RTVSPost2010PropOp28
 70
     1
102
RTVSPost2010Prop29
280
     1
102
RTVSPost2010PropOp29
 70
     1
102
RTVSPost2010Prop30
280
     1
102
RTVSPost2010PropOp30
 70
     1
102
RTVSPost2010Prop31
280
     0
102
RTVSPost2010PropOp31
 70
     1
102
RTVSPost2010Prop32
280
     0
102
RTVSPost2010PropOp32
 70
     1
102
RTVSPost2010Prop33
280
     0
102
RTVSPost2010PropOp33
 70
     1
102
RTVSPost2010Prop34
280
     0
102
RTVSPost2010PropOp34
 70
     1
102
RTVSPost2010Prop35
280
     0
102
RTVSPost2010PropOp35
 70
     1
102
RTVSPost2010Prop36
280
     0
102
RTVSPost2010PropOp36
 70
     1
102
RTVSPost2010Prop37
 90
       50
102
RTVSPost2010PropOp37
 70
     1
102
RTVSPost2010Prop38
140
0.0
102
RTVSPost2010PropOp38
 70
     1
102
RTVSPost2010Prop39
140
1.0
102
RTVSPost2010PropOp39
 70
     1
102
RTVSPost2010Prop40
 90
        0
102
RTVSPost2010PropOp40
 70
     1
102
RTVSPost2010Prop41ColorIndex
 90
       18
102
RTVSPost2010Prop41ColorRGB
 90
        0
102
RTVSPost2010PropOp41
 70
     1
102
RTVSPost2010Prop42
 90
       50
102
RTVSPost2010PropOp42
 70
     1
102
RTVSPost2010Prop43
 90
        3
102
RTVSPost2010PropOp43
 70
     1
102
RTVSPost2010Prop44ColorIndex
 90
        5
102
RTVSPost2010Prop44ColorRGB
 90
      255
102
RTVSPost2010PropOp44
 70
     1
102
RTVSPost2010Prop45
280
     0
102
RTVSPost2010PropOp45
 70
     1
102
RTVSPost2010Prop46
 90
       50
102
RTVSPost2010PropOp46
 70
     1
102
RTVSPost2010Prop47
 90
       50
102
RTVSPost2010PropOp47
 70
     1
102
RTVSPost2010Prop48
 90
       50
102
RTVSPost2010PropOp48
 70
     1
102
RTVSPost2010Prop49
280
     0
102
RTVSPost2010PropOp49
 70
     1
102
RTVSPost2010Prop50
 90
       50
102
RTVSPost2010PropOp50
 70
     1
102
RTVSPost2010Prop51ColorIndex
 90
      256
102
RTVSPost2010Prop51ColorRGB
 90
-16777216
102
RTVSPost2010PropOp51
 70
     0
102
RTVSPost2010Prop52
140
1.0
102
RTVSPost2010PropOp52
 70
     0
102
RTVSPost2010Prop53
 90
        2
102
RTVSPost2010PropOp53
 70
     1
102
RTVSPost2010Prop54
  1
strokes_ogs.tif
102
RTVSPost2010PropOp54
 70
     1
102
RTVSPost2010Prop55
280
     0
102
RTVSPost2010PropOp55
 70
     1
102
RTVSPost2010Prop56
140
1.0
102
RTVSPost2010PropOp56
 70
     1
102
RTVSPost2010Prop57
140
1.0
102
RTVSPost2010PropOp57
 70
     1
  0
XRECORD
  5
1508
102
{ACAD_REACTORS
330
1507
102
}
330
1507
100
AcDbXrecord
280
     1
102
RTVSPost2010Prop28
280
     0
102
RTVSPost2010PropOp28
 70
     1
102
RTVSPost2010Prop29
280
     1
102
RTVSPost2010PropOp29
 70
     1
102
RTVSPost2010Prop30
280
     1
102
RTVSPost2010PropOp30
 70
     1
102
RTVSPost2010Prop31
280
     0
102
RTVSPost2010PropOp31
 70
     1
102
RTVSPost2010Prop32
280
     0
102
RTVSPost2010PropOp32
 70
     1
102
RTVSPost2010Prop33
280
     0
102
RTVSPost2010PropOp33
 70
     1
102
RTVSPost2010Prop34
280
     0
102
RTVSPost2010PropOp34
 70
     1
102
RTVSPost2010Prop35
280
     0
102
RTVSPost2010PropOp35
 70
     1
102
RTVSPost2010Prop36
280
     0
102
RTVSPost2010PropOp36
 70
     1
102
RTVSPost2010Prop37
 90
       50
102
RTVSPost2010PropOp37
 70
     1
102
RTVSPost2010Prop38
140
0.0
102
RTVSPost2010PropOp38
 70
     1
102
RTVSPost2010Prop39
140
1.0
102
RTVSPost2010PropOp39
 70
     1
102
RTVSPost2010Prop40
 90
        0
102
RTVSPost2010PropOp40
 70
     1
102
RTVSPost2010Prop41ColorIndex
 90
       18
102
RTVSPost2010Prop41ColorRGB
 90
        0
102
RTVSPost2010PropOp41
 70
     1
102
RTVSPost2010Prop42
 90
       50
102
RTVSPost2010PropOp42
 70
     1
102
RTVSPost2010Prop43
 90
        3
102
RTVSPost2010PropOp43
 70
     1
102
RTVSPost2010Prop44ColorIndex
 90
        5
102
RTVSPost2010Prop44ColorRGB
 90
      255
102
RTVSPost2010PropOp44
 70
     1
102
RTVSPost2010Prop45
280
     0
102
RTVSPost2010PropOp45
 70
     1
102
RTVSPost2010Prop46
 90
       50
102
RTVSPost2010PropOp46
 70
     1
102
RTVSPost2010Prop47
 90
       50
102
RTVSPost2010PropOp47
 70
     1
102
RTVSPost2010Prop48
 90
       50
102
RTVSPost2010PropOp48
 70
     1
102
RTVSPost2010Prop49
280
     0
102
RTVSPost2010PropOp49
 70
     1
102
RTVSPost2010Prop50
 90
       50
102
RTVSPost2010PropOp50
 70
     1
102
RTVSPost2010Prop51ColorIndex
 90
      256
102
RTVSPost2010Prop51ColorRGB
 90
-16777216
102
RTVSPost2010PropOp51
 70
     0
102
RTVSPost2010Prop52
140
1.0
102
RTVSPost2010PropOp52
 70
     0
102
RTVSPost2010Prop53
 90
        2
102
RTVSPost2010PropOp53
 70
     1
102
RTVSPost2010Prop54
  1
strokes_ogs.tif
102
RTVSPost2010PropOp54
 70
     1
102
RTVSPost2010Prop55
280
     0
102
RTVSPost2010PropOp55
 70
     1
102
RTVSPost2010Prop56
140
1.0
102
RTVSPost2010PropOp56
 70
     1
102
RTVSPost2010Prop57
140
1.0
102
RTVSPost2010PropOp57
 70
     1
  0
XRECORD
  5
150A
102
{ACAD_REACTORS
330
1509
102
}
330
1509
100
AcDbXrecord
280
     1
102
RTVSPost2010Prop28
280
     0
102
RTVSPost2010PropOp28
 70
     1
102
RTVSPost2010Prop29
280
     1
102
RTVSPost2010PropOp29
 70
     1
102
RTVSPost2010Prop30
280
     1
102
RTVSPost2010PropOp30
 70
     1
102
RTVSPost2010Prop31
280
     0
102
RTVSPost2010PropOp31
 70
     1
102
RTVSPost2010Prop32
280
     0
102
RTVSPost2010PropOp32
 70
     1
102
RTVSPost2010Prop33
280
     0
102
RTVSPost2010PropOp33
 70
     1
102
RTVSPost2010Prop34
280
     0
102
RTVSPost2010PropOp34
 70
     1
102
RTVSPost2010Prop35
280
     0
102
RTVSPost2010PropOp35
 70
     1
102
RTVSPost2010Prop36
280
     0
102
RTVSPost2010PropOp36
 70
     1
102
RTVSPost2010Prop37
 90
       50
102
RTVSPost2010PropOp37
 70
     1
102
RTVSPost2010Prop38
140
0.0
102
RTVSPost2010PropOp38
 70
     1
102
RTVSPost2010Prop39
140
1.0
102
RTVSPost2010PropOp39
 70
     1
102
RTVSPost2010Prop40
 90
        0
102
RTVSPost2010PropOp40
 70
     1
102
RTVSPost2010Prop41ColorIndex
 90
       18
102
RTVSPost2010Prop41ColorRGB
 90
        0
102
RTVSPost2010PropOp41
 70
     1
102
RTVSPost2010Prop42
 90
       50
102
RTVSPost2010PropOp42
 70
     1
102
RTVSPost2010Prop43
 90
        3
102
RTVSPost2010PropOp43
 70
     1
102
RTVSPost2010Prop44ColorIndex
 90
        5
102
RTVSPost2010Prop44ColorRGB
 90
      255
102
RTVSPost2010PropOp44
 70
     1
102
RTVSPost2010Prop45
280
     0
102
RTVSPost2010PropOp45
 70
     1
102
RTVSPost2010Prop46
 90
       50
102
RTVSPost2010PropOp46
 70
     1
102
RTVSPost2010Prop47
 90
       50
102
RTVSPost2010PropOp47
 70
     1
102
RTVSPost2010Prop48
 90
       50
102
RTVSPost2010PropOp48
 70
     1
102
RTVSPost2010Prop49
280
     0
102
RTVSPost2010PropOp49
 70
     1
102
RTVSPost2010Prop50
 90
       50
102
RTVSPost2010PropOp50
 70
     1
102
RTVSPost2010Prop51ColorIndex
 90
      256
102
RTVSPost2010Prop51ColorRGB
 90
-16777216
102
RTVSPost2010PropOp51
 70
     0
102
RTVSPost2010Prop52
140
1.0
102
RTVSPost2010PropOp52
 70
     0
102
RTVSPost2010Prop53
 90
        2
102
RTVSPost2010PropOp53
 70
     1
102
RTVSPost2010Prop54
  1
strokes_ogs.tif
102
RTVSPost2010PropOp54
 70
     1
102
RTVSPost2010Prop55
280
     0
102
RTVSPost2010PropOp55
 70
     1
102
RTVSPost2010Prop56
140
1.0
102
RTVSPost2010PropOp56
 70
     1
102
RTVSPost2010Prop57
140
1.0
102
RTVSPost2010PropOp57
 70
     1
  0
XRECORD
  5
1526
102
{ACAD_REACTORS
330
1525
102
}
330
1525
100
AcDbXrecord
280
     1
102
RTVSPost2010Prop28
280
     0
102
RTVSPost2010PropOp28
 70
     1
102
RTVSPost2010Prop29
280
     1
102
RTVSPost2010PropOp29
 70
     1
102
RTVSPost2010Prop30
280
     1
102
RTVSPost2010PropOp30
 70
     1
102
RTVSPost2010Prop31
280
     0
102
RTVSPost2010PropOp31
 70
     1
102
RTVSPost2010Prop32
280
     0
102
RTVSPost2010PropOp32
 70
     1
102
RTVSPost2010Prop33
280
     0
102
RTVSPost2010PropOp33
 70
     1
102
RTVSPost2010Prop34
280
     0
102
RTVSPost2010PropOp34
 70
     1
102
RTVSPost2010Prop35
280
     0
102
RTVSPost2010PropOp35
 70
     1
102
RTVSPost2010Prop36
280
     0
102
RTVSPost2010PropOp36
 70
     1
102
RTVSPost2010Prop37
 90
       50
102
RTVSPost2010PropOp37
 70
     1
102
RTVSPost2010Prop38
140
0.0
102
RTVSPost2010PropOp38
 70
     1
102
RTVSPost2010Prop39
140
1.0
102
RTVSPost2010PropOp39
 70
     1
102
RTVSPost2010Prop40
 90
        0
102
RTVSPost2010PropOp40
 70
     1
102
RTVSPost2010Prop41ColorIndex
 90
       18
102
RTVSPost2010Prop41ColorRGB
 90
        0
102
RTVSPost2010PropOp41
 70
     1
102
RTVSPost2010Prop42
 90
       50
102
RTVSPost2010PropOp42
 70
     1
102
RTVSPost2010Prop43
 90
        3
102
RTVSPost2010PropOp43
 70
     1
102
RTVSPost2010Prop44ColorIndex
 90
        5
102
RTVSPost2010Prop44ColorRGB
 90
      255
102
RTVSPost2010PropOp44
 70
     1
102
RTVSPost2010Prop45
280
     0
102
RTVSPost2010PropOp45
 70
     1
102
RTVSPost2010Prop46
 90
       50
102
RTVSPost2010PropOp46
 70
     1
102
RTVSPost2010Prop47
 90
       50
102
RTVSPost2010PropOp47
 70
     1
102
RTVSPost2010Prop48
 90
       50
102
RTVSPost2010PropOp48
 70
     1
102
RTVSPost2010Prop49
280
     0
102
RTVSPost2010PropOp49
 70
     1
102
RTVSPost2010Prop50
 90
       50
102
RTVSPost2010PropOp50
 70
     1
102
RTVSPost2010Prop51ColorIndex
 90
      256
102
RTVSPost2010Prop51ColorRGB
 90
-16777216
102
RTVSPost2010PropOp51
 70
     0
102
RTVSPost2010Prop52
140
1.0
102
RTVSPost2010PropOp52
 70
     0
102
RTVSPost2010Prop53
 90
        2
102
RTVSPost2010PropOp53
 70
     1
102
RTVSPost2010Prop54
  1
strokes_ogs.tif
102
RTVSPost2010PropOp54
 70
     1
102
RTVSPost2010Prop55
280
     0
102
RTVSPost2010PropOp55
 70
     1
102
RTVSPost2010Prop56
140
1.0
102
RTVSPost2010PropOp56
 70
     1
102
RTVSPost2010Prop57
140
1.0
102
RTVSPost2010PropOp57
 70
     1
  0
XRECORD
  5
1532
102
{ACAD_REACTORS
330
1531
102
}
330
1531
100
AcDbXrecord
280
     1
102
RTVSPost2010Prop28
280
     0
102
RTVSPost2010PropOp28
 70
     0
102
RTVSPost2010Prop29
280
     1
102
RTVSPost2010PropOp29
 70
     0
102
RTVSPost2010Prop30
280
     1
102
RTVSPost2010PropOp30
 70
     0
102
RTVSPost2010Prop31
280
     0
102
RTVSPost2010PropOp31
 70
     0
102
RTVSPost2010Prop32
280
     0
102
RTVSPost2010PropOp32
 70
     0
102
RTVSPost2010Prop33
280
     0
102
RTVSPost2010PropOp33
 70
     0
102
RTVSPost2010Prop34
280
     0
102
RTVSPost2010PropOp34
 70
     0
102
RTVSPost2010Prop35
280
     0
102
RTVSPost2010PropOp35
 70
     0
102
RTVSPost2010Prop36
280
     0
102
RTVSPost2010PropOp36
 70
     0
102
RTVSPost2010Prop37
 90
       50
102
RTVSPost2010PropOp37
 70
     0
102
RTVSPost2010Prop38
140
0.0
102
RTVSPost2010PropOp38
 70
     0
102
RTVSPost2010Prop39
140
1.0
102
RTVSPost2010PropOp39
 70
     0
102
RTVSPost2010Prop40
 90
        0
102
RTVSPost2010PropOp40
 70
     0
102
RTVSPost2010Prop41ColorIndex
 90
       18
102
RTVSPost2010Prop41ColorRGB
 90
        0
102
RTVSPost2010PropOp41
 70
     0
102
RTVSPost2010Prop42
 90
       50
102
RTVSPost2010PropOp42
 70
     0
102
RTVSPost2010Prop43
 90
        3
102
RTVSPost2010PropOp43
 70
     0
102
RTVSPost2010Prop44ColorIndex
 90
        5
102
RTVSPost2010Prop44ColorRGB
 90
      255
102
RTVSPost2010PropOp44
 70
     0
102
RTVSPost2010Prop45
280
     0
102
RTVSPost2010PropOp45
 70
     0
102
RTVSPost2010Prop46
 90
       50
102
RTVSPost2010PropOp46
 70
     0
102
RTVSPost2010Prop47
 90
       50
102
RTVSPost2010PropOp47
 70
     0
102
RTVSPost2010Prop48
 90
       50
102
RTVSPost2010PropOp48
 70
     0
102
RTVSPost2010Prop49
280
     0
102
RTVSPost2010PropOp49
 70
     0
102
RTVSPost2010Prop50
 90
       50
102
RTVSPost2010PropOp50
 70
     0
102
RTVSPost2010Prop51ColorIndex
 90
      256
102
RTVSPost2010Prop51ColorRGB
 90
-16777216
102
RTVSPost2010PropOp51
 70
     0
102
RTVSPost2010Prop52
140
1.0
102
RTVSPost2010PropOp52
 70
     0
102
RTVSPost2010Prop53
 90
        2
102
RTVSPost2010PropOp53
 70
     0
102
RTVSPost2010Prop54
  1
strokes_ogs.tif
102
RTVSPost2010PropOp54
 70
     0
102
RTVSPost2010Prop55
280
     0
102
RTVSPost2010PropOp55
 70
     0
102
RTVSPost2010Prop56
140
1.0
102
RTVSPost2010PropOp56
 70
     0
102
RTVSPost2010Prop57
140
1.0
102
RTVSPost2010PropOp57
 70
     0
  0
XRECORD
  5
151E
102
{ACAD_REACTORS
330
151D
102
}
330
151D
100
AcDbXrecord
280
     1
102
RTVSPost2010Prop28
280
     0
102
RTVSPost2010PropOp28
 70
     1
102
RTVSPost2010Prop29
280
     1
102
RTVSPost2010PropOp29
 70
     1
102
RTVSPost2010Prop30
280
     1
102
RTVSPost2010PropOp30
 70
     1
102
RTVSPost2010Prop31
280
     0
102
RTVSPost2010PropOp31
 70
     1
102
RTVSPost2010Prop32
280
     0
102
RTVSPost2010PropOp32
 70
     1
102
RTVSPost2010Prop33
280
     0
102
RTVSPost2010PropOp33
 70
     1
102
RTVSPost2010Prop34
280
     0
102
RTVSPost2010PropOp34
 70
     1
102
RTVSPost2010Prop35
280
     0
102
RTVSPost2010PropOp35
 70
     1
102
RTVSPost2010Prop36
280
     0
102
RTVSPost2010PropOp36
 70
     1
102
RTVSPost2010Prop37
 90
       50
102
RTVSPost2010PropOp37
 70
     1
102
RTVSPost2010Prop38
140
0.0
102
RTVSPost2010PropOp38
 70
     1
102
RTVSPost2010Prop39
140
1.0
102
RTVSPost2010PropOp39
 70
     1
102
RTVSPost2010Prop40
 90
        0
102
RTVSPost2010PropOp40
 70
     1
102
RTVSPost2010Prop41ColorIndex
 90
       18
102
RTVSPost2010Prop41ColorRGB
 90
        0
102
RTVSPost2010PropOp41
 70
     1
102
RTVSPost2010Prop42
 90
       50
102
RTVSPost2010PropOp42
 70
     1
102
RTVSPost2010Prop43
 90
        3
102
RTVSPost2010PropOp43
 70
     1
102
RTVSPost2010Prop44ColorIndex
 90
        5
102
RTVSPost2010Prop44ColorRGB
 90
      255
102
RTVSPost2010PropOp44
 70
     1
102
RTVSPost2010Prop45
280
     0
102
RTVSPost2010PropOp45
 70
     1
102
RTVSPost2010Prop46
 90
       50
102
RTVSPost2010PropOp46
 70
     1
102
RTVSPost2010Prop47
 90
       50
102
RTVSPost2010PropOp47
 70
     1
102
RTVSPost2010Prop48
 90
       50
102
RTVSPost2010PropOp48
 70
     1
102
RTVSPost2010Prop49
280
     0
102
RTVSPost2010PropOp49
 70
     1
102
RTVSPost2010Prop50
 90
       50
102
RTVSPost2010PropOp50
 70
     1
102
RTVSPost2010Prop51ColorIndex
 90
      256
102
RTVSPost2010Prop51ColorRGB
 90
-16777216
102
RTVSPost2010PropOp51
 70
     0
102
RTVSPost2010Prop52
140
1.0
102
RTVSPost2010PropOp52
 70
     0
102
RTVSPost2010Prop53
 90
        2
102
RTVSPost2010PropOp53
 70
     1
102
RTVSPost2010Prop54
  1
strokes_ogs.tif
102
RTVSPost2010PropOp54
 70
     1
102
RTVSPost2010Prop55
280
     0
102
RTVSPost2010PropOp55
 70
     1
102
RTVSPost2010Prop56
140
1.0
102
RTVSPost2010PropOp56
 70
     1
102
RTVSPost2010Prop57
140
1.0
102
RTVSPost2010PropOp57
 70
     1
  0
XRECORD
  5
1534
102
{ACAD_REACTORS
330
1533
102
}
330
1533
100
AcDbXrecord
280
     1
102
RTVSPost2010Prop28
280
     0
102
RTVSPost2010PropOp28
 70
     0
102
RTVSPost2010Prop29
280
     1
102
RTVSPost2010PropOp29
 70
     0
102
RTVSPost2010Prop30
280
     1
102
RTVSPost2010PropOp30
 70
     0
102
RTVSPost2010Prop31
280
     0
102
RTVSPost2010PropOp31
 70
     0
102
RTVSPost2010Prop32
280
     0
102
RTVSPost2010PropOp32
 70
     0
102
RTVSPost2010Prop33
280
     0
102
RTVSPost2010PropOp33
 70
     0
102
RTVSPost2010Prop34
280
     0
102
RTVSPost2010PropOp34
 70
     0
102
RTVSPost2010Prop35
280
     0
102
RTVSPost2010PropOp35
 70
     0
102
RTVSPost2010Prop36
280
     0
102
RTVSPost2010PropOp36
 70
     0
102
RTVSPost2010Prop37
 90
       50
102
RTVSPost2010PropOp37
 70
     0
102
RTVSPost2010Prop38
140
0.0
102
RTVSPost2010PropOp38
 70
     0
102
RTVSPost2010Prop39
140
1.0
102
RTVSPost2010PropOp39
 70
     0
102
RTVSPost2010Prop40
 90
        0
102
RTVSPost2010PropOp40
 70
     0
102
RTVSPost2010Prop41ColorIndex
 90
       18
102
RTVSPost2010Prop41ColorRGB
 90
        0
102
RTVSPost2010PropOp41
 70
     0
102
RTVSPost2010Prop42
 90
       50
102
RTVSPost2010PropOp42
 70
     0
102
RTVSPost2010Prop43
 90
        3
102
RTVSPost2010PropOp43
 70
     0
102
RTVSPost2010Prop44ColorIndex
 90
        5
102
RTVSPost2010Prop44ColorRGB
 90
      255
102
RTVSPost2010PropOp44
 70
     0
102
RTVSPost2010Prop45
280
     0
102
RTVSPost2010PropOp45
 70
     0
102
RTVSPost2010Prop46
 90
       50
102
RTVSPost2010PropOp46
 70
     0
102
RTVSPost2010Prop47
 90
       50
102
RTVSPost2010PropOp47
 70
     0
102
RTVSPost2010Prop48
 90
       50
102
RTVSPost2010PropOp48
 70
     0
102
RTVSPost2010Prop49
280
     0
102
RTVSPost2010PropOp49
 70
     0
102
RTVSPost2010Prop50
 90
       50
102
RTVSPost2010PropOp50
 70
     0
102
RTVSPost2010Prop51ColorIndex
 90
      256
102
RTVSPost2010Prop51ColorRGB
 90
-16777216
102
RTVSPost2010PropOp51
 70
     0
102
RTVSPost2010Prop52
140
1.0
102
RTVSPost2010PropOp52
 70
     0
102
RTVSPost2010Prop53
 90
        2
102
RTVSPost2010PropOp53
 70
     0
102
RTVSPost2010Prop54
  1
strokes_ogs.tif
102
RTVSPost2010PropOp54
 70
     0
102
RTVSPost2010Prop55
280
     0
102
RTVSPost2010PropOp55
 70
     0
102
RTVSPost2010Prop56
140
1.0
102
RTVSPost2010PropOp56
 70
     0
102
RTVSPost2010Prop57
140
1.0
102
RTVSPost2010PropOp57
 70
     0
  0
XRECORD
  5
1516
102
{ACAD_REACTORS
330
1515
102
}
330
1515
100
AcDbXrecord
280
     1
102
RTVSPost2010Prop28
280
     0
102
RTVSPost2010PropOp28
 70
     1
102
RTVSPost2010Prop29
280
     1
102
RTVSPost2010PropOp29
 70
     1
102
RTVSPost2010Prop30
280
     1
102
RTVSPost2010PropOp30
 70
     1
102
RTVSPost2010Prop31
280
     0
102
RTVSPost2010PropOp31
 70
     1
102
RTVSPost2010Prop32
280
     0
102
RTVSPost2010PropOp32
 70
     1
102
RTVSPost2010Prop33
280
     0
102
RTVSPost2010PropOp33
 70
     1
102
RTVSPost2010Prop34
280
     0
102
RTVSPost2010PropOp34
 70
     1
102
RTVSPost2010Prop35
280
     0
102
RTVSPost2010PropOp35
 70
     1
102
RTVSPost2010Prop36
280
     0
102
RTVSPost2010PropOp36
 70
     1
102
RTVSPost2010Prop37
 90
       50
102
RTVSPost2010PropOp37
 70
     1
102
RTVSPost2010Prop38
140
0.0
102
RTVSPost2010PropOp38
 70
     1
102
RTVSPost2010Prop39
140
1.0
102
RTVSPost2010PropOp39
 70
     1
102
RTVSPost2010Prop40
 90
        0
102
RTVSPost2010PropOp40
 70
     1
102
RTVSPost2010Prop41ColorIndex
 90
       18
102
RTVSPost2010Prop41ColorRGB
 90
        0
102
RTVSPost2010PropOp41
 70
     1
102
RTVSPost2010Prop42
 90
       50
102
RTVSPost2010PropOp42
 70
     1
102
RTVSPost2010Prop43
 90
        3
102
RTVSPost2010PropOp43
 70
     1
102
RTVSPost2010Prop44ColorIndex
 90
        5
102
RTVSPost2010Prop44ColorRGB
 90
      255
102
RTVSPost2010PropOp44
 70
     1
102
RTVSPost2010Prop45
280
     0
102
RTVSPost2010PropOp45
 70
     1
102
RTVSPost2010Prop46
 90
       50
102
RTVSPost2010PropOp46
 70
     1
102
RTVSPost2010Prop47
 90
       50
102
RTVSPost2010PropOp47
 70
     1
102
RTVSPost2010Prop48
 90
       50
102
RTVSPost2010PropOp48
 70
     1
102
RTVSPost2010Prop49
280
     0
102
RTVSPost2010PropOp49
 70
     1
102
RTVSPost2010Prop50
 90
       50
102
RTVSPost2010PropOp50
 70
     1
102
RTVSPost2010Prop51ColorIndex
 90
      256
102
RTVSPost2010Prop51ColorRGB
 90
-16777216
102
RTVSPost2010PropOp51
 70
     0
102
RTVSPost2010Prop52
140
1.0
102
RTVSPost2010PropOp52
 70
     0
102
RTVSPost2010Prop53
 90
        2
102
RTVSPost2010PropOp53
 70
     1
102
RTVSPost2010Prop54
  1
strokes_ogs.tif
102
RTVSPost2010PropOp54
 70
     1
102
RTVSPost2010Prop55
280
     0
102
RTVSPost2010PropOp55
 70
     1
102
RTVSPost2010Prop56
140
1.0
102
RTVSPost2010PropOp56
 70
     1
102
RTVSPost2010Prop57
140
1.0
102
RTVSPost2010PropOp57
 70
     1
  0
XRECORD
  5
1530
102
{ACAD_REACTORS
330
152F
102
}
330
152F
100
AcDbXrecord
280
     1
102
RTVSPost2010Prop28
280
     0
102
RTVSPost2010PropOp28
 70
     1
102
RTVSPost2010Prop29
280
     1
102
RTVSPost2010PropOp29
 70
     1
102
RTVSPost2010Prop30
280
     1
102
RTVSPost2010PropOp30
 70
     1
102
RTVSPost2010Prop31
280
     0
102
RTVSPost2010PropOp31
 70
     1
102
RTVSPost2010Prop32
280
     0
102
RTVSPost2010PropOp32
 70
     1
102
RTVSPost2010Prop33
280
     0
102
RTVSPost2010PropOp33
 70
     1
102
RTVSPost2010Prop34
280
     0
102
RTVSPost2010PropOp34
 70
     1
102
RTVSPost2010Prop35
280
     0
102
RTVSPost2010PropOp35
 70
     1
102
RTVSPost2010Prop36
280
     0
102
RTVSPost2010PropOp36
 70
     1
102
RTVSPost2010Prop37
 90
       50
102
RTVSPost2010PropOp37
 70
     1
102
RTVSPost2010Prop38
140
0.0
102
RTVSPost2010PropOp38
 70
     1
102
RTVSPost2010Prop39
140
1.0
102
RTVSPost2010PropOp39
 70
     1
102
RTVSPost2010Prop40
 90
        0
102
RTVSPost2010PropOp40
 70
     1
102
RTVSPost2010Prop41ColorIndex
 90
       18
102
RTVSPost2010Prop41ColorRGB
 90
        0
102
RTVSPost2010PropOp41
 70
     1
102
RTVSPost2010Prop42
 90
       50
102
RTVSPost2010PropOp42
 70
     1
102
RTVSPost2010Prop43
 90
        3
102
RTVSPost2010PropOp43
 70
     1
102
RTVSPost2010Prop44ColorIndex
 90
        5
102
RTVSPost2010Prop44ColorRGB
 90
      255
102
RTVSPost2010PropOp44
 70
     1
102
RTVSPost2010Prop45
280
     0
102
RTVSPost2010PropOp45
 70
     1
102
RTVSPost2010Prop46
 90
       50
102
RTVSPost2010PropOp46
 70
     1
102
RTVSPost2010Prop47
 90
       50
102
RTVSPost2010PropOp47
 70
     1
102
RTVSPost2010Prop48
 90
       50
102
RTVSPost2010PropOp48
 70
     1
102
RTVSPost2010Prop49
280
     0
102
RTVSPost2010PropOp49
 70
     1
102
RTVSPost2010Prop50
 90
       50
102
RTVSPost2010PropOp50
 70
     1
102
RTVSPost2010Prop51ColorIndex
 90
      256
102
RTVSPost2010Prop51ColorRGB
 90
-16777216
102
RTVSPost2010PropOp51
 70
     0
102
RTVSPost2010Prop52
140
1.0
102
RTVSPost2010PropOp52
 70
     0
102
RTVSPost2010Prop53
 90
        2
102
RTVSPost2010PropOp53
 70
     1
102
RTVSPost2010Prop54
  1
strokes_ogs.tif
102
RTVSPost2010PropOp54
 70
     1
102
RTVSPost2010Prop55
280
     0
102
RTVSPost2010PropOp55
 70
     1
102
RTVSPost2010Prop56
140
1.0
102
RTVSPost2010PropOp56
 70
     1
102
RTVSPost2010Prop57
140
1.0
102
RTVSPost2010PropOp57
 70
     1
  0
XRECORD
  5
152E
102
{ACAD_REACTORS
330
152D
102
}
330
152D
100
AcDbXrecord
280
     1
102
RTVSPost2010Prop28
280
     0
102
RTVSPost2010PropOp28
 70
     1
102
RTVSPost2010Prop29
280
     1
102
RTVSPost2010PropOp29
 70
     1
102
RTVSPost2010Prop30
280
     1
102
RTVSPost2010PropOp30
 70
     1
102
RTVSPost2010Prop31
280
     0
102
RTVSPost2010PropOp31
 70
     1
102
RTVSPost2010Prop32
280
     0
102
RTVSPost2010PropOp32
 70
     1
102
RTVSPost2010Prop33
280
     0
102
RTVSPost2010PropOp33
 70
     1
102
RTVSPost2010Prop34
280
     0
102
RTVSPost2010PropOp34
 70
     1
102
RTVSPost2010Prop35
280
     0
102
RTVSPost2010PropOp35
 70
     1
102
RTVSPost2010Prop36
280
     0
102
RTVSPost2010PropOp36
 70
     1
102
RTVSPost2010Prop37
 90
       50
102
RTVSPost2010PropOp37
 70
     1
102
RTVSPost2010Prop38
140
0.0
102
RTVSPost2010PropOp38
 70
     1
102
RTVSPost2010Prop39
140
1.0
102
RTVSPost2010PropOp39
 70
     1
102
RTVSPost2010Prop40
 90
        0
102
RTVSPost2010PropOp40
 70
     1
102
RTVSPost2010Prop41ColorIndex
 90
       18
102
RTVSPost2010Prop41ColorRGB
 90
        0
102
RTVSPost2010PropOp41
 70
     1
102
RTVSPost2010Prop42
 90
       50
102
RTVSPost2010PropOp42
 70
     1
102
RTVSPost2010Prop43
 90
        3
102
RTVSPost2010PropOp43
 70
     1
102
RTVSPost2010Prop44ColorIndex
 90
        5
102
RTVSPost2010Prop44ColorRGB
 90
      255
102
RTVSPost2010PropOp44
 70
     1
102
RTVSPost2010Prop45
280
     0
102
RTVSPost2010PropOp45
 70
     1
102
RTVSPost2010Prop46
 90
       50
102
RTVSPost2010PropOp46
 70
     1
102
RTVSPost2010Prop47
 90
       50
102
RTVSPost2010PropOp47
 70
     1
102
RTVSPost2010Prop48
 90
       50
102
RTVSPost2010PropOp48
 70
     1
102
RTVSPost2010Prop49
280
     0
102
RTVSPost2010PropOp49
 70
     1
102
RTVSPost2010Prop50
 90
       50
102
RTVSPost2010PropOp50
 70
     1
102
RTVSPost2010Prop51ColorIndex
 90
      256
102
RTVSPost2010Prop51ColorRGB
 90
-16777216
102
RTVSPost2010PropOp51
 70
     0
102
RTVSPost2010Prop52
140
1.0
102
RTVSPost2010PropOp52
 70
     0
102
RTVSPost2010Prop53
 90
        2
102
RTVSPost2010PropOp53
 70
     1
102
RTVSPost2010Prop54
  1
strokes_ogs.tif
102
RTVSPost2010PropOp54
 70
     1
102
RTVSPost2010Prop55
280
     0
102
RTVSPost2010PropOp55
 70
     1
102
RTVSPost2010Prop56
140
1.0
102
RTVSPost2010PropOp56
 70
     1
102
RTVSPost2010Prop57
140
1.0
102
RTVSPost2010PropOp57
 70
     1
  0
XRECORD
  5
1528
102
{ACAD_REACTORS
330
1527
102
}
330
1527
100
AcDbXrecord
280
     1
102
RTVSPost2010Prop28
280
     0
102
RTVSPost2010PropOp28
 70
     1
102
RTVSPost2010Prop29
280
     1
102
RTVSPost2010PropOp29
 70
     1
102
RTVSPost2010Prop30
280
     1
102
RTVSPost2010PropOp30
 70
     1
102
RTVSPost2010Prop31
280
     0
102
RTVSPost2010PropOp31
 70
     1
102
RTVSPost2010Prop32
280
     0
102
RTVSPost2010PropOp32
 70
     1
102
RTVSPost2010Prop33
280
     0
102
RTVSPost2010PropOp33
 70
     1
102
RTVSPost2010Prop34
280
     0
102
RTVSPost2010PropOp34
 70
     1
102
RTVSPost2010Prop35
280
     0
102
RTVSPost2010PropOp35
 70
     1
102
RTVSPost2010Prop36
280
     0
102
RTVSPost2010PropOp36
 70
     1
102
RTVSPost2010Prop37
 90
       50
102
RTVSPost2010PropOp37
 70
     1
102
RTVSPost2010Prop38
140
0.0
102
RTVSPost2010PropOp38
 70
     1
102
RTVSPost2010Prop39
140
1.0
102
RTVSPost2010PropOp39
 70
     1
102
RTVSPost2010Prop40
 90
        0
102
RTVSPost2010PropOp40
 70
     1
102
RTVSPost2010Prop41ColorIndex
 90
       18
102
RTVSPost2010Prop41ColorRGB
 90
        0
102
RTVSPost2010PropOp41
 70
     1
102
RTVSPost2010Prop42
 90
       50
102
RTVSPost2010PropOp42
 70
     1
102
RTVSPost2010Prop43
 90
        3
102
RTVSPost2010PropOp43
 70
     1
102
RTVSPost2010Prop44ColorIndex
 90
        5
102
RTVSPost2010Prop44ColorRGB
 90
      255
102
RTVSPost2010PropOp44
 70
     1
102
RTVSPost2010Prop45
280
     0
102
RTVSPost2010PropOp45
 70
     1
102
RTVSPost2010Prop46
 90
       50
102
RTVSPost2010PropOp46
 70
     1
102
RTVSPost2010Prop47
 90
       50
102
RTVSPost2010PropOp47
 70
     1
102
RTVSPost2010Prop48
 90
       50
102
RTVSPost2010PropOp48
 70
     1
102
RTVSPost2010Prop49
280
     0
102
RTVSPost2010PropOp49
 70
     1
102
RTVSPost2010Prop50
 90
       50
102
RTVSPost2010PropOp50
 70
     1
102
RTVSPost2010Prop51ColorIndex
 90
      256
102
RTVSPost2010Prop51ColorRGB
 90
-16777216
102
RTVSPost2010PropOp51
 70
     0
102
RTVSPost2010Prop52
140
1.0
102
RTVSPost2010PropOp52
 70
     0
102
RTVSPost2010Prop53
 90
        2
102
RTVSPost2010PropOp53
 70
     1
102
RTVSPost2010Prop54
  1
strokes_ogs.tif
102
RTVSPost2010PropOp54
 70
     1
102
RTVSPost2010Prop55
280
     0
102
RTVSPost2010PropOp55
 70
     1
102
RTVSPost2010Prop56
140
1.0
102
RTVSPost2010PropOp56
 70
     1
102
RTVSPost2010Prop57
140
1.0
102
RTVSPost2010PropOp57
 70
     1
  0
XRECORD
  5
152A
102
{ACAD_REACTORS
330
1529
102
}
330
1529
100
AcDbXrecord
280
     1
102
RTVSPost2010Prop28
280
     0
102
RTVSPost2010PropOp28
 70
     1
102
RTVSPost2010Prop29
280
     1
102
RTVSPost2010PropOp29
 70
     1
102
RTVSPost2010Prop30
280
     1
102
RTVSPost2010PropOp30
 70
     1
102
RTVSPost2010Prop31
280
     0
102
RTVSPost2010PropOp31
 70
     1
102
RTVSPost2010Prop32
280
     0
102
RTVSPost2010PropOp32
 70
     1
102
RTVSPost2010Prop33
280
     0
102
RTVSPost2010PropOp33
 70
     1
102
RTVSPost2010Prop34
280
     0
102
RTVSPost2010PropOp34
 70
     1
102
RTVSPost2010Prop35
280
     0
102
RTVSPost2010PropOp35
 70
     1
102
RTVSPost2010Prop36
280
     0
102
RTVSPost2010PropOp36
 70
     1
102
RTVSPost2010Prop37
 90
       50
102
RTVSPost2010PropOp37
 70
     1
102
RTVSPost2010Prop38
140
0.0
102
RTVSPost2010PropOp38
 70
     1
102
RTVSPost2010Prop39
140
1.0
102
RTVSPost2010PropOp39
 70
     1
102
RTVSPost2010Prop40
 90
        0
102
RTVSPost2010PropOp40
 70
     1
102
RTVSPost2010Prop41ColorIndex
 90
       18
102
RTVSPost2010Prop41ColorRGB
 90
        0
102
RTVSPost2010PropOp41
 70
     1
102
RTVSPost2010Prop42
 90
       50
102
RTVSPost2010PropOp42
 70
     1
102
RTVSPost2010Prop43
 90
        3
102
RTVSPost2010PropOp43
 70
     1
102
RTVSPost2010Prop44ColorIndex
 90
        5
102
RTVSPost2010Prop44ColorRGB
 90
      255
102
RTVSPost2010PropOp44
 70
     1
102
RTVSPost2010Prop45
280
     0
102
RTVSPost2010PropOp45
 70
     1
102
RTVSPost2010Prop46
 90
       50
102
RTVSPost2010PropOp46
 70
     1
102
RTVSPost2010Prop47
 90
       50
102
RTVSPost2010PropOp47
 70
     1
102
RTVSPost2010Prop48
 90
       50
102
RTVSPost2010PropOp48
 70
     1
102
RTVSPost2010Prop49
280
     0
102
RTVSPost2010PropOp49
 70
     1
102
RTVSPost2010Prop50
 90
       50
102
RTVSPost2010PropOp50
 70
     1
102
RTVSPost2010Prop51ColorIndex
 90
      256
102
RTVSPost2010Prop51ColorRGB
 90
-16777216
102
RTVSPost2010PropOp51
 70
     0
102
RTVSPost2010Prop52
140
1.0
102
RTVSPost2010PropOp52
 70
     0
102
RTVSPost2010Prop53
 90
        2
102
RTVSPost2010PropOp53
 70
     1
102
RTVSPost2010Prop54
  1
strokes_ogs.tif
102
RTVSPost2010PropOp54
 70
     1
102
RTVSPost2010Prop55
280
     0
102
RTVSPost2010PropOp55
 70
     1
102
RTVSPost2010Prop56
140
1.0
102
RTVSPost2010PropOp56
 70
     1
102
RTVSPost2010Prop57
140
1.0
102
RTVSPost2010PropOp57
 70
     1
  0
XRECORD
  5
151C
102
{ACAD_REACTORS
330
151B
102
}
330
151B
100
AcDbXrecord
280
     1
102
RTVSPost2010Prop28
280
     0
102
RTVSPost2010PropOp28
 70
     1
102
RTVSPost2010Prop29
280
     1
102
RTVSPost2010PropOp29
 70
     1
102
RTVSPost2010Prop30
280
     1
102
RTVSPost2010PropOp30
 70
     1
102
RTVSPost2010Prop31
280
     0
102
RTVSPost2010PropOp31
 70
     1
102
RTVSPost2010Prop32
280
     0
102
RTVSPost2010PropOp32
 70
     1
102
RTVSPost2010Prop33
280
     0
102
RTVSPost2010PropOp33
 70
     1
102
RTVSPost2010Prop34
280
     0
102
RTVSPost2010PropOp34
 70
     1
102
RTVSPost2010Prop35
280
     0
102
RTVSPost2010PropOp35
 70
     1
102
RTVSPost2010Prop36
280
     0
102
RTVSPost2010PropOp36
 70
     1
102
RTVSPost2010Prop37
 90
       50
102
RTVSPost2010PropOp37
 70
     1
102
RTVSPost2010Prop38
140
0.0
102
RTVSPost2010PropOp38
 70
     1
102
RTVSPost2010Prop39
140
1.0
102
RTVSPost2010PropOp39
 70
     1
102
RTVSPost2010Prop40
 90
        0
102
RTVSPost2010PropOp40
 70
     1
102
RTVSPost2010Prop41ColorIndex
 90
       18
102
RTVSPost2010Prop41ColorRGB
 90
        0
102
RTVSPost2010PropOp41
 70
     1
102
RTVSPost2010Prop42
 90
       50
102
RTVSPost2010PropOp42
 70
     1
102
RTVSPost2010Prop43
 90
        3
102
RTVSPost2010PropOp43
 70
     1
102
RTVSPost2010Prop44ColorIndex
 90
        5
102
RTVSPost2010Prop44ColorRGB
 90
      255
102
RTVSPost2010PropOp44
 70
     1
102
RTVSPost2010Prop45
280
     0
102
RTVSPost2010PropOp45
 70
     1
102
RTVSPost2010Prop46
 90
       50
102
RTVSPost2010PropOp46
 70
     1
102
RTVSPost2010Prop47
 90
       50
102
RTVSPost2010PropOp47
 70
     1
102
RTVSPost2010Prop48
 90
       50
102
RTVSPost2010PropOp48
 70
     1
102
RTVSPost2010Prop49
280
     0
102
RTVSPost2010PropOp49
 70
     1
102
RTVSPost2010Prop50
 90
       50
102
RTVSPost2010PropOp50
 70
     1
102
RTVSPost2010Prop51ColorIndex
 90
      256
102
RTVSPost2010Prop51ColorRGB
 90
-16777216
102
RTVSPost2010PropOp51
 70
     0
102
RTVSPost2010Prop52
140
1.0
102
RTVSPost2010PropOp52
 70
     0
102
RTVSPost2010Prop53
 90
        2
102
RTVSPost2010PropOp53
 70
     1
102
RTVSPost2010Prop54
  1
strokes_ogs.tif
102
RTVSPost2010PropOp54
 70
     1
102
RTVSPost2010Prop55
280
     0
102
RTVSPost2010PropOp55
 70
     1
102
RTVSPost2010Prop56
140
1.0
102
RTVSPost2010PropOp56
 70
     1
102
RTVSPost2010Prop57
140
1.0
102
RTVSPost2010PropOp57
 70
     1
  0
XRECORD
  5
1524
102
{ACAD_REACTORS
330
1523
102
}
330
1523
100
AcDbXrecord
280
     1
102
RTVSPost2010Prop28
280
     0
102
RTVSPost2010PropOp28
 70
     1
102
RTVSPost2010Prop29
280
     1
102
RTVSPost2010PropOp29
 70
     1
102
RTVSPost2010Prop30
280
     1
102
RTVSPost2010PropOp30
 70
     1
102
RTVSPost2010Prop31
280
     0
102
RTVSPost2010PropOp31
 70
     1
102
RTVSPost2010Prop32
280
     0
102
RTVSPost2010PropOp32
 70
     1
102
RTVSPost2010Prop33
280
     0
102
RTVSPost2010PropOp33
 70
     1
102
RTVSPost2010Prop34
280
     0
102
RTVSPost2010PropOp34
 70
     1
102
RTVSPost2010Prop35
280
     0
102
RTVSPost2010PropOp35
 70
     1
102
RTVSPost2010Prop36
280
     0
102
RTVSPost2010PropOp36
 70
     1
102
RTVSPost2010Prop37
 90
       50
102
RTVSPost2010PropOp37
 70
     1
102
RTVSPost2010Prop38
140
0.0
102
RTVSPost2010PropOp38
 70
     1
102
RTVSPost2010Prop39
140
1.0
102
RTVSPost2010PropOp39
 70
     1
102
RTVSPost2010Prop40
 90
        0
102
RTVSPost2010PropOp40
 70
     1
102
RTVSPost2010Prop41ColorIndex
 90
       18
102
RTVSPost2010Prop41ColorRGB
 90
        0
102
RTVSPost2010PropOp41
 70
     1
102
RTVSPost2010Prop42
 90
       50
102
RTVSPost2010PropOp42
 70
     1
102
RTVSPost2010Prop43
 90
        3
102
RTVSPost2010PropOp43
 70
     1
102
RTVSPost2010Prop44ColorIndex
 90
        5
102
RTVSPost2010Prop44ColorRGB
 90
      255
102
RTVSPost2010PropOp44
 70
     1
102
RTVSPost2010Prop45
280
     0
102
RTVSPost2010PropOp45
 70
     1
102
RTVSPost2010Prop46
 90
       50
102
RTVSPost2010PropOp46
 70
     1
102
RTVSPost2010Prop47
 90
       50
102
RTVSPost2010PropOp47
 70
     1
102
RTVSPost2010Prop48
 90
       50
102
RTVSPost2010PropOp48
 70
     1
102
RTVSPost2010Prop49
280
     0
102
RTVSPost2010PropOp49
 70
     1
102
RTVSPost2010Prop50
 90
       50
102
RTVSPost2010PropOp50
 70
     1
102
RTVSPost2010Prop51ColorIndex
 90
      256
102
RTVSPost2010Prop51ColorRGB
 90
-16777216
102
RTVSPost2010PropOp51
 70
     0
102
RTVSPost2010Prop52
140
1.0
102
RTVSPost2010PropOp52
 70
     0
102
RTVSPost2010Prop53
 90
        2
102
RTVSPost2010PropOp53
 70
     1
102
RTVSPost2010Prop54
  1
strokes_ogs.tif
102
RTVSPost2010PropOp54
 70
     1
102
RTVSPost2010Prop55
280
     0
102
RTVSPost2010PropOp55
 70
     1
102
RTVSPost2010Prop56
140
1.0
102
RTVSPost2010PropOp56
 70
     1
102
RTVSPost2010Prop57
140
1.0
102
RTVSPost2010PropOp57
 70
     1
  0
XRECORD
  5
152C
102
{ACAD_REACTORS
330
152B
102
}
330
152B
100
AcDbXrecord
280
     1
102
RTVSPost2010Prop28
280
     0
102
RTVSPost2010PropOp28
 70
     1
102
RTVSPost2010Prop29
280
     1
102
RTVSPost2010PropOp29
 70
     1
102
RTVSPost2010Prop30
280
     1
102
RTVSPost2010PropOp30
 70
     1
102
RTVSPost2010Prop31
280
     0
102
RTVSPost2010PropOp31
 70
     1
102
RTVSPost2010Prop32
280
     0
102
RTVSPost2010PropOp32
 70
     1
102
RTVSPost2010Prop33
280
     0
102
RTVSPost2010PropOp33
 70
     1
102
RTVSPost2010Prop34
280
     0
102
RTVSPost2010PropOp34
 70
     1
102
RTVSPost2010Prop35
280
     0
102
RTVSPost2010PropOp35
 70
     1
102
RTVSPost2010Prop36
280
     0
102
RTVSPost2010PropOp36
 70
     1
102
RTVSPost2010Prop37
 90
       50
102
RTVSPost2010PropOp37
 70
     1
102
RTVSPost2010Prop38
140
0.0
102
RTVSPost2010PropOp38
 70
     1
102
RTVSPost2010Prop39
140
1.0
102
RTVSPost2010PropOp39
 70
     1
102
RTVSPost2010Prop40
 90
        0
102
RTVSPost2010PropOp40
 70
     1
102
RTVSPost2010Prop41ColorIndex
 90
       18
102
RTVSPost2010Prop41ColorRGB
 90
        0
102
RTVSPost2010PropOp41
 70
     1
102
RTVSPost2010Prop42
 90
       50
102
RTVSPost2010PropOp42
 70
     1
102
RTVSPost2010Prop43
 90
        3
102
RTVSPost2010PropOp43
 70
     1
102
RTVSPost2010Prop44ColorIndex
 90
        5
102
RTVSPost2010Prop44ColorRGB
 90
      255
102
RTVSPost2010PropOp44
 70
     1
102
RTVSPost2010Prop45
280
     0
102
RTVSPost2010PropOp45
 70
     1
102
RTVSPost2010Prop46
 90
       50
102
RTVSPost2010PropOp46
 70
     1
102
RTVSPost2010Prop47
 90
       50
102
RTVSPost2010PropOp47
 70
     1
102
RTVSPost2010Prop48
 90
       50
102
RTVSPost2010PropOp48
 70
     1
102
RTVSPost2010Prop49
280
     0
102
RTVSPost2010PropOp49
 70
     1
102
RTVSPost2010Prop50
 90
       50
102
RTVSPost2010PropOp50
 70
     1
102
RTVSPost2010Prop51ColorIndex
 90
      256
102
RTVSPost2010Prop51ColorRGB
 90
-16777216
102
RTVSPost2010PropOp51
 70
     0
102
RTVSPost2010Prop52
140
1.0
102
RTVSPost2010PropOp52
 70
     0
102
RTVSPost2010Prop53
 90
        2
102
RTVSPost2010PropOp53
 70
     1
102
RTVSPost2010Prop54
  1
strokes_ogs.tif
102
RTVSPost2010PropOp54
 70
     1
102
RTVSPost2010Prop55
280
     0
102
RTVSPost2010PropOp55
 70
     1
102
RTVSPost2010Prop56
140
1.0
102
RTVSPost2010PropOp56
 70
     1
102
RTVSPost2010Prop57
140
1.0
102
RTVSPost2010PropOp57
 70
     1
  0
ENDSEC
  0
EOF
