  0
SECTION
  2
HEADER
  9
$ACADVER
  1
AC1027
  9
$ACADMAINTVER
 70
    55
  9
$DWGCODEPAGE
  3
ANSI_1252
  9
$LASTSAVEDBY
  1
bzakrzew
  9
$REQUIREDVERSIONS
160
                 0
  9
$INSBASE
 10
0.0
 20
0.0
 30
0.0
  9
$EXTMIN
 10
5.617930426564171
 20
3.358772646734417
 30
0.0
  9
$EXTMAX
 10
55.16583410159618
 20
31.81620110774959
 30
0.0
  9
$LIMMIN
 10
0.0
 20
0.0
  9
$LIMMAX
 10
12.0
 20
9.0
  9
$ORTHOMODE
 70
     1
  9
$REGENMODE
 70
     1
  9
$FILLMODE
 70
     1
  9
$QTEXTMODE
 70
     0
  9
$MIRRTEXT
 70
     1
  9
$LTSCALE
 40
1.0
  9
$ATTMODE
 70
     1
  9
$TEXTSIZE
 40
0.2
  9
$TRACEWID
 40
0.05
  9
$TEXTSTYLE
  7
Standard
  9
$CLAYER
  8
DIM
  9
$CELTYPE
  6
ByLayer
  9
$CECOLOR
 62
   256
  9
$CELTSCALE
 40
1.0
  9
$DISPSILH
 70
     0
  9
$DIMSCALE
 40
2.0
  9
$DIMASZ
 40
0.18
  9
$DIMEXO
 40
0.0625
  9
$DIMDLI
 40
0.38
  9
$DIMRND
 40
0.0
  9
$DIMDLE
 40
0.0
  9
$DIMEXE
 40
0.18
  9
$DIMTP
 40
0.0
  9
$DIMTM
 40
0.0
  9
$DIMTXT
 40
0.18
  9
$DIMCEN
 40
0.09
  9
$DIMTSZ
 40
0.0
  9
$DIMTOL
 70
     0
  9
$DIMLIM
 70
     0
  9
$DIMTIH
 70
     1
  9
$DIMTOH
 70
     1
  9
$DIMSE1
 70
     0
  9
$DIMSE2
 70
     0
  9
$DIMTAD
 70
     0
  9
$DIMZIN
 70
     4
  9
$DIMBLK
  1

  9
$DIMASO
 70
     1
  9
$DIMSHO
 70
     1
  9
$DIMPOST
  1

  9
$DIMAPOST
  1

  9
$DIMALT
 70
     0
  9
$DIMALTD
 70
     2
  9
$DIMALTF
 40
25.4
  9
$DIMLFAC
 40
1.0
  9
$DIMTOFL
 70
     0
  9
$DIMTVP
 40
0.0
  9
$DIMTIX
 70
     0
  9
$DIMSOXD
 70
     0
  9
$DIMSAH
 70
     0
  9
$DIMBLK1
  1

  9
$DIMBLK2
  1

  9
$DIMSTYLE
  2
Standard
  9
$DIMCLRD
 70
     0
  9
$DIMCLRE
 70
     0
  9
$DIMCLRT
 70
     0
  9
$DIMTFAC
 40
1.0
  9
$DIMGAP
 40
0.09
  9
$DIMJUST
 70
     0
  9
$DIMSD1
 70
     0
  9
$DIMSD2
 70
     0
  9
$DIMTOLJ
 70
     1
  9
$DIMTZIN
 70
     0
  9
$DIMALTZ
 70
     0
  9
$DIMALTTZ
 70
     0
  9
$DIMUPT
 70
     0
  9
$DIMDEC
 70
     2
  9
$DIMTDEC
 70
     2
  9
$DIMALTU
 70
     2
  9
$DIMALTTD
 70
     2
  9
$DIMTXSTY
  7
Standard
  9
$DIMAUNIT
 70
     0
  9
$DIMADEC
 70
     0
  9
$DIMALTRND
 40
0.0
  9
$DIMAZIN
 70
     1
  9
$DIMDSEP
 70
    46
  9
$DIMATFIT
 70
     3
  9
$DIMFRAC
 70
     0
  9
$DIMLDRBLK
  1

  9
$DIMLUNIT
 70
     2
  9
$DIMLWD
 70
    -2
  9
$DIMLWE
 70
    -2
  9
$DIMTMOVE
 70
     0
  9
$DIMFXL
 40
1.0
  9
$DIMFXLON
 70
     0
  9
$DIMJOGANG
 40
0.7853981633974483
  9
$DIMTFILL
 70
     0
  9
$DIMTFILLCLR
 70
     0
  9
$DIMARCSYM
 70
     0
  9
$DIMLTYPE
  6

  9
$DIMLTEX1
  6

  9
$DIMLTEX2
  6

  9
$DIMTXTDIRECTION
 70
     0
  9
$LUNITS
 70
     2
  9
$LUPREC
 70
     4
  9
$SKETCHINC
 40
0.1
  9
$FILLETRAD
 40
0.0
  9
$AUNITS
 70
     0
  9
$AUPREC
 70
     0
  9
$MENU
  1
.
  9
$ELEVATION
 40
0.0
  9
$PELEVATION
 40
0.0
  9
$THICKNESS
 40
0.0
  9
$LIMCHECK
 70
     0
  9
$CHAMFERA
 40
0.5
  9
$CHAMFERB
 40
0.5
  9
$CHAMFERC
 40
1.0
  9
$CHAMFERD
 40
0.0
  9
$SKPOLY
 70
     0
  9
$TDCREATE
 40
2453139.400819398
  9
$TDUCREATE
 40
2453139.609152731
  9
$TDUPDATE
 40
2456792.385755857
  9
$TDUUPDATE
 40
2456792.594089190
  9
$TDINDWG
 40
0.1525632639
  9
$TDUSRTIMER
 40
0.1525632639
  9
$USRTIMER
 70
     1
  9
$ANGBASE
 50
0.0
  9
$ANGDIR
 70
     0
  9
$PDMODE
 70
     0
  9
$PDSIZE
 40
0.0
  9
$PLINEWID
 40
0.0
  9
$SPLFRAME
 70
     0
  9
$SPLINETYPE
 70
     6
  9
$SPLINESEGS
 70
     8
  9
$HANDSEED
  5
C18
  9
$SURFTAB1
 70
     6
  9
$SURFTAB2
 70
     6
  9
$SURFTYPE
 70
     6
  9
$SURFU
 70
     6
  9
$SURFV
 70
     6
  9
$UCSBASE
  2

  9
$UCSNAME
  2

  9
$UCSORG
 10
0.0
 20
0.0
 30
0.0
  9
$UCSXDIR
 10
1.0
 20
0.0
 30
0.0
  9
$UCSYDIR
 10
0.0
 20
1.0
 30
0.0
  9
$UCSORTHOREF
  2

  9
$UCSORTHOVIEW
 70
     0
  9
$UCSORGTOP
 10
0.0
 20
0.0
 30
0.0
  9
$UCSORGBOTTOM
 10
0.0
 20
0.0
 30
0.0
  9
$UCSORGLEFT
 10
0.0
 20
0.0
 30
0.0
  9
$UCSORGRIGHT
 10
0.0
 20
0.0
 30
0.0
  9
$UCSORGFRONT
 10
0.0
 20
0.0
 30
0.0
  9
$UCSORGBACK
 10
0.0
 20
0.0
 30
0.0
  9
$PUCSBASE
  2

  9
$PUCSNAME
  2

  9
$PUCSORG
 10
0.0
 20
0.0
 30
0.0
  9
$PUCSXDIR
 10
1.0
 20
0.0
 30
0.0
  9
$PUCSYDIR
 10
0.0
 20
1.0
 30
0.0
  9
$PUCSORTHOREF
  2

  9
$PUCSORTHOVIEW
 70
     0
  9
$PUCSORGTOP
 10
0.0
 20
0.0
 30
0.0
  9
$PUCSORGBOTTOM
 10
0.0
 20
0.0
 30
0.0
  9
$PUCSORGLEFT
 10
0.0
 20
0.0
 30
0.0
  9
$PUCSORGRIGHT
 10
0.0
 20
0.0
 30
0.0
  9
$PUCSORGFRONT
 10
0.0
 20
0.0
 30
0.0
  9
$PUCSORGBACK
 10
0.0
 20
0.0
 30
0.0
  9
$USERI1
 70
     0
  9
$USERI2
 70
     0
  9
$USERI3
 70
     0
  9
$USERI4
 70
     0
  9
$USERI5
 70
     0
  9
$USERR1
 40
0.0
  9
$USERR2
 40
0.0
  9
$USERR3
 40
0.0
  9
$USERR4
 40
0.0
  9
$USERR5
 40
0.0
  9
$WORLDVIEW
 70
     1
  9
$SHADEDGE
 70
     3
  9
$SHADEDIF
 70
    70
  9
$TILEMODE
 70
     0
  9
$MAXACTVP
 70
    64
  9
$PINSBASE
 10
0.0
 20
0.0
 30
0.0
  9
$PLIMCHECK
 70
     0
  9
$PEXTMIN
 10
-0.0199091484394245
 20
-0.0264115475264148
 30
-0.0000000000112498
  9
$PEXTMAX
 10
15.98114325449152
 20
9.973893408633561
 30
0.0000000000002956
  9
$PLIMMIN
 10
-0.5031702833198187
 20
-0.5027604402395771
  9
$PLIMMAX
 10
16.4968292360884
 20
10.49723931946453
  9
$UNITMODE
 70
     0
  9
$VISRETAIN
 70
     1
  9
$PLINEGEN
 70
     0
  9
$PSLTSCALE
 70
     1
  9
$TREEDEPTH
 70
  3020
  9
$CMLSTYLE
  2
Standard
  9
$CMLJUST
 70
     0
  9
$CMLSCALE
 40
1.0
  9
$PROXYGRAPHICS
 70
     1
  9
$MEASUREMENT
 70
     0
  9
$CELWEIGHT
370
    -1
  9
$ENDCAPS
280
     0
  9
$JOINSTYLE
280
     0
  9
$LWDISPLAY
290
     0
  9
$INSUNITS
 70
     1
  9
$HYPERLINKBASE
  1

  9
$STYLESHEET
  1

  9
$XEDIT
290
     1
  9
$CEPSNTYPE
380
     0
  9
$PSTYLEMODE
290
     1
  9
$FINGERPRINTGUID
  2
{A79C0EE8-9481-11D2-9A29-0060089B3A3F}
  9
$VERSIONGUID
  2
{972D3EAF-5FC5-4917-B408-919AD08DFBC6}
  9
$EXTNAMES
290
     1
  9
$PSVPSCALE
 40
0.0
  9
$OLESTARTUP
290
     0
  9
$SORTENTS
280
   127
  9
$INDEXCTL
280
     0
  9
$HIDETEXT
280
     1
  9
$XCLIPFRAME
280
     2
  9
$HALOGAP
280
     0
  9
$OBSCOLOR
 70
   257
  9
$OBSLTYPE
280
     0
  9
$INTERSECTIONDISPLAY
280
     0
  9
$INTERSECTIONCOLOR
 70
   257
  9
$DIMASSOC
280
     2
  9
$PROJECTNAME
  1

  9
$CAMERADISPLAY
290
     0
  9
$LENSLENGTH
 40
50.0
  9
$CAMERAHEIGHT
 40
0.0
  9
$STEPSPERSEC
 40
2.0
  9
$STEPSIZE
 40
6.0
  9
$3DDWFPREC
 40
2.0
  9
$PSOLWIDTH
 40
0.25
  9
$PSOLHEIGHT
 40
4.0
  9
$LOFTANG1
 40
1.570796326794896
  9
$LOFTANG2
 40
1.570796326794896
  9
$LOFTMAG1
 40
0.0
  9
$LOFTMAG2
 40
0.0
  9
$LOFTPARAM
 70
     7
  9
$LOFTNORMALS
280
     1
  9
$LATITUDE
 40
37.795
  9
$LONGITUDE
 40
-122.394
  9
$NORTHDIRECTION
 40
0.0
  9
$TIMEZONE
 70
 -8000
  9
$LIGHTGLYPHDISPLAY
280
     1
  9
$TILEMODELIGHTSYNCH
280
     1
  9
$CMATERIAL
347
9DE
  9
$SOLIDHIST
280
     0
  9
$SHOWHIST
280
     1
  9
$DWFFRAME
280
     2
  9
$DGNFRAME
280
     0
  9
$REALWORLDSCALE
290
     1
  9
$INTERFERECOLOR
 62
     1
  9
$INTERFEREOBJVS
345
9EB
  9
$INTERFEREVPVS
346
BD6
  9
$CSHADOW
280
     0
  9
$SHADOWPLANELOCATION
 40
0.0
  0
ENDSEC
  0
SECTION
  2
CLASSES
  0
CLASS
  1
ACDBDICTIONARYWDFLT
  2
AcDbDictionaryWithDefault
  3
ObjectDBX Classes
 90
        0
 91
        1
280
     0
281
     0
  0
CLASS
  1
PLOTSETTINGS
  2
AcDbPlotSettings
  3
ObjectDBX Classes
 90
        0
 91
        1
280
     0
281
     0
  0
CLASS
  1
DICTIONARYVAR
  2
AcDbDictionaryVar
  3
ObjectDBX Classes
 90
        0
 91
       13
280
     0
281
     0
  0
CLASS
  1
DIMASSOC
  2
AcDbDimAssoc
  3
"AcDbDimAssoc|Product Desc:     AcDim ARX App For Dimension|Company:          Autodesk, Inc.|WEB Address:      www.autodesk.com"
 90
        0
 91
       11
280
     0
281
     0
  0
CLASS
  1
MATERIAL
  2
AcDbMaterial
  3
ObjectDBX Classes
 90
     1153
 91
        3
280
     0
281
     0
  0
CLASS
  1
VISUALSTYLE
  2
AcDbVisualStyle
  3
ObjectDBX Classes
 90
     4095
 91
       26
280
     0
281
     0
  0
CLASS
  1
TABLESTYLE
  2
AcDbTableStyle
  3
ObjectDBX Classes
 90
     4095
 91
        1
280
     0
281
     0
  0
CLASS
  1
SCALE
  2
AcDbScale
  3
ObjectDBX Classes
 90
     1153
 91
       17
280
     0
281
     0
  0
CLASS
  1
MLEADERSTYLE
  2
AcDbMLeaderStyle
  3
ACDB_MLEADERSTYLE_CLASS
 90
     4095
 91
        1
280
     0
281
     0
  0
CLASS
  1
ACDBSECTIONVIEWSTYLE
  2
AcDbSectionViewStyle
  3
ObjectDBX Classes
 90
     1025
 91
        1
280
     0
281
     0
  0
CLASS
  1
ACDBDETAILVIEWSTYLE
  2
AcDbDetailViewStyle
  3
ObjectDBX Classes
 90
     1025
 91
        1
280
     0
281
     0
  0
CLASS
  1
EXACXREFPANELOBJECT
  2
ExAcXREFPanelObject
  3
EXAC_ESW
 90
     1025
 91
        1
280
     0
281
     0
  0
CLASS
  1
NPOCOLLECTION
  2
AcDbImpNonPersistentObjectsCollection
  3
ObjectDBX Classes
 90
     1153
 91
        1
280
     0
281
     0
  0
CLASS
  1
CELLSTYLEMAP
  2
AcDbCellStyleMap
  3
ObjectDBX Classes
 90
     1152
 91
        1
280
     0
281
     0
  0
ENDSEC
  0
SECTION
  2
TABLES
  0
TABLE
  2
VPORT
  5
8
102
{ACAD_XDICTIONARY
360
A28
102
}
330
0
100
AcDbSymbolTable
 70
     1
  0
VPORT
  5
9DB
330
8
100
AcDbSymbolTableRecord
100
AcDbViewportTableRecord
  2
*Active
 70
     0
 10
0.0
 20
0.0
 11
1.0
 21
1.0
 12
30.3919202779762
 22
15.90875008938438
 13
0.0
 23
0.0
 14
0.5
 24
0.5
 15
0.5
 25
0.5
 16
0.0
 26
0.0
 36
1.0
 17
0.0
 27
0.0
 37
0.0
 40
32.19627994280172
 41
2.007438894792773
 42
50.0
 43
0.0
 44
0.0
 50
0.0
 51
0.0
 71
     0
 72
   100
 73
     1
 74
     2
 75
     0
 76
     0
 77
     0
 78
     0
281
     0
 65
     1
110
0.0
120
0.0
130
0.0
111
1.0
121
0.0
131
0.0
112
0.0
122
1.0
132
0.0
 79
     0
146
0.0
348
9E7
 60
     3
 61
     5
292
     1
282
     1
141
0.0
142
0.0
 63
   250
421
  3355443
  0
ENDTAB
  0
TABLE
  2
LTYPE
  5
5
330
0
100
AcDbSymbolTable
 70
     2
  0
LTYPE
  5
14
330
5
100
AcDbSymbolTableRecord
100
AcDbLinetypeTableRecord
  2
ByBlock
 70
     0
  3

 72
    65
 73
     0
 40
0.0
  0
LTYPE
  5
15
330
5
100
AcDbSymbolTableRecord
100
AcDbLinetypeTableRecord
  2
ByLayer
 70
     0
  3

 72
    65
 73
     0
 40
0.0
  0
LTYPE
  5
16
330
5
100
AcDbSymbolTableRecord
100
AcDbLinetypeTableRecord
  2
Continuous
 70
     0
  3
Solid line
 72
    65
 73
     0
 40
0.0
  0
LTYPE
  5
571
330
5
100
AcDbSymbolTableRecord
100
AcDbLinetypeTableRecord
  2
HIDDEN
 70
     0
  3
Hidden __ __ __ __ __ __ __ __ __ __ __ __ __ _
 72
    65
 73
     2
 40
0.375
 49
0.25
 74
     0
 49
-0.125
 74
     0
  0
ENDTAB
  0
TABLE
  2
LAYER
  5
2
102
{ACAD_XDICTIONARY
360
9F8
102
}
330
0
100
AcDbSymbolTable
 70
     7
  0
LAYER
  5
10
102
{ACAD_XDICTIONARY
360
BFD
102
}
330
2
100
AcDbSymbolTableRecord
100
AcDbLayerTableRecord
  2
0
 70
     0
 62
     7
  6
Continuous
370
    -3
390
F
347
9E0
348
0
  0
LAYER
  5
274
102
{ACAD_XDICTIONARY
360
BFF
102
}
330
2
100
AcDbSymbolTableRecord
100
AcDbLayerTableRecord
  2
BORDER
 70
     0
 62
     4
  6
Continuous
370
    30
390
F
347
9E0
348
0
  0
LAYER
  5
572
102
{ACAD_XDICTIONARY
360
C01
102
}
330
2
100
AcDbSymbolTableRecord
100
AcDbLayerTableRecord
  2
DIM
 70
     0
 62
     3
  6
Continuous
370
    -3
390
F
347
9E0
348
0
  0
LAYER
  5
573
102
{ACAD_XDICTIONARY
360
C03
102
}
330
2
100
AcDbSymbolTableRecord
100
AcDbLayerTableRecord
  2
VIEWPORT
 70
     0
 62
    -8
  6
Continuous
290
     0
370
    -3
390
F
347
9E0
348
0
  0
LAYER
  5
575
102
{ACAD_XDICTIONARY
360
C05
102
}
330
2
100
AcDbSymbolTableRecord
100
AcDbLayerTableRecord
  2
HIDDEN
 70
     0
 62
     1
  6
HIDDEN
370
    -3
390
F
347
9E0
348
0
  0
LAYER
  5
57D
330
2
100
AcDbSymbolTableRecord
100
AcDbLayerTableRecord
  2
Defpoints
 70
     0
 62
     7
  6
Continuous
290
     0
370
    -3
390
F
347
9E0
348
0
  0
LAYER
  5
816
102
{ACAD_XDICTIONARY
360
C07
102
}
330
2
100
AcDbSymbolTableRecord
100
AcDbLayerTableRecord
  2
HW-OBJ
 70
     0
 62
     7
  6
Continuous
370
    -3
390
F
347
9E0
348
0
  0
ENDTAB
  0
TABLE
  2
STYLE
  5
3
330
0
100
AcDbSymbolTable
 70
     1
  0
STYLE
  5
11
330
3
100
AcDbSymbolTableRecord
100
AcDbTextStyleTableRecord
  2
Standard
 70
     0
 40
0.0
 41
1.0
 50
0.0
 71
     0
 42
0.2
  3
txt
  4

  0
ENDTAB
  0
TABLE
  2
VIEW
  5
6
330
0
100
AcDbSymbolTable
 70
     0
  0
ENDTAB
  0
TABLE
  2
UCS
  5
7
330
0
100
AcDbSymbolTable
 70
     0
  0
ENDTAB
  0
TABLE
  2
APPID
  5
9
330
0
100
AcDbSymbolTable
 70
     7
  0
APPID
  5
12
330
9
100
AcDbSymbolTableRecord
100
AcDbRegAppTableRecord
  2
ACAD
 70
     0
  0
APPID
  5
277
330
9
100
AcDbSymbolTableRecord
100
AcDbRegAppTableRecord
  2
MASTER_SIZING
 70
     0
  0
APPID
  5
278
330
9
100
AcDbSymbolTableRecord
100
AcDbRegAppTableRecord
  2
PAPERSPACE
 70
     0
  0
APPID
  5
47E
330
9
100
AcDbSymbolTableRecord
100
AcDbRegAppTableRecord
  2
MASTER-TITLE
 70
     0
  0
APPID
  5
5A1
330
9
100
AcDbSymbolTableRecord
100
AcDbRegAppTableRecord
  2
ACAD_DIMASSOC_CALC_DIMLFAC
 70
     0
  0
APPID
  5
5A2
330
9
100
AcDbSymbolTableRecord
100
AcDbRegAppTableRecord
  2
ACAD_DIMASSOC_DIMLFAC
 70
     0
  0
APPID
  5
5A3
330
9
100
AcDbSymbolTableRecord
100
AcDbRegAppTableRecord
  2
ACAD_DIMASSOC_OVERRIDDEN_DIMLFAC
 70
     0
  0
ENDTAB
  0
TABLE
  2
DIMSTYLE
  5
A
330
0
100
AcDbSymbolTable
 70
     1
100
AcDbDimStyleTable
 71
     1
340
27
  0
DIMSTYLE
105
27
102
{ACAD_REACTORS
330
8AE
330
8D2
330
8EC
330
906
330
920
330
93A
330
96E
330
988
330
A61
330
A95
330
AAF
102
}
330
A
100
AcDbSymbolTableRecord
100
AcDbDimStyleTableRecord
  2
Standard
 70
     0
 78
     4
 79
     1
271
     2
272
     2
340
11
  0
ENDTAB
  0
TABLE
  2
BLOCK_RECORD
  5
1
330
0
100
AcDbSymbolTable
 70
    16
  0
BLOCK_RECORD
  5
1F
330
1
100
AcDbSymbolTableRecord
100
AcDbBlockTableRecord
  2
*Model_Space
340
22
 70
     0
280
     1
281
     0
  0
BLOCK_RECORD
  5
1B
330
1
100
AcDbSymbolTableRecord
100
AcDbBlockTableRecord
  2
*Paper_Space
340
1E
 70
     0
280
     1
281
     0
  0
BLOCK_RECORD
  5
3C4
330
1
100
AcDbSymbolTableRecord
100
AcDbBlockTableRecord
  2
*X0
340
0
102
{BLKREFS
331
448
102
}
 70
     0
280
     1
281
     0
  0
BLOCK_RECORD
  5
3E7
330
1
100
AcDbSymbolTableRecord
100
AcDbBlockTableRecord
  2
*X1
340
0
102
{BLKREFS
331
450
102
}
 70
     0
280
     1
281
     0
  0
BLOCK_RECORD
  5
40A
330
1
100
AcDbSymbolTableRecord
100
AcDbBlockTableRecord
  2
*X2
340
0
102
{BLKREFS
331
457
102
}
 70
     0
280
     1
281
     0
  0
BLOCK_RECORD
  5
42D
330
1
100
AcDbSymbolTableRecord
100
AcDbBlockTableRecord
  2
TITLEB
340
0
102
{BLKREFS
331
4AA
102
}
 70
     0
280
     1
281
     0
  0
BLOCK_RECORD
  5
52A
330
1
100
AcDbSymbolTableRecord
100
AcDbBlockTableRecord
  2
REVISE12
340
0
102
{BLKREFS
331
538
331
53E
331
544
331
54A
331
550
331
556
331
55C
102
}
 70
     0
280
     1
281
     0
  0
BLOCK_RECORD
  5
8AF
330
1
100
AcDbSymbolTableRecord
100
AcDbBlockTableRecord
  2
*D5
340
0
 70
     0
280
     1
281
     0
  0
BLOCK_RECORD
  5
8D3
330
1
100
AcDbSymbolTableRecord
100
AcDbBlockTableRecord
  2
*D6
340
0
 70
     0
280
     1
281
     0
  0
BLOCK_RECORD
  5
8ED
330
1
100
AcDbSymbolTableRecord
100
AcDbBlockTableRecord
  2
*D7
340
0
 70
     0
280
     1
281
     0
  0
BLOCK_RECORD
  5
907
330
1
100
AcDbSymbolTableRecord
100
AcDbBlockTableRecord
  2
*D8
340
0
 70
     0
280
     1
281
     0
  0
BLOCK_RECORD
  5
921
330
1
100
AcDbSymbolTableRecord
100
AcDbBlockTableRecord
  2
*D9
340
0
 70
     0
280
     1
281
     0
  0
BLOCK_RECORD
  5
93B
330
1
100
AcDbSymbolTableRecord
100
AcDbBlockTableRecord
  2
*D10
340
0
 70
     0
280
     1
281
     0
  0
BLOCK_RECORD
  5
96F
330
1
100
AcDbSymbolTableRecord
100
AcDbBlockTableRecord
  2
*D11
340
0
 70
     0
280
     1
281
     0
  0
BLOCK_RECORD
  5
989
330
1
100
AcDbSymbolTableRecord
100
AcDbBlockTableRecord
  2
*D12
340
0
 70
     0
280
     1
281
     0
  0
BLOCK_RECORD
  5
A62
330
1
100
AcDbSymbolTableRecord
100
AcDbBlockTableRecord
  2
*D13
340
0
 70
     0
280
     1
281
     0
  0
BLOCK_RECORD
  5
A96
330
1
100
AcDbSymbolTableRecord
100
AcDbBlockTableRecord
  2
*D14
340
0
 70
     0
280
     1
281
     0
  0
BLOCK_RECORD
  5
AB0
330
1
100
AcDbSymbolTableRecord
100
AcDbBlockTableRecord
  2
*D15
340
0
 70
     0
280
     1
281
     0
  0
ENDTAB
  0
ENDSEC
  0
SECTION
  2
BLOCKS
  0
BLOCK
  5
20
330
1F
100
AcDbEntity
  8
0
100
AcDbBlockBegin
  2
*Model_Space
 70
     0
 10
0.0
 20
0.0
 30
0.0
  3
*Model_Space
  1

  0
ENDBLK
  5
21
330
1F
100
AcDbEntity
  8
0
100
AcDbBlockEnd
  0
BLOCK
  5
1C
330
1B
100
AcDbEntity
 67
     1
  8
0
100
AcDbBlockBegin
  2
*Paper_Space
 70
     0
 10
0.0
 20
0.0
 30
0.0
  3
*Paper_Space
  1

  0
ENDBLK
  5
1D
330
1B
100
AcDbEntity
 67
     1
  8
0
100
AcDbBlockEnd
  0
BLOCK
  5
3E5
330
3C4
100
AcDbEntity
  8
0
100
AcDbBlockBegin
  2
*X0
 70
     1
 10
0.0
 20
0.0
 30
0.0
  3
*X0
  1

  0
LINE
  5
3C5
330
3C4
100
AcDbEntity
  8
0
 62
     0
100
AcDbLine
 10
5.45396787517937
 20
1.574999999999999
 30
0.0
 11
5.807876953967643
 21
1.574999999999999
 31
0.0
  0
LINE
  5
3C6
330
3C4
100
AcDbEntity
  8
0
 62
     0
100
AcDbLine
 10
5.45696787517937
 20
1.581999999999999
 30
0.0
 11
5.810876953967643
 21
1.581999999999999
 31
0.0
  0
LINE
  5
3C7
330
3C4
100
AcDbEntity
  8
0
 62
     0
100
AcDbLine
 10
5.45996787517937
 20
1.588999999999999
 30
0.0
 11
5.813876953967643
 21
1.588999999999999
 31
0.0
  0
LINE
  5
3C8
330
3C4
100
AcDbEntity
  8
0
 62
     0
100
AcDbLine
 10
5.46296787517937
 20
1.595999999999999
 30
0.0
 11
5.816876953967643
 21
1.595999999999999
 31
0.0
  0
LINE
  5
3C9
330
3C4
100
AcDbEntity
  8
0
 62
     0
100
AcDbLine
 10
5.46596787517937
 20
1.602999999999999
 30
0.0
 11
5.819876953967643
 21
1.602999999999999
 31
0.0
  0
LINE
  5
3CA
330
3C4
100
AcDbEntity
  8
0
 62
     0
100
AcDbLine
 10
5.46896787517937
 20
1.609999999999999
 30
0.0
 11
5.822876953967643
 21
1.609999999999999
 31
0.0
  0
LINE
  5
3CB
330
3C4
100
AcDbEntity
  8
0
 62
     0
100
AcDbLine
 10
5.47196787517937
 20
1.616999999999999
 30
0.0
 11
5.825876953967643
 21
1.616999999999999
 31
0.0
  0
LINE
  5
3CC
330
3C4
100
AcDbEntity
  8
0
 62
     0
100
AcDbLine
 10
5.47496787517937
 20
1.623999999999999
 30
0.0
 11
5.828876953967643
 21
1.623999999999999
 31
0.0
  0
LINE
  5
3CD
330
3C4
100
AcDbEntity
  8
0
 62
     0
100
AcDbLine
 10
5.47796787517937
 20
1.630999999999999
 30
0.0
 11
5.831876953967642
 21
1.630999999999999
 31
0.0
  0
LINE
  5
3CE
330
3C4
100
AcDbEntity
  8
0
 62
     0
100
AcDbLine
 10
5.48096787517937
 20
1.637999999999999
 30
0.0
 11
5.834876953967643
 21
1.637999999999999
 31
0.0
  0
LINE
  5
3CF
330
3C4
100
AcDbEntity
  8
0
 62
     0
100
AcDbLine
 10
5.48396787517937
 20
1.644999999999999
 30
0.0
 11
5.837876953967643
 21
1.644999999999999
 31
0.0
  0
LINE
  5
3D0
330
3C4
100
AcDbEntity
  8
0
 62
     0
100
AcDbLine
 10
5.48696787517937
 20
1.651999999999999
 30
0.0
 11
5.840876953967643
 21
1.651999999999999
 31
0.0
  0
LINE
  5
3D1
330
3C4
100
AcDbEntity
  8
0
 62
     0
100
AcDbLine
 10
5.489967875179369
 20
1.658999999999999
 30
0.0
 11
5.843876953967643
 21
1.658999999999999
 31
0.0
  0
LINE
  5
3D2
330
3C4
100
AcDbEntity
  8
0
 62
     0
100
AcDbLine
 10
5.49296787517937
 20
1.665999999999999
 30
0.0
 11
5.846876953967643
 21
1.665999999999999
 31
0.0
  0
LINE
  5
3D3
330
3C4
100
AcDbEntity
  8
0
 62
     0
100
AcDbLine
 10
5.49596787517937
 20
1.672999999999999
 30
0.0
 11
5.849876953967643
 21
1.672999999999999
 31
0.0
  0
LINE
  5
3D4
330
3C4
100
AcDbEntity
  8
0
 62
     0
100
AcDbLine
 10
5.49896787517937
 20
1.679999999999999
 30
0.0
 11
5.852876953967642
 21
1.679999999999999
 31
0.0
  0
LINE
  5
3D5
330
3C4
100
AcDbEntity
  8
0
 62
     0
100
AcDbLine
 10
5.511085062679369
 20
1.427999999999999
 30
0.0
 11
5.624759766467643
 21
1.427999999999999
 31
0.0
  0
LINE
  5
3D6
330
3C4
100
AcDbEntity
  8
0
 62
     0
100
AcDbLine
 10
5.508085062679369
 20
1.420999999999999
 30
0.0
 11
5.621759766467643
 21
1.420999999999999
 31
0.0
  0
LINE
  5
3D7
330
3C4
100
AcDbEntity
  8
0
 62
     0
100
AcDbLine
 10
5.50508506267937
 20
1.413999999999999
 30
0.0
 11
5.618759766467643
 21
1.413999999999999
 31
0.0
  0
LINE
  5
3D8
330
3C4
100
AcDbEntity
  8
0
 62
     0
100
AcDbLine
 10
5.50208506267937
 20
1.406999999999999
 30
0.0
 11
5.615759766467643
 21
1.406999999999999
 31
0.0
  0
LINE
  5
3D9
330
3C4
100
AcDbEntity
  8
0
 62
     0
100
AcDbLine
 10
5.49908506267937
 20
1.399999999999999
 30
0.0
 11
5.612759766467643
 21
1.399999999999999
 31
0.0
  0
LINE
  5
3DA
330
3C4
100
AcDbEntity
  8
0
 62
     0
100
AcDbLine
 10
5.49608506267937
 20
1.392999999999999
 30
0.0
 11
5.609759766467643
 21
1.392999999999999
 31
0.0
  0
LINE
  5
3DB
330
3C4
100
AcDbEntity
  8
0
 62
     0
100
AcDbLine
 10
5.493085062679369
 20
1.385999999999999
 30
0.0
 11
5.606759766467643
 21
1.385999999999999
 31
0.0
  0
LINE
  5
3DC
330
3C4
100
AcDbEntity
  8
0
 62
     0
100
AcDbLine
 10
5.490085062679369
 20
1.378999999999999
 30
0.0
 11
5.603759766467643
 21
1.378999999999999
 31
0.0
  0
LINE
  5
3DD
330
3C4
100
AcDbEntity
  8
0
 62
     0
100
AcDbLine
 10
5.487085062679369
 20
1.371999999999999
 30
0.0
 11
5.600759766467643
 21
1.371999999999999
 31
0.0
  0
LINE
  5
3DE
330
3C4
100
AcDbEntity
  8
0
 62
     0
100
AcDbLine
 10
5.48408506267937
 20
1.364999999999999
 30
0.0
 11
5.597759766467643
 21
1.364999999999999
 31
0.0
  0
LINE
  5
3DF
330
3C4
100
AcDbEntity
  8
0
 62
     0
100
AcDbLine
 10
5.48108506267937
 20
1.357999999999999
 30
0.0
 11
5.594759766467643
 21
1.357999999999999
 31
0.0
  0
LINE
  5
3E0
330
3C4
100
AcDbEntity
  8
0
 62
     0
100
AcDbLine
 10
5.47808506267937
 20
1.350999999999999
 30
0.0
 11
5.591759766467643
 21
1.350999999999999
 31
0.0
  0
LINE
  5
3E1
330
3C4
100
AcDbEntity
  8
0
 62
     0
100
AcDbLine
 10
5.47508506267937
 20
1.343999999999999
 30
0.0
 11
5.588759766467643
 21
1.343999999999999
 31
0.0
  0
LINE
  5
3E2
330
3C4
100
AcDbEntity
  8
0
 62
     0
100
AcDbLine
 10
5.47208506267937
 20
1.336999999999999
 30
0.0
 11
5.585759766467643
 21
1.336999999999999
 31
0.0
  0
LINE
  5
3E3
330
3C4
100
AcDbEntity
  8
0
 62
     0
100
AcDbLine
 10
5.469085062679369
 20
1.329999999999999
 30
0.0
 11
5.582759766467643
 21
1.329999999999999
 31
0.0
  0
LINE
  5
3E4
330
3C4
100
AcDbEntity
  8
0
 62
     0
100
AcDbLine
 10
5.46608506267937
 20
1.322999999999999
 30
0.0
 11
5.579759766467643
 21
1.322999999999999
 31
0.0
  0
ENDBLK
  5
3E6
330
3C4
100
AcDbEntity
  8
0
100
AcDbBlockEnd
  0
BLOCK
  5
408
330
3E7
100
AcDbEntity
  8
0
100
AcDbBlockBegin
  2
*X1
 70
     1
 10
0.0
 20
0.0
 30
0.0
  3
*X1
  1

  0
LINE
  5
3E8
330
3E7
100
AcDbEntity
  8
0
 62
     0
100
AcDbLine
 10
5.838430634431923
 20
1.574999999999999
 30
0.0
 11
6.177017578967642
 21
1.574999999999999
 31
0.0
  0
LINE
  5
3E9
330
3E7
100
AcDbEntity
  8
0
 62
     0
100
AcDbLine
 10
5.842372730782834
 20
1.581999999999999
 30
0.0
 11
6.180017578967643
 21
1.581999999999999
 31
0.0
  0
LINE
  5
3EA
330
3E7
100
AcDbEntity
  8
0
 62
     0
100
AcDbLine
 10
5.846611167770751
 20
1.588999999999999
 30
0.0
 11
6.183017578967643
 21
1.588999999999999
 31
0.0
  0
LINE
  5
3EB
330
3E7
100
AcDbEntity
  8
0
 62
     0
100
AcDbLine
 10
5.85116362765395
 20
1.595999999999999
 30
0.0
 11
6.186017578967643
 21
1.595999999999999
 31
0.0
  0
LINE
  5
3EC
330
3E7
100
AcDbEntity
  8
0
 62
     0
100
AcDbLine
 10
5.856050708241837
 20
1.602999999999999
 30
0.0
 11
6.189017578967642
 21
1.602999999999999
 31
0.0
  0
LINE
  5
3ED
330
3E7
100
AcDbEntity
  8
0
 62
     0
100
AcDbLine
 10
5.861296580512354
 20
1.609999999999999
 30
0.0
 11
6.192017578967642
 21
1.609999999999999
 31
0.0
  0
LINE
  5
3EE
330
3E7
100
AcDbEntity
  8
0
 62
     0
100
AcDbLine
 10
5.866929857974115
 20
1.616999999999999
 30
0.0
 11
6.195017578967642
 21
1.616999999999999
 31
0.0
  0
LINE
  5
3EF
330
3E7
100
AcDbEntity
  8
0
 62
     0
100
AcDbLine
 10
5.873041552579413
 20
1.623999999999999
 30
0.0
 11
6.198017578967642
 21
1.623999999999999
 31
0.0
  0
LINE
  5
3F0
330
3E7
100
AcDbEntity
  8
0
 62
     0
100
AcDbLine
 10
5.879781035182118
 20
1.630999999999999
 30
0.0
 11
6.201017578967642
 21
1.630999999999999
 31
0.0
  0
LINE
  5
3F1
330
3E7
100
AcDbEntity
  8
0
 62
     0
100
AcDbLine
 10
5.887247213158012
 20
1.637999999999999
 30
0.0
 11
6.204017578967643
 21
1.637999999999999
 31
0.0
  0
LINE
  5
3F2
330
3E7
100
AcDbEntity
  8
0
 62
     0
100
AcDbLine
 10
5.895574264668549
 20
1.644999999999999
 30
0.0
 11
6.207017578967642
 21
1.644999999999999
 31
0.0
  0
LINE
  5
3F3
330
3E7
100
AcDbEntity
  8
0
 62
     0
100
AcDbLine
 10
5.904954277639744
 20
1.651999999999999
 30
0.0
 11
6.210017578967642
 21
1.651999999999999
 31
0.0
  0
LINE
  5
3F4
330
3E7
100
AcDbEntity
  8
0
 62
     0
100
AcDbLine
 10
5.9156798057527
 20
1.658999999999999
 30
0.0
 11
6.213017578967642
 21
1.658999999999999
 31
0.0
  0
LINE
  5
3F5
330
3E7
100
AcDbEntity
  8
0
 62
     0
100
AcDbLine
 10
5.928513952323043
 20
1.665999999999999
 30
0.0
 11
6.216017578967642
 21
1.665999999999999
 31
0.0
  0
LINE
  5
3F6
330
3E7
100
AcDbEntity
  8
0
 62
     0
100
AcDbLine
 10
5.945645847719009
 20
1.672999999999999
 30
0.0
 11
6.219017578967642
 21
1.672999999999999
 31
0.0
  0
LINE
  5
3F7
330
3E7
100
AcDbEntity
  8
0
 62
     0
100
AcDbLine
 10
5.977808580088747
 20
1.679999999999999
 30
0.0
 11
6.222017578967642
 21
1.679999999999999
 31
0.0
  0
LINE
  5
3F8
330
3E7
100
AcDbEntity
  8
0
 62
     0
100
AcDbLine
 10
5.810219224340453
 20
1.427999999999999
 30
0.0
 11
6.114017578967644
 21
1.427999999999999
 31
0.0
  0
LINE
  5
3F9
330
3E7
100
AcDbEntity
  8
0
 62
     0
100
AcDbLine
 10
5.811488605172723
 20
1.420999999999999
 30
0.0
 11
6.111017578967643
 21
1.420999999999999
 31
0.0
  0
LINE
  5
3FA
330
3E7
100
AcDbEntity
  8
0
 62
     0
100
AcDbLine
 10
5.813026558360106
 20
1.413999999999999
 30
0.0
 11
6.108017578967643
 21
1.413999999999999
 31
0.0
  0
LINE
  5
3FB
330
3E7
100
AcDbEntity
  8
0
 62
     0
100
AcDbLine
 10
5.814897973513518
 20
1.406999999999999
 30
0.0
 11
6.105017578967643
 21
1.406999999999999
 31
0.0
  0
LINE
  5
3FC
330
3E7
100
AcDbEntity
  8
0
 62
     0
100
AcDbLine
 10
5.817143572214619
 20
1.399999999999999
 30
0.0
 11
6.102017578967643
 21
1.399999999999999
 31
0.0
  0
LINE
  5
3FD
330
3E7
100
AcDbEntity
  8
0
 62
     0
100
AcDbLine
 10
5.81978168816861
 20
1.392999999999999
 30
0.0
 11
6.099017578967643
 21
1.392999999999999
 31
0.0
  0
LINE
  5
3FE
330
3E7
100
AcDbEntity
  8
0
 62
     0
100
AcDbLine
 10
5.822835427794158
 20
1.385999999999999
 30
0.0
 11
6.096017578967643
 21
1.385999999999999
 31
0.0
  0
LINE
  5
3FF
330
3E7
100
AcDbEntity
  8
0
 62
     0
100
AcDbLine
 10
5.826333868321768
 20
1.378999999999999
 30
0.0
 11
6.093017578967643
 21
1.378999999999999
 31
0.0
  0
LINE
  5
400
330
3E7
100
AcDbEntity
  8
0
 62
     0
100
AcDbLine
 10
5.830313767959082
 20
1.371999999999999
 30
0.0
 11
6.090017578967643
 21
1.371999999999999
 31
0.0
  0
LINE
  5
401
330
3E7
100
AcDbEntity
  8
0
 62
     0
100
AcDbLine
 10
5.834822064839842
 20
1.364999999999999
 30
0.0
 11
6.087017578967643
 21
1.364999999999999
 31
0.0
  0
LINE
  5
402
330
3E7
100
AcDbEntity
  8
0
 62
     0
100
AcDbLine
 10
5.83992248535309
 20
1.357999999999999
 30
0.0
 11
6.084017578967643
 21
1.357999999999999
 31
0.0
  0
LINE
  5
403
330
3E7
100
AcDbEntity
  8
0
 62
     0
100
AcDbLine
 10
5.845921584129319
 20
1.350999999999999
 30
0.0
 11
6.081017578967643
 21
1.350999999999999
 31
0.0
  0
LINE
  5
404
330
3E7
100
AcDbEntity
  8
0
 62
     0
100
AcDbLine
 10
5.853204271667434
 20
1.343999999999999
 30
0.0
 11
6.078017578967643
 21
1.343999999999999
 31
0.0
  0
LINE
  5
405
330
3E7
100
AcDbEntity
  8
0
 62
     0
100
AcDbLine
 10
5.862264652813967
 20
1.336999999999999
 30
0.0
 11
6.075017578967643
 21
1.336999999999999
 31
0.0
  0
LINE
  5
406
330
3E7
100
AcDbEntity
  8
0
 62
     0
100
AcDbLine
 10
5.874173248854301
 20
1.329999999999999
 30
0.0
 11
6.072017578967643
 21
1.329999999999999
 31
0.0
  0
LINE
  5
407
330
3E7
100
AcDbEntity
  8
0
 62
     0
100
AcDbLine
 10
5.892560340200012
 20
1.322999999999999
 30
0.0
 11
6.069017578967643
 21
1.322999999999999
 31
0.0
  0
ENDBLK
  5
409
330
3E7
100
AcDbEntity
  8
0
100
AcDbBlockEnd
  0
BLOCK
  5
42B
330
40A
100
AcDbEntity
  8
0
100
AcDbBlockBegin
  2
*X2
 70
     1
 10
0.0
 20
0.0
 30
0.0
  3
*X2
  1

  0
LINE
  5
40B
330
40A
100
AcDbEntity
  8
0
 62
     0
100
AcDbLine
 10
6.22154600017937
 20
1.574999999999999
 30
0.0
 11
6.335220703967643
 21
1.574999999999999
 31
0.0
  0
LINE
  5
40C
330
40A
100
AcDbEntity
  8
0
 62
     0
100
AcDbLine
 10
6.22454600017937
 20
1.581999999999999
 30
0.0
 11
6.338220703967643
 21
1.581999999999999
 31
0.0
  0
LINE
  5
40D
330
40A
100
AcDbEntity
  8
0
 62
     0
100
AcDbLine
 10
6.22754600017937
 20
1.588999999999999
 30
0.0
 11
6.341220703967643
 21
1.588999999999999
 31
0.0
  0
LINE
  5
40E
330
40A
100
AcDbEntity
  8
0
 62
     0
100
AcDbLine
 10
6.230546000179369
 20
1.595999999999999
 30
0.0
 11
6.344220703967643
 21
1.595999999999999
 31
0.0
  0
LINE
  5
40F
330
40A
100
AcDbEntity
  8
0
 62
     0
100
AcDbLine
 10
6.233546000179369
 20
1.602999999999999
 30
0.0
 11
6.347220703967643
 21
1.602999999999999
 31
0.0
  0
LINE
  5
410
330
40A
100
AcDbEntity
  8
0
 62
     0
100
AcDbLine
 10
6.236546000179369
 20
1.609999999999999
 30
0.0
 11
6.350220703967643
 21
1.609999999999999
 31
0.0
  0
LINE
  5
411
330
40A
100
AcDbEntity
  8
0
 62
     0
100
AcDbLine
 10
6.23954600017937
 20
1.616999999999999
 30
0.0
 11
6.353220703967643
 21
1.616999999999999
 31
0.0
  0
LINE
  5
412
330
40A
100
AcDbEntity
  8
0
 62
     0
100
AcDbLine
 10
6.24254600017937
 20
1.623999999999999
 30
0.0
 11
6.356220703967642
 21
1.623999999999999
 31
0.0
  0
LINE
  5
413
330
40A
100
AcDbEntity
  8
0
 62
     0
100
AcDbLine
 10
6.24554600017937
 20
1.630999999999999
 30
0.0
 11
6.359220703967642
 21
1.630999999999999
 31
0.0
  0
LINE
  5
414
330
40A
100
AcDbEntity
  8
0
 62
     0
100
AcDbLine
 10
6.24854600017937
 20
1.637999999999999
 30
0.0
 11
6.362220703967643
 21
1.637999999999999
 31
0.0
  0
LINE
  5
415
330
40A
100
AcDbEntity
  8
0
 62
     0
100
AcDbLine
 10
6.25154600017937
 20
1.644999999999999
 30
0.0
 11
6.365220703967643
 21
1.644999999999999
 31
0.0
  0
LINE
  5
416
330
40A
100
AcDbEntity
  8
0
 62
     0
100
AcDbLine
 10
6.25454600017937
 20
1.651999999999999
 30
0.0
 11
6.368220703967643
 21
1.651999999999999
 31
0.0
  0
LINE
  5
417
330
40A
100
AcDbEntity
  8
0
 62
     0
100
AcDbLine
 10
6.25754600017937
 20
1.658999999999999
 30
0.0
 11
6.371220703967642
 21
1.658999999999999
 31
0.0
  0
LINE
  5
418
330
40A
100
AcDbEntity
  8
0
 62
     0
100
AcDbLine
 10
6.26054600017937
 20
1.665999999999999
 30
0.0
 11
6.374220703967642
 21
1.665999999999999
 31
0.0
  0
LINE
  5
419
330
40A
100
AcDbEntity
  8
0
 62
     0
100
AcDbLine
 10
6.26354600017937
 20
1.672999999999999
 30
0.0
 11
6.377220703967642
 21
1.672999999999999
 31
0.0
  0
LINE
  5
41A
330
40A
100
AcDbEntity
  8
0
 62
     0
100
AcDbLine
 10
6.26654600017937
 20
1.679999999999999
 30
0.0
 11
6.380220703967642
 21
1.679999999999999
 31
0.0
  0
LINE
  5
41B
330
40A
100
AcDbEntity
  8
0
 62
     0
100
AcDbLine
 10
6.15854600017937
 20
1.427999999999999
 30
0.0
 11
6.272220703967642
 21
1.427999999999999
 31
0.0
  0
LINE
  5
41C
330
40A
100
AcDbEntity
  8
0
 62
     0
100
AcDbLine
 10
6.15554600017937
 20
1.420999999999999
 30
0.0
 11
6.269220703967642
 21
1.420999999999999
 31
0.0
  0
LINE
  5
41D
330
40A
100
AcDbEntity
  8
0
 62
     0
100
AcDbLine
 10
6.152546000179371
 20
1.413999999999999
 30
0.0
 11
6.266220703967642
 21
1.413999999999999
 31
0.0
  0
LINE
  5
41E
330
40A
100
AcDbEntity
  8
0
 62
     0
100
AcDbLine
 10
6.149546000179371
 20
1.406999999999999
 30
0.0
 11
6.263220703967642
 21
1.406999999999999
 31
0.0
  0
LINE
  5
41F
330
40A
100
AcDbEntity
  8
0
 62
     0
100
AcDbLine
 10
6.146546000179371
 20
1.399999999999999
 30
0.0
 11
6.260220703967642
 21
1.399999999999999
 31
0.0
  0
LINE
  5
420
330
40A
100
AcDbEntity
  8
0
 62
     0
100
AcDbLine
 10
6.14354600017937
 20
1.392999999999999
 30
0.0
 11
6.257220703967642
 21
1.392999999999999
 31
0.0
  0
LINE
  5
421
330
40A
100
AcDbEntity
  8
0
 62
     0
100
AcDbLine
 10
6.14054600017937
 20
1.385999999999999
 30
0.0
 11
6.254220703967642
 21
1.385999999999999
 31
0.0
  0
LINE
  5
422
330
40A
100
AcDbEntity
  8
0
 62
     0
100
AcDbLine
 10
6.13754600017937
 20
1.378999999999999
 30
0.0
 11
6.251220703967643
 21
1.378999999999999
 31
0.0
  0
LINE
  5
423
330
40A
100
AcDbEntity
  8
0
 62
     0
100
AcDbLine
 10
6.13454600017937
 20
1.371999999999999
 30
0.0
 11
6.248220703967643
 21
1.371999999999999
 31
0.0
  0
LINE
  5
424
330
40A
100
AcDbEntity
  8
0
 62
     0
100
AcDbLine
 10
6.131546000179371
 20
1.364999999999999
 30
0.0
 11
6.245220703967643
 21
1.364999999999999
 31
0.0
  0
LINE
  5
425
330
40A
100
AcDbEntity
  8
0
 62
     0
100
AcDbLine
 10
6.128546000179371
 20
1.357999999999999
 30
0.0
 11
6.242220703967642
 21
1.357999999999999
 31
0.0
  0
LINE
  5
426
330
40A
100
AcDbEntity
  8
0
 62
     0
100
AcDbLine
 10
6.125546000179371
 20
1.350999999999999
 30
0.0
 11
6.239220703967642
 21
1.350999999999999
 31
0.0
  0
LINE
  5
427
330
40A
100
AcDbEntity
  8
0
 62
     0
100
AcDbLine
 10
6.122546000179371
 20
1.343999999999999
 30
0.0
 11
6.236220703967643
 21
1.343999999999999
 31
0.0
  0
LINE
  5
428
330
40A
100
AcDbEntity
  8
0
 62
     0
100
AcDbLine
 10
6.11954600017937
 20
1.336999999999999
 30
0.0
 11
6.233220703967643
 21
1.336999999999999
 31
0.0
  0
LINE
  5
429
330
40A
100
AcDbEntity
  8
0
 62
     0
100
AcDbLine
 10
6.11654600017937
 20
1.329999999999999
 30
0.0
 11
6.230220703967643
 21
1.329999999999999
 31
0.0
  0
LINE
  5
42A
330
40A
100
AcDbEntity
  8
0
 62
     0
100
AcDbLine
 10
6.113546000179371
 20
1.322999999999999
 30
0.0
 11
6.227220703967643
 21
1.322999999999999
 31
0.0
  0
ENDBLK
  5
42C
330
40A
100
AcDbEntity
  8
0
100
AcDbBlockEnd
  0
BLOCK
  5
47C
330
42D
100
AcDbEntity
  8
0
100
AcDbBlockBegin
  2
TITLEB
 70
     2
 10
0.0
 20
0.0
 30
0.0
  3
TITLEB
  1

  0
LINE
  5
42E
330
42D
100
AcDbEntity
  8
0
100
AcDbLine
 10
0.0
 20
1.75
 30
0.0
 11
-8.75
 21
1.75
 31
0.0
  0
LINE
  5
42F
330
42D
100
AcDbEntity
  8
0
100
AcDbLine
 10
-8.75
 20
0.0
 30
0.0
 11
-8.75
 21
1.75
 31
0.0
  0
LINE
  5
430
330
42D
100
AcDbEntity
  8
0
100
AcDbLine
 10
-3.75
 20
0.0
 30
0.0
 11
-3.75
 21
1.75
 31
0.0
  0
LINE
  5
431
330
42D
100
AcDbEntity
  8
0
100
AcDbLine
 10
-4.75
 20
0.0
 30
0.0
 11
-4.75
 21
1.75
 31
0.0
  0
LINE
  5
432
330
42D
100
AcDbEntity
  8
0
100
AcDbLine
 10
0.0
 20
1.25
 30
0.0
 11
-3.75
 21
1.25
 31
0.0
  0
LINE
  5
433
330
42D
100
AcDbEntity
  8
0
100
AcDbLine
 10
0.0
 20
0.5
 30
0.0
 11
-3.75
 21
0.5
 31
0.0
  0
LINE
  5
434
330
42D
100
AcDbEntity
  8
0
100
AcDbLine
 10
-1.75
 20
0.25
 30
0.0
 11
-3.75
 21
0.25
 31
0.0
  0
LINE
  5
435
330
42D
100
AcDbEntity
  8
0
100
AcDbLine
 10
-2.75
 20
0.0
 30
0.0
 11
-2.75
 21
0.5
 31
0.0
  0
LINE
  5
436
330
42D
100
AcDbEntity
  8
0
100
AcDbLine
 10
-1.75
 20
0.0
 30
0.0
 11
-1.75
 21
0.5
 31
0.0
  0
LINE
  5
437
330
42D
100
AcDbEntity
  8
0
100
AcDbLine
 10
-8.75
 20
0.25
 30
0.0
 11
-4.75
 21
0.25
 31
0.0
  0
LINE
  5
438
330
42D
100
AcDbEntity
  8
0
100
AcDbLine
 10
-8.75
 20
0.5
 30
0.0
 11
-4.75
 21
0.5
 31
0.0
  0
LINE
  5
439
330
42D
100
AcDbEntity
  8
0
100
AcDbLine
 10
-8.75
 20
0.75
 30
0.0
 11
-4.75
 21
0.75
 31
0.0
  0
LINE
  5
43A
330
42D
100
AcDbEntity
  8
0
100
AcDbLine
 10
-8.75
 20
1.0
 30
0.0
 11
-4.75
 21
1.0
 31
0.0
  0
LINE
  5
43B
330
42D
100
AcDbEntity
  8
0
100
AcDbLine
 10
-8.75
 20
1.25
 30
0.0
 11
-4.75
 21
1.25
 31
0.0
  0
LINE
  5
43C
330
42D
100
AcDbEntity
  8
0
100
AcDbLine
 10
-8.75
 20
1.5
 30
0.0
 11
-4.75
 21
1.5
 31
0.0
  0
LINE
  5
43D
330
42D
100
AcDbEntity
  8
0
100
AcDbLine
 10
-8.5
 20
0.0
 30
0.0
 11
-8.5
 21
0.25
 31
0.0
  0
LINE
  5
43E
330
42D
100
AcDbEntity
  8
0
100
AcDbLine
 10
-5.25
 20
0.0
 30
0.0
 11
-5.25
 21
0.25
 31
0.0
  0
LINE
  5
43F
330
42D
100
AcDbEntity
  8
0
100
AcDbLine
 10
-6.0
 20
0.0
 30
0.0
 11
-6.0
 21
0.25
 31
0.0
  0
TEXT
  5
440
330
42D
100
AcDbEntity
  8
0
100
AcDbText
 10
-2.0625
 20
1.5
 30
0.0
 40
0.125
  1
7878 N. 86th STREET
 41
0.8
100
AcDbText
  0
TEXT
  5
441
330
42D
100
AcDbEntity
  8
0
100
AcDbText
 10
-2.0625
 20
1.3125
 30
0.0
 40
0.125
  1
MILWAUKEE, WI 53224
 41
0.8
100
AcDbText
  0
LWPOLYLINE
  5
442
330
42D
100
AcDbEntity
  8
0
100
AcDbPolyline
 90
        4
 70
     1
 43
0.0
 10
-3.285414937320629
 20
1.3195
 10
-3.238680562320629
 20
1.428546875
 10
-3.125005858532356
 20
1.428546875
 10
-3.171740233532355
 20
1.3195
  0
LWPOLYLINE
  5
443
330
42D
100
AcDbEntity
  8
0
100
AcDbPolyline
 90
        4
 70
     1
 43
0.0
 10
-3.250817839106344
 20
1.6805
 10
-2.89690876031807
 20
1.6805
 10
-2.94364313531807
 20
1.571453125
 10
-3.297552214106343
 20
1.571453124999999
  0
LWPOLYLINE
  5
444
330
42D
100
AcDbEntity
  8
0
100
AcDbPolyline
 90
        4
 70
     1
 43
0.0
 10
-3.189990830177771
 20
1.54215625
 10
-3.188457348034915
 20
1.545734375
 10
-3.074782644246643
 20
1.545734375
 10
-3.0763161263895
 20
1.54215625
  0
LWPOLYLINE
  5
445
330
42D
100
AcDbEntity
  8
0
100
AcDbPolyline
 90
        4
 70
     1
 43
0.0
 10
-3.202546633749199
 20
1.512859375
 10
-3.201013151606343
 20
1.5164375
 10
-3.08733844781807
 20
1.5164375
 10
-3.088871929960927
 20
1.512859375
  0
LWPOLYLINE
  5
446
330
42D
100
AcDbEntity
  8
0
100
AcDbPolyline
 90
        4
 70
     1
 43
0.0
 10
-3.215102437320628
 20
1.4835625
 10
-3.213568955177771
 20
1.487140625
 10
-3.099894251389499
 20
1.487140625
 10
-3.101427733532355
 20
1.4835625
  0
LWPOLYLINE
  5
447
330
42D
100
AcDbEntity
  8
0
100
AcDbPolyline
 90
        4
 70
     1
 43
0.0
 10
-3.227658240892057
 20
1.454265625
 10
-3.226124758749199
 20
1.45784375
 10
-3.112450054960928
 20
1.45784375
 10
-3.113983537103784
 20
1.454265625
  0
INSERT
  5
448
330
42D
100
AcDbEntity
  8
0
100
AcDbBlockReference
  2
*X0
 10
-8.75
 20
0.0
 30
0.0
  0
LWPOLYLINE
  5
449
330
42D
100
AcDbEntity
  8
0
100
AcDbPolyline
 90
        7
 70
     1
 43
0.0
 10
-2.762231148711324
 20
1.6805
 10
-2.527768135318071
 20
1.6805
 10
-2.574502510318071
 20
1.571453125
 10
-2.913458647295216
 20
1.571453125
 42
-0.0544294461070727
 10
-2.882410714404356
 20
1.61778749552415
 42
-0.0845420544265891
 10
-2.832469162284517
 20
1.660109181167315
 42
-0.1063992799428199
 10
-2.773240393004338
 20
1.679889118949611
 42
-0.0275849799055071
  0
LWPOLYLINE
  5
44A
330
42D
100
AcDbEntity
  8
0
100
AcDbPolyline
 90
        4
 70
     1
 43
0.0
 10
-2.926512261880938
 20
1.54215625
 42
-0.0037258627774768
 10
-2.925148445340088
 20
1.545734375
 10
-2.798666549644947
 20
1.545734375
 42
0.0078221631996512
 10
-2.801529913345053
 20
1.54215625
  0
LWPOLYLINE
  5
44B
330
42D
100
AcDbEntity
  8
0
100
AcDbPolyline
 90
        4
 70
     1
 43
0.0
 10
-2.940788712538793
 20
1.4835625
 42
-0.0046299156693458
 10
-2.940305889697683
 20
1.487140625
 10
-2.828052751189916
 20
1.487140625
 42
0.0062675473724042
 10
-2.828877971293042
 20
1.4835625
  0
LWPOLYLINE
  5
44C
330
42D
100
AcDbEntity
  8
0
100
AcDbPolyline
 90
        4
 70
     1
 43
0.0
 10
-2.942242123114335
 20
1.454265625
 42
-0.0045889585316378
 10
-2.942301351501798
 20
1.45784375
 10
-2.831831922403969
 20
1.45784375
 42
0.0105951476002948
 10
-2.831695161363402
 20
1.454265625
  0
LWPOLYLINE
  5
44D
330
42D
100
AcDbEntity
  8
0
100
AcDbPolyline
 90
        7
 70
     1
 43
0.0
 10
-2.831225361427375
 20
1.319503038959232
 42
-0.1015700823222252
 10
-2.87061875385724
 20
1.327588836161583
 42
-0.1295179467350742
 10
-2.910794263919052
 20
1.358930086815251
 42
-0.1063992799429048
 10
-2.937318287787183
 20
1.415461221661148
 42
-0.0171005208410267
 10
-2.939868875238068
 20
1.428546875
 10
-2.635748046032356
 20
1.428546875
 10
-2.682482421032356
 20
1.3195
  0
ARC
  5
44E
330
42D
100
AcDbEntity
  8
0
100
AcDbCircle
 10
-2.685746677563014
 20
1.452436466783003
 30
0.0
 40
0.1394766096981118
100
AcDbArc
 50
156.8014094863549
 51
157.4788690056203
  0
LWPOLYLINE
  5
44F
330
42D
100
AcDbEntity
  8
0
100
AcDbPolyline
 90
        4
 70
     1
 43
0.0
 10
-2.819180066754968
 20
1.512859375
 10
-2.93548009193736
 20
1.512859375
 42
-0.0035883137103321
 10
-2.934587136169777
 20
1.5164375
 10
-2.81750124080774
 20
1.5164375
 42
0.0067460873084902
  0
INSERT
  5
450
330
42D
100
AcDbEntity
  8
0
100
AcDbBlockReference
  2
*X1
 10
-8.75
 20
0.0
 30
0.0
  0
LWPOLYLINE
  5
451
330
42D
100
AcDbEntity
  8
0
100
AcDbPolyline
 90
        4
 70
     1
 43
0.0
 10
-2.41629938531807
 20
1.571453125
 10
-2.529974089106343
 20
1.571453125
 10
-2.483239714106343
 20
1.6805
 10
-2.369565010318071
 20
1.6805
  0
LWPOLYLINE
  5
452
330
42D
100
AcDbEntity
  8
0
100
AcDbPolyline
 90
        4
 70
     1
 43
0.0
 10
-2.54252989267777
 20
1.54215625
 10
-2.540996410534915
 20
1.545734375
 10
-2.427321706746643
 20
1.545734375
 10
-2.4288551888895
 20
1.54215625
  0
LWPOLYLINE
  5
453
330
42D
100
AcDbEntity
  8
0
100
AcDbPolyline
 90
        4
 70
     1
 43
0.0
 10
-2.5550856962492
 20
1.512859375
 10
-2.553552214106343
 20
1.5164375
 10
-2.43987751031807
 20
1.5164375
 10
-2.441410992460927
 20
1.512859375
  0
LWPOLYLINE
  5
454
330
42D
100
AcDbEntity
  8
0
100
AcDbPolyline
 90
        4
 70
     1
 43
0.0
 10
-2.567641499820629
 20
1.4835625
 10
-2.566108017677771
 20
1.487140625
 10
-2.452433313889499
 20
1.487140625
 10
-2.453966796032357
 20
1.4835625
  0
LWPOLYLINE
  5
455
330
42D
100
AcDbEntity
  8
0
100
AcDbPolyline
 90
        4
 70
     1
 43
0.0
 10
-2.580197303392057
 20
1.454265625
 10
-2.5786638212492
 20
1.45784375
 10
-2.464989117460926
 20
1.45784375
 10
-2.466522599603784
 20
1.454265625
  0
LWPOLYLINE
  5
456
330
42D
100
AcDbEntity
  8
0
100
AcDbPolyline
 90
        4
 70
     1
 43
0.0
 10
-2.637953999820628
 20
1.3195
 10
-2.591219624820628
 20
1.428546875
 10
-2.477544921032357
 20
1.428546875
 10
-2.524279296032356
 20
1.3195
  0
INSERT
  5
457
330
42D
100
AcDbEntity
  8
0
100
AcDbBlockReference
  2
*X2
 10
-8.75
 20
0.0
 30
0.0
  0
TEXT
  5
458
330
42D
100
AcDbEntity
  8
0
100
AcDbText
 10
-3.71875
 20
0.40625
 30
0.0
 40
0.0625
  1
DRN. BY
 41
0.8
100
AcDbText
  0
TEXT
  5
459
330
42D
100
AcDbEntity
  8
0
100
AcDbText
 10
-2.71875
 20
0.40625
 30
0.0
 40
0.0625
  1
DATE
 41
0.8
100
AcDbText
  0
TEXT
  5
45A
330
42D
100
AcDbEntity
  8
0
100
AcDbText
 10
-1.71875
 20
0.40625
 30
0.0
 40
0.0625
  1
DWG. NO.
 41
0.8
100
AcDbText
  0
TEXT
  5
45B
330
42D
100
AcDbEntity
  8
0
100
AcDbText
 10
-2.71875
 20
0.15625
 30
0.0
 40
0.0625
  1
APRVD.
 41
0.8
100
AcDbText
  0
TEXT
  5
45C
330
42D
100
AcDbEntity
  8
0
100
AcDbText
 10
-3.71875
 20
0.15625
 30
0.0
 40
0.0625
  1
SCALE
 41
0.8
100
AcDbText
  0
TEXT
  5
45D
330
42D
100
AcDbEntity
  8
0
100
AcDbText
 10
-4.59375
 20
1.625
 30
0.0
 40
0.09
  1
TOLERANCES
 41
0.8
100
AcDbText
  0
TEXT
  5
45E
330
42D
100
AcDbEntity
  8
0
100
AcDbText
 10
-4.71875
 20
1.375
 30
0.0
 40
0.0625
  1
DECIMAL
 41
0.8
100
AcDbText
  0
TEXT
  5
45F
330
42D
100
AcDbEntity
  8
0
100
AcDbText
 10
-4.71875
 20
0.65625
 30
0.0
 40
0.0625
  1
FRACTIONAL
 41
0.8
100
AcDbText
  0
TEXT
  5
460
330
42D
100
AcDbEntity
  8
0
100
AcDbText
 10
-4.71875
 20
0.28125
 30
0.0
 40
0.0625
  1
ANGULAR
 41
0.8
100
AcDbText
  0
LINE
  5
461
330
42D
100
AcDbEntity
  8
0
100
AcDbLine
 10
-4.75
 20
1.46875
 30
0.0
 11
-3.75
 21
1.46875
 31
0.0
  0
TEXT
  5
462
330
42D
100
AcDbEntity
  8
0
100
AcDbText
 10
-4.625
 20
1.5
 30
0.0
 40
0.0625
  1
(EXCEPT AS NOTED)
 41
0.8
100
AcDbText
  0
LINE
  5
463
330
42D
100
AcDbEntity
  8
0
100
AcDbLine
 10
-4.75
 20
0.375
 30
0.0
 11
-3.75
 21
0.375
 31
0.0
  0
LINE
  5
464
330
42D
100
AcDbEntity
  8
0
100
AcDbLine
 10
-4.75
 20
0.75
 30
0.0
 11
-3.75
 21
0.75
 31
0.0
  0
TEXT
  5
465
330
42D
100
AcDbEntity
  8
0
100
AcDbText
 10
-4.6875
 20
1.09375
 30
0.0
 40
0.125
  1
.XX %%p
 41
0.8
100
AcDbText
  0
TEXT
  5
466
330
42D
100
AcDbEntity
  8
0
100
AcDbText
 10
-4.6875
 20
0.84375
 30
0.0
 40
0.125
  1
.XXX%%p
 41
0.8
100
AcDbText
  0
TEXT
  5
467
330
42D
100
AcDbEntity
  8
0
100
AcDbText
 10
-4.625
 20
0.46875
 30
0.0
 40
0.125
  1
%%p
 41
0.8
100
AcDbText
  0
TEXT
  5
468
330
42D
100
AcDbEntity
  8
0
100
AcDbText
 10
-4.625
 20
0.09375
 30
0.0
 40
0.125
  1
%%p
 41
0.8
100
AcDbText
  0
TEXT
  5
469
330
42D
100
AcDbEntity
  8
0
100
AcDbText
 10
-5.09375
 20
0.0625
 30
0.0
 40
0.125
  1
BY
 41
0.8
100
AcDbText
  0
TEXT
  5
46A
330
42D
100
AcDbEntity
  8
0
100
AcDbText
 10
-8.71875
 20
0.0625
 30
0.0
 40
0.125
  1
NO
 41
0.8
100
AcDbText
  0
TEXT
  5
46B
330
42D
100
AcDbEntity
  8
0
100
AcDbText
 10
-7.53125
 20
0.0625
 30
0.0
 40
0.125
  1
REVISION
 41
0.8
100
AcDbText
  0
TEXT
  5
46C
330
42D
100
AcDbEntity
  8
0
100
AcDbText
 10
-5.8125
 20
0.0625
 30
0.0
 40
0.125
  1
DATE
 41
0.8
100
AcDbText
  0
TEXT
  5
46D
330
42D
100
AcDbEntity
  8
0
100
AcDbText
 10
-0.9375
 20
0.03125
 30
0.0
 40
0.09
  1
SHT.    OF
 41
0.8
100
AcDbText
  0
ATTDEF
  5
46E
330
42D
100
AcDbEntity
  8
0
100
AcDbText
 10
-1.28125
 20
0.25
 30
0.0
 40
0.1875
  1

 41
0.8
100
AcDbAttributeDefinition
280
     0
  3
DRAWING NUMBER
  2
DWGNO
 70
     0
280
     0
  0
ATTDEF
  5
46F
330
42D
100
AcDbEntity
  8
0
100
AcDbText
 10
-3.34375
 20
0.28125
 30
0.0
 40
0.125
  1

 41
0.8
100
AcDbAttributeDefinition
280
     0
  3
DRAWN BY
  2
DRNBY
 70
     0
280
     0
  0
ATTDEF
  5
470
330
42D
100
AcDbEntity
  8
0
100
AcDbText
 10
-2.5
 20
0.28125
 30
0.0
 40
0.125
  1

 41
1.631756756756757
 72
     5
 11
-1.78125
 21
0.28125
 31
0.0
100
AcDbAttributeDefinition
280
     0
  3
DRAWING DATE
  2
DATE
 70
     0
280
     0
  0
ATTDEF
  5
471
330
42D
100
AcDbEntity
  8
0
100
AcDbText
 10
-3.40625
 20
0.03125
 30
0.0
 40
0.125
  1

 41
0.8
100
AcDbAttributeDefinition
280
     0
  3
SCALE
  2
SCALE
 70
     0
280
     0
  0
ATTDEF
  5
472
330
42D
100
AcDbEntity
  8
0
100
AcDbText
 10
-2.40625
 20
0.03125
 30
0.0
 40
0.125
  1

 41
0.8
100
AcDbAttributeDefinition
280
     0
  3
APPROVED BY
  2
APRVD
 70
     0
280
     0
  0
ATTDEF
  5
473
330
42D
100
AcDbEntity
  8
0
100
AcDbText
 10
-0.65625
 20
0.03125
 30
0.0
 40
0.125
  1

 41
0.8
100
AcDbAttributeDefinition
280
     0
  3
SHEET
  2
SHT
 70
     0
280
     0
  0
ATTDEF
  5
474
330
42D
100
AcDbEntity
  8
0
100
AcDbText
 10
-0.28125
 20
0.03125
 30
0.0
 40
0.125
  1

 41
0.8
100
AcDbAttributeDefinition
280
     0
  3
OF SHEET
  2
OFSHT
 70
     0
280
     0
  0
ATTDEF
  5
475
330
42D
100
AcDbEntity
  8
0
100
AcDbText
 10
-3.59375
 20
0.875
 30
0.0
 40
0.1875
  1

 41
0.8
100
AcDbAttributeDefinition
280
     0
  3
DESCRIPTION (LINE 1 OF 2)
  2
DESC1
 70
     0
280
     0
  0
ATTDEF
  5
476
330
42D
100
AcDbEntity
  8
0
100
AcDbText
 10
-3.59375
 20
0.59375
 30
0.0
 40
0.1875
  1

 41
0.8
100
AcDbAttributeDefinition
280
     0
  3
DESCRIPTION (LINE 2 OF 2)
  2
DESC2
 70
     0
280
     0
  0
ATTDEF
  5
477
330
42D
100
AcDbEntity
  8
0
100
AcDbText
 10
-4.21875
 20
1.09375
 30
0.0
 40
0.125
  1
.01
 41
0.8
100
AcDbAttributeDefinition
280
     0
  3
TOLERANCE .XX
  2
TOLXX
 70
     0
280
     0
  0
ATTDEF
  5
478
330
42D
100
AcDbEntity
  8
0
100
AcDbText
 10
-4.21875
 20
0.84375
 30
0.0
 40
0.125
  1
.005
 41
0.8
100
AcDbAttributeDefinition
280
     0
  3
TOLERANCE .XXX
  2
TOLXXX
 70
     0
280
     0
  0
ATTDEF
  5
479
330
42D
100
AcDbEntity
  8
0
100
AcDbText
 10
-4.46875
 20
0.46875
 30
0.0
 40
0.125
  1
1/32
 41
0.8
100
AcDbAttributeDefinition
280
     0
  3
TOLERANCE - FRACTIONAL
  2
TOLFRAC
 70
     0
280
     0
  0
ATTDEF
  5
47A
330
42D
100
AcDbEntity
  8
0
100
AcDbText
 10
-4.46875
 20
0.09375
 30
0.0
 40
0.125
  1
1/2%%d
 41
0.8
100
AcDbAttributeDefinition
280
     0
  3
TOLERANCE - ANGULAR
  2
TOLANG
 70
     0
280
     0
  0
ATTDEF
  5
47B
330
42D
100
AcDbEntity
  8
0
100
AcDbText
 10
-1.59375
 20
0.09375
 30
0.0
 40
0.25
  1

 41
0.8
100
AcDbAttributeDefinition
280
     0
  3

  2
DWG.SIZE
 70
     0
280
     0
  0
ENDBLK
  5
47D
330
42D
100
AcDbEntity
  8
0
100
AcDbBlockEnd
  0
BLOCK
  5
533
330
52A
100
AcDbEntity
  8
0
100
AcDbBlockBegin
  2
REVISE12
 70
     2
 10
0.0
 20
0.0
 30
0.0
  3
REVISE12
  1

  0
ATTDEF
  5
52B
330
52A
100
AcDbEntity
  8
0
100
AcDbText
 10
0.03125
 20
0.0625000000000009
 30
0.0
 40
0.125
  1

 41
0.9
 72
     5
 11
0.21875
 21
0.0625000000000009
 31
0.0
100
AcDbAttributeDefinition
280
     0
  3
REVISION NO.
  2
NO
 70
     8
280
     0
  0
ATTDEF
  5
52C
330
52A
100
AcDbEntity
  8
0
100
AcDbText
 10
0.3125
 20
0.0625000000000009
 30
0.0
 40
0.125
  1

100
AcDbAttributeDefinition
280
     0
  3
REVISION
  2
REV
 70
     8
280
     0
  0
ATTDEF
  5
52D
330
52A
100
AcDbEntity
  8
0
100
AcDbText
 10
2.8125
 20
0.0625000000000009
 30
0.0
 40
0.125
  1

 41
1.125
 72
     5
 11
3.46875
 21
0.0625000000000009
 31
0.0
100
AcDbAttributeDefinition
280
     0
  3
REVISION DATE
  2
RDATE
 70
     8
280
     0
  0
ATTDEF
  5
52E
330
52A
100
AcDbEntity
  8
0
100
AcDbText
 10
3.53125
 20
0.0625000000000009
 30
0.0
 40
0.125
  1

100
AcDbAttributeDefinition
280
     0
  3
REVISION BY
  2
BY
 70
     8
280
     0
  0
LINE
  5
52F
330
52A
100
AcDbEntity
  8
0
100
AcDbLine
 10
0.0
 20
0.0
 30
0.0
 11
0.0
 21
0.2500000000000009
 31
0.0
  0
LINE
  5
530
330
52A
100
AcDbEntity
  8
0
100
AcDbLine
 10
0.25
 20
0.2500000000000009
 30
0.0
 11
0.25
 21
0.0000000000000009
 31
0.0
  0
LINE
  5
531
330
52A
100
AcDbEntity
  8
0
100
AcDbLine
 10
2.75
 20
0.2500000000000009
 30
0.0
 11
2.75
 21
0.0000000000000009
 31
0.0
  0
LINE
  5
532
330
52A
100
AcDbEntity
  8
0
100
AcDbLine
 10
3.5
 20
0.2500000000000009
 30
0.0
 11
3.5
 21
0.0000000000000009
 31
0.0
  0
ENDBLK
  5
534
330
52A
100
AcDbEntity
  8
0
100
AcDbBlockEnd
  0
BLOCK
  5
8BA
330
8AF
100
AcDbEntity
  8
0
100
AcDbBlockBegin
  2
*D5
 70
     1
 10
0.0
 20
0.0
 30
0.0
  3
*D5
  1

  0
LINE
  5
AC9
330
8AF
100
AcDbEntity
  8
DIM
 62
     0
440
 16777216
370
    -2
100
AcDbLine
 10
38.04752180790731
 20
14.34385458581186
 30
0.0
 11
38.04752180790731
 21
16.2610090745614
 31
0.0
  0
LINE
  5
ACA
330
8AF
100
AcDbEntity
  8
DIM
 62
     0
440
 16777216
370
    -2
100
AcDbLine
 10
49.04752180790731
 20
14.24385458581186
 30
0.0
 11
49.04752180790731
 21
16.2610090745614
 31
0.0
  0
LINE
  5
ACB
330
8AF
100
AcDbEntity
  8
DIM
 62
     0
440
 16777216
370
    -2
100
AcDbLine
 10
38.40752180790731
 20
15.9010090745614
 30
0.0
 11
42.82752180790731
 21
15.9010090745614
 31
0.0
  0
LINE
  5
ACC
330
8AF
100
AcDbEntity
  8
DIM
 62
     0
440
 16777216
370
    -2
100
AcDbLine
 10
48.68752180790731
 20
15.9010090745614
 30
0.0
 11
44.26752180790731
 21
15.9010090745614
 31
0.0
  0
SOLID
  5
ACD
330
8AF
100
AcDbEntity
  8
DIM
 62
     0
440
 16777216
100
AcDbTrace
 10
38.40752180790731
 20
15.9610090745614
 30
0.0
 11
38.40752180790731
 21
15.8410090745614
 31
0.0
 12
38.04752180790731
 22
15.9010090745614
 32
0.0
 13
38.04752180790731
 23
15.9010090745614
 33
0.0
  0
SOLID
  5
ACE
330
8AF
100
AcDbEntity
  8
DIM
 62
     0
440
 16777216
100
AcDbTrace
 10
48.68752180790731
 20
15.9610090745614
 30
0.0
 11
48.68752180790731
 21
15.8410090745614
 31
0.0
 12
49.04752180790731
 22
15.9010090745614
 32
0.0
 13
49.04752180790731
 23
15.9010090745614
 33
0.0
  0
MTEXT
  5
ACF
330
8AF
100
AcDbEntity
  8
DIM
 62
     0
440
 16777216
100
AcDbMText
 10
43.54752180790731
 20
15.9010090745614
 30
0.0
 40
0.36
 41
0.0
 46
0.0
 71
     5
 72
     1
  1
\A1;11.00
 73
     1
 44
1.0
  0
POINT
  5
AD0
330
8AF
100
AcDbEntity
  8
Defpoints
 62
     0
440
 16777216
100
AcDbPoint
 10
38.04752180790731
 20
14.21885458581186
 30
0.0
  0
POINT
  5
AD1
330
8AF
100
AcDbEntity
  8
Defpoints
 62
     0
440
 16777216
100
AcDbPoint
 10
49.04752180790731
 20
14.11885458581186
 30
0.0
  0
POINT
  5
AD2
330
8AF
100
AcDbEntity
  8
Defpoints
 62
     0
440
 16777216
100
AcDbPoint
 10
49.04752180790731
 20
15.9010090745614
 30
0.0
  0
ENDBLK
  5
8BB
330
8AF
100
AcDbEntity
  8
0
100
AcDbBlockEnd
  0
BLOCK
  5
8DE
330
8D3
100
AcDbEntity
  8
0
100
AcDbBlockBegin
  2
*D6
 70
     1
 10
0.0
 20
0.0
 30
0.0
  3
*D6
  1

  0
LINE
  5
AD3
330
8D3
100
AcDbEntity
  8
DIM
 62
     0
440
 16777216
370
    -2
100
AcDbLine
 10
38.04752180790731
 20
14.34385458581186
 30
0.0
 11
38.04752180790731
 21
17.48378563127436
 31
0.0
  0
LINE
  5
AD4
330
8D3
100
AcDbEntity
  8
DIM
 62
     0
440
 16777216
370
    -2
100
AcDbLine
 10
50.7975218079073
 20
14.34385458581186
 30
0.0
 11
50.7975218079073
 21
17.48378563127436
 31
0.0
  0
LINE
  5
AD5
330
8D3
100
AcDbEntity
  8
DIM
 62
     0
440
 16777216
370
    -2
100
AcDbLine
 10
38.40752180790731
 20
17.12378563127436
 30
0.0
 11
43.58252180790731
 21
17.12378563127436
 31
0.0
  0
LINE
  5
AD6
330
8D3
100
AcDbEntity
  8
DIM
 62
     0
440
 16777216
370
    -2
100
AcDbLine
 10
50.43752180790731
 20
17.12378563127436
 30
0.0
 11
45.26252180790731
 21
17.12378563127436
 31
0.0
  0
SOLID
  5
AD7
330
8D3
100
AcDbEntity
  8
DIM
 62
     0
440
 16777216
100
AcDbTrace
 10
38.40752180790731
 20
17.18378563127435
 30
0.0
 11
38.40752180790731
 21
17.06378563127436
 31
0.0
 12
38.04752180790731
 22
17.12378563127436
 32
0.0
 13
38.04752180790731
 23
17.12378563127436
 33
0.0
  0
SOLID
  5
AD8
330
8D3
100
AcDbEntity
  8
DIM
 62
     0
440
 16777216
100
AcDbTrace
 10
50.43752180790731
 20
17.18378563127435
 30
0.0
 11
50.43752180790731
 21
17.06378563127436
 31
0.0
 12
50.7975218079073
 22
17.12378563127436
 32
0.0
 13
50.7975218079073
 23
17.12378563127436
 33
0.0
  0
MTEXT
  5
AD9
330
8D3
100
AcDbEntity
  8
DIM
 62
     0
440
 16777216
100
AcDbMText
 10
44.4225218079073
 20
17.12378563127436
 30
0.0
 40
0.36
 41
0.0
 46
0.0
 71
     5
 72
     1
  1
\A1;12.75
 73
     1
 44
1.0
  0
POINT
  5
ADA
330
8D3
100
AcDbEntity
  8
Defpoints
 62
     0
440
 16777216
100
AcDbPoint
 10
38.04752180790731
 20
14.21885458581186
 30
0.0
  0
POINT
  5
ADB
330
8D3
100
AcDbEntity
  8
Defpoints
 62
     0
440
 16777216
100
AcDbPoint
 10
50.7975218079073
 20
14.21885458581186
 30
0.0
  0
POINT
  5
ADC
330
8D3
100
AcDbEntity
  8
Defpoints
 62
     0
440
 16777216
100
AcDbPoint
 10
50.7975218079073
 20
17.12378563127436
 30
0.0
  0
ENDBLK
  5
8DF
330
8D3
100
AcDbEntity
  8
0
100
AcDbBlockEnd
  0
BLOCK
  5
8F8
330
8ED
100
AcDbEntity
  8
0
100
AcDbBlockBegin
  2
*D7
 70
     1
 10
0.0
 20
0.0
 30
0.0
  3
*D7
  1

  0
LINE
  5
8FB
330
8ED
100
AcDbEntity
  8
DIM
 62
     0
440
 16777216
370
    -2
100
AcDbLine
 10
32.24293042656417
 20
19.06620110774958
 30
0.0
 11
36.17416693318946
 21
19.06620110774958
 31
0.0
  0
LINE
  5
8FC
330
8ED
100
AcDbEntity
  8
DIM
 62
     0
440
 16777216
370
    -2
100
AcDbLine
 10
29.74093042656418
 20
31.81620110774959
 30
0.0
 11
36.17416693318946
 21
31.81620110774959
 31
0.0
  0
LINE
  5
8FD
330
8ED
100
AcDbEntity
  8
DIM
 62
     0
440
 16777216
370
    -2
100
AcDbLine
 10
35.81416693318946
 20
19.42620110774958
 30
0.0
 11
35.81416693318946
 21
25.08120110774959
 31
0.0
  0
LINE
  5
8FE
330
8ED
100
AcDbEntity
  8
DIM
 62
     0
440
 16777216
370
    -2
100
AcDbLine
 10
35.81416693318946
 20
31.45620110774959
 30
0.0
 11
35.81416693318946
 21
25.80120110774958
 31
0.0
  0
SOLID
  5
8FF
330
8ED
100
AcDbEntity
  8
DIM
 62
     0
440
 16777216
100
AcDbTrace
 10
35.75416693318945
 20
19.42620110774958
 30
0.0
 11
35.87416693318946
 21
19.42620110774958
 31
0.0
 12
35.81416693318946
 22
19.06620110774958
 32
0.0
 13
35.81416693318946
 23
19.06620110774958
 33
0.0
  0
SOLID
  5
900
330
8ED
100
AcDbEntity
  8
DIM
 62
     0
440
 16777216
100
AcDbTrace
 10
35.75416693318945
 20
31.45620110774959
 30
0.0
 11
35.87416693318946
 21
31.45620110774959
 31
0.0
 12
35.81416693318946
 22
31.81620110774959
 32
0.0
 13
35.81416693318946
 23
31.81620110774959
 33
0.0
  0
MTEXT
  5
901
330
8ED
100
AcDbEntity
  8
DIM
 62
     0
440
 16777216
100
AcDbMText
 10
35.81416693318945
 20
25.44120110774959
 30
0.0
 40
0.36
 41
0.0
 46
0.0
 71
     5
 72
     1
  1
\A1;12.75
 73
     1
 44
1.0
  0
POINT
  5
902
330
8ED
100
AcDbEntity
  8
Defpoints
 62
     0
440
 16777216
100
AcDbPoint
 10
32.11793042656417
 20
19.06620110774958
 30
0.0
  0
POINT
  5
903
330
8ED
100
AcDbEntity
  8
Defpoints
 62
     0
440
 16777216
100
AcDbPoint
 10
29.61593042656418
 20
31.81620110774959
 30
0.0
  0
POINT
  5
904
330
8ED
100
AcDbEntity
  8
Defpoints
 62
     0
440
 16777216
100
AcDbPoint
 10
35.81416693318946
 20
31.81620110774959
 30
0.0
  0
ENDBLK
  5
8F9
330
8ED
100
AcDbEntity
  8
0
100
AcDbBlockEnd
  0
BLOCK
  5
912
330
907
100
AcDbEntity
  8
0
100
AcDbBlockBegin
  2
*D8
 70
     1
 10
0.0
 20
0.0
 30
0.0
  3
*D8
  1

  0
LINE
  5
A57
330
907
100
AcDbEntity
  8
DIM
 62
     0
440
 16777216
370
    -2
100
AcDbLine
 10
32.36793042656417
 20
19.06620110774958
 30
0.0
 11
34.78678864718607
 21
19.06620110774958
 31
0.0
  0
LINE
  5
A58
330
907
100
AcDbEntity
  8
DIM
 62
     0
440
 16777216
370
    -2
100
AcDbLine
 10
32.24293042656417
 20
30.06620110774959
 30
0.0
 11
34.78678864718607
 21
30.06620110774959
 31
0.0
  0
LINE
  5
A59
330
907
100
AcDbEntity
  8
DIM
 62
     0
440
 16777216
370
    -2
100
AcDbLine
 10
34.42678864718607
 20
19.42620110774958
 30
0.0
 11
34.42678864718607
 21
24.20620110774958
 31
0.0
  0
LINE
  5
A5A
330
907
100
AcDbEntity
  8
DIM
 62
     0
440
 16777216
370
    -2
100
AcDbLine
 10
34.42678864718607
 20
29.70620110774959
 30
0.0
 11
34.42678864718607
 21
24.92620110774959
 31
0.0
  0
SOLID
  5
A5B
330
907
100
AcDbEntity
  8
DIM
 62
     0
440
 16777216
100
AcDbTrace
 10
34.36678864718607
 20
19.42620110774958
 30
0.0
 11
34.48678864718607
 21
19.42620110774958
 31
0.0
 12
34.42678864718607
 22
19.06620110774958
 32
0.0
 13
34.42678864718607
 23
19.06620110774958
 33
0.0
  0
SOLID
  5
A5C
330
907
100
AcDbEntity
  8
DIM
 62
     0
440
 16777216
100
AcDbTrace
 10
34.36678864718607
 20
29.70620110774959
 30
0.0
 11
34.48678864718607
 21
29.70620110774959
 31
0.0
 12
34.42678864718607
 22
30.06620110774959
 32
0.0
 13
34.42678864718607
 23
30.06620110774959
 33
0.0
  0
MTEXT
  5
A5D
330
907
100
AcDbEntity
  8
DIM
 62
     0
440
 16777216
100
AcDbMText
 10
34.42678864718607
 20
24.56620110774959
 30
0.0
 40
0.36
 41
0.0
 46
0.0
 71
     5
 72
     1
  1
\A1;11.00
 73
     1
 44
1.0
  0
POINT
  5
A5E
330
907
100
AcDbEntity
  8
Defpoints
 62
     0
440
 16777216
100
AcDbPoint
 10
32.24293042656417
 20
19.06620110774958
 30
0.0
  0
POINT
  5
A5F
330
907
100
AcDbEntity
  8
Defpoints
 62
     0
440
 16777216
100
AcDbPoint
 10
32.11793042656417
 20
30.06620110774959
 30
0.0
  0
POINT
  5
A60
330
907
100
AcDbEntity
  8
Defpoints
 62
     0
440
 16777216
100
AcDbPoint
 10
34.42678864718607
 20
30.06620110774959
 30
0.0
  0
ENDBLK
  5
913
330
907
100
AcDbEntity
  8
0
100
AcDbBlockEnd
  0
BLOCK
  5
92C
330
921
100
AcDbEntity
  8
0
100
AcDbBlockBegin
  2
*D9
 70
     1
 10
0.0
 20
0.0
 30
0.0
  3
*D9
  1

  0
LINE
  5
ADD
330
921
100
AcDbEntity
  8
DIM
 62
     0
440
 16777216
370
    -2
100
AcDbLine
 10
32.24293042656417
 20
8.218854585811861
 30
0.0
 11
36.32715186730381
 21
8.218854585811859
 31
0.0
  0
LINE
  5
ADE
330
921
100
AcDbEntity
  8
DIM
 62
     0
440
 16777216
370
    -2
100
AcDbLine
 10
32.24293042656417
 20
14.21885458581186
 30
0.0
 11
36.32715186730381
 21
14.21885458581186
 31
0.0
  0
LINE
  5
ADF
330
921
100
AcDbEntity
  8
DIM
 62
     0
440
 16777216
370
    -2
100
AcDbLine
 10
35.96715186730381
 20
8.57885458581186
 30
0.0
 11
35.96715186730381
 21
10.85885458581186
 31
0.0
  0
LINE
  5
AE0
330
921
100
AcDbEntity
  8
DIM
 62
     0
440
 16777216
370
    -2
100
AcDbLine
 10
35.96715186730381
 20
13.85885458581186
 30
0.0
 11
35.96715186730381
 21
11.57885458581186
 31
0.0
  0
SOLID
  5
AE1
330
921
100
AcDbEntity
  8
DIM
 62
     0
440
 16777216
100
AcDbTrace
 10
35.90715186730381
 20
8.57885458581186
 30
0.0
 11
36.02715186730382
 21
8.578854585811859
 31
0.0
 12
35.96715186730381
 22
8.218854585811861
 32
0.0
 13
35.96715186730381
 23
8.218854585811861
 33
0.0
  0
SOLID
  5
AE2
330
921
100
AcDbEntity
  8
DIM
 62
     0
440
 16777216
100
AcDbTrace
 10
35.90715186730381
 20
13.85885458581186
 30
0.0
 11
36.02715186730382
 21
13.85885458581186
 31
0.0
 12
35.96715186730381
 22
14.21885458581186
 32
0.0
 13
35.96715186730381
 23
14.21885458581186
 33
0.0
  0
MTEXT
  5
AE3
330
921
100
AcDbEntity
  8
DIM
 62
     0
440
 16777216
100
AcDbMText
 10
35.96715186730381
 20
11.21885458581187
 30
0.0
 40
0.36
 41
0.0
 46
0.0
 71
     5
 72
     1
  1
\A1;6.00
 73
     1
 44
1.0
  0
POINT
  5
AE4
330
921
100
AcDbEntity
  8
Defpoints
 62
     0
440
 16777216
100
AcDbPoint
 10
32.11793042656417
 20
8.218854585811861
 30
0.0
  0
POINT
  5
AE5
330
921
100
AcDbEntity
  8
Defpoints
 62
     0
440
 16777216
100
AcDbPoint
 10
32.11793042656417
 20
14.21885458581186
 30
0.0
  0
POINT
  5
AE6
330
921
100
AcDbEntity
  8
Defpoints
 62
     0
440
 16777216
100
AcDbPoint
 10
35.96715186730381
 20
14.21885458581186
 30
0.0
  0
ENDBLK
  5
92D
330
921
100
AcDbEntity
  8
0
100
AcDbBlockEnd
  0
BLOCK
  5
946
330
93B
100
AcDbEntity
  8
0
100
AcDbBlockBegin
  2
*D10
 70
     1
 10
0.0
 20
0.0
 30
0.0
  3
*D10
  1

  0
LINE
  5
AE7
330
93B
100
AcDbEntity
  8
DIM
 62
     0
440
 16777216
370
    -2
100
AcDbLine
 10
6.242930426564171
 20
7.709312964919231
 30
0.0
 11
6.242930426564171
 21
6.599455255253033
 31
0.0
  0
LINE
  5
AE8
330
93B
100
AcDbEntity
  8
DIM
 62
     0
440
 16777216
370
    -2
100
AcDbLine
 10
31.49293042656417
 20
7.709312964919231
 30
0.0
 11
31.49293042656417
 21
6.599455255253033
 31
0.0
  0
LINE
  5
AE9
330
93B
100
AcDbEntity
  8
DIM
 62
     0
440
 16777216
370
    -2
100
AcDbLine
 10
6.602930426564172
 20
6.959455255253033
 30
0.0
 11
17.96793042656417
 21
6.959455255253033
 31
0.0
  0
LINE
  5
AEA
330
93B
100
AcDbEntity
  8
DIM
 62
     0
440
 16777216
370
    -2
100
AcDbLine
 10
31.13293042656418
 20
6.959455255253033
 30
0.0
 11
19.76793042656417
 21
6.959455255253033
 31
0.0
  0
SOLID
  5
AEB
330
93B
100
AcDbEntity
  8
DIM
 62
     0
440
 16777216
100
AcDbTrace
 10
6.602930426564172
 20
7.019455255253032
 30
0.0
 11
6.602930426564172
 21
6.899455255253033
 31
0.0
 12
6.242930426564171
 22
6.959455255253033
 32
0.0
 13
6.242930426564171
 23
6.959455255253033
 33
0.0
  0
SOLID
  5
AEC
330
93B
100
AcDbEntity
  8
DIM
 62
     0
440
 16777216
100
AcDbTrace
 10
31.13293042656418
 20
7.019455255253032
 30
0.0
 11
31.13293042656418
 21
6.899455255253033
 31
0.0
 12
31.49293042656417
 22
6.959455255253033
 32
0.0
 13
31.49293042656417
 23
6.959455255253033
 33
0.0
  0
MTEXT
  5
AED
330
93B
100
AcDbEntity
  8
DIM
 62
     0
440
 16777216
100
AcDbMText
 10
18.86793042656417
 20
6.959455255253033
 30
0.0
 40
0.36
 41
0.0
 46
0.0
 71
     5
 72
     1
  1
\A1;25.25
 73
     1
 44
1.0
  0
POINT
  5
AEE
330
93B
100
AcDbEntity
  8
Defpoints
 62
     0
440
 16777216
100
AcDbPoint
 10
6.242930426564171
 20
7.834312964919231
 30
0.0
  0
POINT
  5
AEF
330
93B
100
AcDbEntity
  8
Defpoints
 62
     0
440
 16777216
100
AcDbPoint
 10
31.49293042656417
 20
7.834312964919231
 30
0.0
  0
POINT
  5
AF0
330
93B
100
AcDbEntity
  8
Defpoints
 62
     0
440
 16777216
100
AcDbPoint
 10
31.49293042656417
 20
6.959455255253033
 30
0.0
  0
ENDBLK
  5
947
330
93B
100
AcDbEntity
  8
0
100
AcDbBlockEnd
  0
BLOCK
  5
97A
330
96F
100
AcDbEntity
  8
0
100
AcDbBlockBegin
  2
*D11
 70
     1
 10
0.0
 20
0.0
 30
0.0
  3
*D11
  1

  0
LINE
  5
AF1
330
96F
100
AcDbEntity
  8
DIM
 62
     0
440
 16777216
370
    -2
100
AcDbLine
 10
5.617930426564171
 20
8.093854585811861
 30
0.0
 11
5.617930426564171
 21
5.223831595838305
 31
0.0
  0
LINE
  5
AF2
330
96F
100
AcDbEntity
  8
DIM
 62
     0
440
 16777216
370
    -2
100
AcDbLine
 10
32.11793042656417
 20
8.093854585811861
 30
0.0
 11
32.11793042656417
 21
5.223831595838305
 31
0.0
  0
LINE
  5
AF3
330
96F
100
AcDbEntity
  8
DIM
 62
     0
440
 16777216
370
    -2
100
AcDbLine
 10
5.977930426564172
 20
5.583831595838304
 30
0.0
 11
17.99793042656417
 21
5.583831595838304
 31
0.0
  0
LINE
  5
AF4
330
96F
100
AcDbEntity
  8
DIM
 62
     0
440
 16777216
370
    -2
100
AcDbLine
 10
31.75793042656418
 20
5.583831595838304
 30
0.0
 11
19.73793042656417
 21
5.583831595838304
 31
0.0
  0
SOLID
  5
AF5
330
96F
100
AcDbEntity
  8
DIM
 62
     0
440
 16777216
100
AcDbTrace
 10
5.977930426564172
 20
5.643831595838304
 30
0.0
 11
5.977930426564172
 21
5.523831595838305
 31
0.0
 12
5.617930426564171
 22
5.583831595838304
 32
0.0
 13
5.617930426564171
 23
5.583831595838304
 33
0.0
  0
SOLID
  5
AF6
330
96F
100
AcDbEntity
  8
DIM
 62
     0
440
 16777216
100
AcDbTrace
 10
31.75793042656418
 20
5.643831595838304
 30
0.0
 11
31.75793042656418
 21
5.523831595838305
 31
0.0
 12
32.11793042656417
 22
5.583831595838304
 32
0.0
 13
32.11793042656417
 23
5.583831595838304
 33
0.0
  0
MTEXT
  5
AF7
330
96F
100
AcDbEntity
  8
DIM
 62
     0
440
 16777216
100
AcDbMText
 10
18.86793042656417
 20
5.583831595838304
 30
0.0
 40
0.36
 41
0.0
 46
0.0
 71
     5
 72
     1
  1
\A1;26.50
 73
     1
 44
1.0
  0
POINT
  5
AF8
330
96F
100
AcDbEntity
  8
Defpoints
 62
     0
440
 16777216
100
AcDbPoint
 10
5.617930426564171
 20
8.218854585811861
 30
0.0
  0
POINT
  5
AF9
330
96F
100
AcDbEntity
  8
Defpoints
 62
     0
440
 16777216
100
AcDbPoint
 10
32.11793042656417
 20
8.218854585811861
 30
0.0
  0
POINT
  5
AFA
330
96F
100
AcDbEntity
  8
Defpoints
 62
     0
440
 16777216
100
AcDbPoint
 10
32.11793042656417
 20
5.583831595838304
 30
0.0
  0
ENDBLK
  5
97B
330
96F
100
AcDbEntity
  8
0
100
AcDbBlockEnd
  0
BLOCK
  5
994
330
989
100
AcDbEntity
  8
0
100
AcDbBlockBegin
  2
*D12
 70
     1
 10
0.0
 20
0.0
 30
0.0
  3
*D12
  1

  0
LINE
  5
AFB
330
989
100
AcDbEntity
  8
DIM
 62
     0
440
 16777216
370
    -2
100
AcDbLine
 10
31.49293042656417
 20
8.394968068800094
 30
0.0
 11
31.49293042656417
 21
6.605369040979311
 31
0.0
  0
LINE
  5
AFC
330
989
100
AcDbEntity
  8
DIM
 62
     0
440
 16777216
370
    -2
100
AcDbLine
 10
32.11793042656417
 20
8.093854585811861
 30
0.0
 11
32.11793042656417
 21
6.605369040979311
 31
0.0
  0
LINE
  5
AFD
330
989
100
AcDbEntity
  8
DIM
 62
     0
440
 16777216
370
    -2
100
AcDbLine
 10
31.13293042656418
 20
6.965369040979311
 30
0.0
 11
30.77293042656418
 21
6.965369040979311
 31
0.0
  0
LINE
  5
AFE
330
989
100
AcDbEntity
  8
DIM
 62
     0
440
 16777216
370
    -2
100
AcDbLine
 10
32.47793042656417
 20
6.965369040979311
 30
0.0
 11
32.83793042656417
 21
6.965369040979311
 31
0.0
  0
SOLID
  5
AFF
330
989
100
AcDbEntity
  8
DIM
 62
     0
440
 16777216
100
AcDbTrace
 10
31.13293042656418
 20
7.025369040979311
 30
0.0
 11
31.13293042656418
 21
6.905369040979311
 31
0.0
 12
31.49293042656417
 22
6.965369040979311
 32
0.0
 13
31.49293042656417
 23
6.965369040979311
 33
0.0
  0
SOLID
  5
B00
330
989
100
AcDbEntity
  8
DIM
 62
     0
440
 16777216
100
AcDbTrace
 10
32.47793042656417
 20
7.025369040979311
 30
0.0
 11
32.47793042656417
 21
6.905369040979311
 31
0.0
 12
32.11793042656417
 22
6.965369040979311
 32
0.0
 13
32.11793042656417
 23
6.965369040979311
 33
0.0
  0
MTEXT
  5
B01
330
989
100
AcDbEntity
  8
DIM
 62
     0
440
 16777216
100
AcDbMText
 10
33.37793042656417
 20
6.965369040979311
 30
0.0
 40
0.36
 41
0.0
 46
0.0
 71
     5
 72
     1
  1
\A1;.63
 73
     1
 44
1.0
  0
POINT
  5
B02
330
989
100
AcDbEntity
  8
Defpoints
 62
     0
440
 16777216
100
AcDbPoint
 10
31.49293042656417
 20
8.519968068800094
 30
0.0
  0
POINT
  5
B03
330
989
100
AcDbEntity
  8
Defpoints
 62
     0
440
 16777216
100
AcDbPoint
 10
32.11793042656417
 20
8.218854585811861
 30
0.0
  0
POINT
  5
B04
330
989
100
AcDbEntity
  8
Defpoints
 62
     0
440
 16777216
100
AcDbPoint
 10
32.11793042656417
 20
6.965369040979311
 30
0.0
  0
ENDBLK
  5
995
330
989
100
AcDbEntity
  8
0
100
AcDbBlockEnd
  0
BLOCK
  5
A6D
330
A62
100
AcDbEntity
  8
0
100
AcDbBlockBegin
  2
*D13
 70
     1
 10
0.0
 20
0.0
 30
0.0
  3
*D13
  1

  0
LINE
  5
A70
330
A62
100
AcDbEntity
  8
DIM
 62
     0
440
 16777216
370
    -2
100
AcDbLine
 10
31.69293042656417
 20
21.56620110774959
 30
0.0
 11
33.54095620482765
 21
21.56620110774959
 31
0.0
  0
LINE
  5
A71
330
A62
100
AcDbEntity
  8
DIM
 62
     0
440
 16777216
370
    -2
100
AcDbLine
 10
32.24293042656417
 20
19.06620110774958
 30
0.0
 11
33.54095620482765
 21
19.06620110774958
 31
0.0
  0
LINE
  5
A72
330
A62
100
AcDbEntity
  8
DIM
 62
     0
440
 16777216
370
    -2
100
AcDbLine
 10
33.18095620482765
 20
21.20620110774959
 30
0.0
 11
33.18095620482765
 21
20.67620110774958
 31
0.0
  0
LINE
  5
A73
330
A62
100
AcDbEntity
  8
DIM
 62
     0
440
 16777216
370
    -2
100
AcDbLine
 10
33.18095620482765
 20
19.42620110774958
 30
0.0
 11
33.18095620482765
 21
19.95620110774958
 31
0.0
  0
SOLID
  5
A74
330
A62
100
AcDbEntity
  8
DIM
 62
     0
440
 16777216
100
AcDbTrace
 10
33.12095620482765
 20
21.20620110774959
 30
0.0
 11
33.24095620482765
 21
21.20620110774959
 31
0.0
 12
33.18095620482765
 22
21.56620110774959
 32
0.0
 13
33.18095620482765
 23
21.56620110774959
 33
0.0
  0
SOLID
  5
A75
330
A62
100
AcDbEntity
  8
DIM
 62
     0
440
 16777216
100
AcDbTrace
 10
33.12095620482765
 20
19.42620110774958
 30
0.0
 11
33.24095620482765
 21
19.42620110774958
 31
0.0
 12
33.18095620482765
 22
19.06620110774958
 32
0.0
 13
33.18095620482765
 23
19.06620110774958
 33
0.0
  0
MTEXT
  5
A76
330
A62
100
AcDbEntity
  8
DIM
 62
     0
440
 16777216
100
AcDbMText
 10
33.18095620482765
 20
20.31620110774959
 30
0.0
 40
0.36
 41
0.0
 46
0.0
 71
     5
 72
     1
  1
\A1;2.50
 73
     1
 44
1.0
  0
POINT
  5
A77
330
A62
100
AcDbEntity
  8
Defpoints
 62
     0
440
 16777216
100
AcDbPoint
 10
31.56793042656417
 20
21.56620110774959
 30
0.0
  0
POINT
  5
A78
330
A62
100
AcDbEntity
  8
Defpoints
 62
     0
440
 16777216
100
AcDbPoint
 10
32.11793042656417
 20
19.06620110774958
 30
0.0
  0
POINT
  5
A79
330
A62
100
AcDbEntity
  8
Defpoints
 62
     0
440
 16777216
100
AcDbPoint
 10
33.18095620482765
 20
19.06620110774958
 30
0.0
  0
ENDBLK
  5
A6E
330
A62
100
AcDbEntity
  8
0
100
AcDbBlockEnd
  0
BLOCK
  5
AA1
330
A96
100
AcDbEntity
  8
0
100
AcDbBlockBegin
  2
*D14
 70
     1
 10
0.0
 20
0.0
 30
0.0
  3
*D14
  1

  0
LINE
  5
AA4
330
A96
100
AcDbEntity
  8
DIM
 62
     0
440
 16777216
370
    -2
100
AcDbLine
 10
31.69293042656417
 20
21.56620110774959
 30
0.0
 11
33.54095620482765
 21
21.56620110774959
 31
0.0
  0
LINE
  5
AA5
330
A96
100
AcDbEntity
  8
DIM
 62
     0
440
 16777216
370
    -2
100
AcDbLine
 10
31.69293042656417
 20
24.56620110774959
 30
0.0
 11
33.54095620482765
 21
24.56620110774959
 31
0.0
  0
LINE
  5
AA6
330
A96
100
AcDbEntity
  8
DIM
 62
     0
440
 16777216
370
    -2
100
AcDbLine
 10
33.18095620482765
 20
21.92620110774958
 30
0.0
 11
33.18095620482765
 21
22.70620110774959
 31
0.0
  0
LINE
  5
AA7
330
A96
100
AcDbEntity
  8
DIM
 62
     0
440
 16777216
370
    -2
100
AcDbLine
 10
33.18095620482765
 20
24.20620110774958
 30
0.0
 11
33.18095620482765
 21
23.42620110774959
 31
0.0
  0
SOLID
  5
AA8
330
A96
100
AcDbEntity
  8
DIM
 62
     0
440
 16777216
100
AcDbTrace
 10
33.12095620482765
 20
21.92620110774958
 30
0.0
 11
33.24095620482765
 21
21.92620110774958
 31
0.0
 12
33.18095620482765
 22
21.56620110774959
 32
0.0
 13
33.18095620482765
 23
21.56620110774959
 33
0.0
  0
SOLID
  5
AA9
330
A96
100
AcDbEntity
  8
DIM
 62
     0
440
 16777216
100
AcDbTrace
 10
33.12095620482765
 20
24.20620110774958
 30
0.0
 11
33.24095620482765
 21
24.20620110774958
 31
0.0
 12
33.18095620482765
 22
24.56620110774959
 32
0.0
 13
33.18095620482765
 23
24.56620110774959
 33
0.0
  0
MTEXT
  5
AAA
330
A96
100
AcDbEntity
  8
DIM
 62
     0
440
 16777216
100
AcDbMText
 10
33.18095620482765
 20
23.06620110774959
 30
0.0
 40
0.36
 41
0.0
 46
0.0
 71
     5
 72
     1
  1
\A1;3.00
 73
     1
 44
1.0
  0
POINT
  5
AAB
330
A96
100
AcDbEntity
  8
Defpoints
 62
     0
440
 16777216
100
AcDbPoint
 10
31.56793042656417
 20
21.56620110774959
 30
0.0
  0
POINT
  5
AAC
330
A96
100
AcDbEntity
  8
Defpoints
 62
     0
440
 16777216
100
AcDbPoint
 10
31.56793042656417
 20
24.56620110774959
 30
0.0
  0
POINT
  5
AAD
330
A96
100
AcDbEntity
  8
Defpoints
 62
     0
440
 16777216
100
AcDbPoint
 10
33.18095620482765
 20
24.56620110774959
 30
0.0
  0
ENDBLK
  5
AA2
330
A96
100
AcDbEntity
  8
0
100
AcDbBlockEnd
  0
BLOCK
  5
ABB
330
AB0
100
AcDbEntity
  8
0
100
AcDbBlockBegin
  2
*D15
 70
     1
 10
0.0
 20
0.0
 30
0.0
  3
*D15
  1

  0
LINE
  5
ABE
330
AB0
100
AcDbEntity
  8
DIM
 62
     0
440
 16777216
370
    -2
100
AcDbLine
 10
31.69293042656417
 20
24.56620110774959
 30
0.0
 11
33.54095620482765
 21
24.56620110774959
 31
0.0
  0
LINE
  5
ABF
330
AB0
100
AcDbEntity
  8
DIM
 62
     0
440
 16777216
370
    -2
100
AcDbLine
 10
31.69293042656417
 20
27.56620110774959
 30
0.0
 11
33.54095620482765
 21
27.56620110774959
 31
0.0
  0
LINE
  5
AC0
330
AB0
100
AcDbEntity
  8
DIM
 62
     0
440
 16777216
370
    -2
100
AcDbLine
 10
33.18095620482765
 20
24.92620110774959
 30
0.0
 11
33.18095620482765
 21
25.70620110774959
 31
0.0
  0
LINE
  5
AC1
330
AB0
100
AcDbEntity
  8
DIM
 62
     0
440
 16777216
370
    -2
100
AcDbLine
 10
33.18095620482765
 20
27.20620110774959
 30
0.0
 11
33.18095620482765
 21
26.42620110774958
 31
0.0
  0
SOLID
  5
AC2
330
AB0
100
AcDbEntity
  8
DIM
 62
     0
440
 16777216
100
AcDbTrace
 10
33.12095620482765
 20
24.92620110774959
 30
0.0
 11
33.24095620482765
 21
24.92620110774959
 31
0.0
 12
33.18095620482765
 22
24.56620110774959
 32
0.0
 13
33.18095620482765
 23
24.56620110774959
 33
0.0
  0
SOLID
  5
AC3
330
AB0
100
AcDbEntity
  8
DIM
 62
     0
440
 16777216
100
AcDbTrace
 10
33.12095620482765
 20
27.20620110774959
 30
0.0
 11
33.24095620482765
 21
27.20620110774959
 31
0.0
 12
33.18095620482765
 22
27.56620110774959
 32
0.0
 13
33.18095620482765
 23
27.56620110774959
 33
0.0
  0
MTEXT
  5
AC4
330
AB0
100
AcDbEntity
  8
DIM
 62
     0
440
 16777216
100
AcDbMText
 10
33.18095620482765
 20
26.06620110774959
 30
0.0
 40
0.36
 41
0.0
 46
0.0
 71
     5
 72
     1
  1
\A1;3.00
 73
     1
 44
1.0
  0
POINT
  5
AC5
330
AB0
100
AcDbEntity
  8
Defpoints
 62
     0
440
 16777216
100
AcDbPoint
 10
31.56793042656417
 20
24.56620110774959
 30
0.0
  0
POINT
  5
AC6
330
AB0
100
AcDbEntity
  8
Defpoints
 62
     0
440
 16777216
100
AcDbPoint
 10
31.56793042656417
 20
27.56620110774959
 30
0.0
  0
POINT
  5
AC7
330
AB0
100
AcDbEntity
  8
Defpoints
 62
     0
440
 16777216
100
AcDbPoint
 10
33.18095620482765
 20
27.56620110774959
 30
0.0
  0
ENDBLK
  5
ABC
330
AB0
100
AcDbEntity
  8
0
100
AcDbBlockEnd
  0
ENDSEC
  0
SECTION
  2
ENTITIES
  0
LINE
  5
5FA
330
1F
100
AcDbEntity
  8
BORDER
 62
     7
100
AcDbLine
 10
38.04752180790731
 20
8.218854585811861
 30
0.0
 11
49.04752180790731
 21
8.218854585811861
 31
0.0
  0
LINE
  5
5FB
330
1F
100
AcDbEntity
  8
BORDER
 62
     7
100
AcDbLine
 10
50.7975218079073
 20
10.68942841037167
 30
0.0
 11
50.7975218079073
 21
14.21885458581186
 31
0.0
  0
LINE
  5
5FC
102
{ACAD_REACTORS
330
8C7
330
8EB
102
}
330
1F
100
AcDbEntity
  8
BORDER
 62
     7
100
AcDbLine
 10
50.7975218079073
 20
14.21885458581186
 30
0.0
 11
38.04752180790731
 21
14.21885458581186
 31
0.0
  0
LINE
  5
5FD
102
{ACAD_REACTORS
330
8EB
102
}
330
1F
100
AcDbEntity
  8
BORDER
 62
     7
100
AcDbLine
 10
38.04752180790731
 20
14.21885458581186
 30
0.0
 11
38.04752180790731
 21
8.218854585811861
 31
0.0
  0
LINE
  5
5FE
330
1F
100
AcDbEntity
  8
BORDER
 62
     7
100
AcDbLine
 10
49.04752180790731
 20
14.21885458581186
 30
0.0
 11
49.04752180790731
 21
8.218854585811861
 31
0.0
  0
LINE
  5
5FF
102
{ACAD_REACTORS
330
8C7
102
}
330
1F
100
AcDbEntity
  8
BORDER
 62
     7
100
AcDbLine
 10
49.04752180790731
 20
14.11885458581186
 30
0.0
 11
38.04752180790731
 21
14.11885458581186
 31
0.0
  0
LINE
  5
600
330
1F
100
AcDbEntity
  8
BORDER
 62
     7
100
AcDbLine
 10
38.04752180790731
 20
8.318854585811861
 30
0.0
 11
49.04752180790731
 21
8.318854585811861
 31
0.0
  0
LINE
  5
601
102
{ACAD_REACTORS
330
939
102
}
330
1F
100
AcDbEntity
  8
BORDER
 62
     7
100
AcDbLine
 10
32.11793042656417
 20
14.21885458581186
 30
0.0
 11
31.01793042656417
 21
14.21885458581186
 31
0.0
  0
LINE
  5
602
102
{ACAD_REACTORS
330
987
102
}
330
1F
100
AcDbEntity
  8
BORDER
 62
     7
100
AcDbLine
 10
5.617930426564171
 20
8.218854585811861
 30
0.0
 11
6.717930426564173
 21
8.218854585811861
 31
0.0
  0
LINE
  5
603
330
1F
100
AcDbEntity
  8
BORDER
 62
     7
100
AcDbLine
 10
32.11793042656417
 20
14.21885458581186
 30
0.0
 11
32.11793042656417
 21
14.11885458581186
 31
0.0
  0
LINE
  5
604
330
1F
100
AcDbEntity
  8
BORDER
 62
     7
100
AcDbLine
 10
5.617930426564171
 20
14.21885458581186
 30
0.0
 11
5.617930426564171
 21
14.11885458581186
 31
0.0
  0
LINE
  5
605
330
1F
100
AcDbEntity
  8
BORDER
 62
     7
100
AcDbLine
 10
31.01793042656417
 20
14.21885458581186
 30
0.0
 11
31.01793042656418
 21
8.218854585811861
 31
0.0
  0
LINE
  5
606
330
1F
100
AcDbEntity
  8
BORDER
 62
     7
100
AcDbLine
 10
6.717930426564173
 20
14.21885458581186
 30
0.0
 11
6.717930426564173
 21
8.218854585811861
 31
0.0
  0
LINE
  5
607
330
1F
100
AcDbEntity
  8
BORDER
 62
     7
100
AcDbLine
 10
32.11793042656417
 20
14.11885458581186
 30
0.0
 11
31.11793042656417
 21
14.11885458581186
 31
0.0
  0
LINE
  5
608
330
1F
100
AcDbEntity
  8
BORDER
 62
     7
100
AcDbLine
 10
31.11793042656417
 20
14.11885458581186
 30
0.0
 11
31.11793042656417
 21
8.318854585811859
 31
0.0
  0
LINE
  5
609
330
1F
100
AcDbEntity
  8
BORDER
 62
     7
100
AcDbLine
 10
6.617930426564171
 20
14.11885458581186
 30
0.0
 11
6.617930426564171
 21
8.318854585811862
 31
0.0
  0
LINE
  5
60A
330
1F
100
AcDbEntity
  8
BORDER
 62
     7
100
AcDbLine
 10
5.617930426564171
 20
8.318854585811859
 30
0.0
 11
6.617930426564171
 21
8.318854585811862
 31
0.0
  0
LINE
  5
60B
330
1F
100
AcDbEntity
  8
BORDER
 62
     7
100
AcDbLine
 10
6.617930426564171
 20
14.11885458581186
 30
0.0
 11
5.617930426564171
 21
14.11885458581186
 31
0.0
  0
LINE
  5
60C
330
1F
100
AcDbEntity
  8
BORDER
 62
     7
100
AcDbLine
 10
6.717930426564173
 20
14.21885458581186
 30
0.0
 11
5.617930426564171
 21
14.21885458581186
 31
0.0
  0
LINE
  5
60D
330
1F
100
AcDbEntity
  8
BORDER
 62
     7
100
AcDbLine
 10
31.11793042656417
 20
8.318854585811859
 30
0.0
 11
32.11793042656417
 21
8.318854585811861
 31
0.0
  0
LINE
  5
60E
330
1F
100
AcDbEntity
  8
BORDER
 62
     7
100
AcDbLine
 10
31.01793042656418
 20
8.218854585811861
 30
0.0
 11
32.11793042656417
 21
8.218854585811861
 31
0.0
  0
LINE
  5
610
330
1F
100
AcDbEntity
  8
BORDER
 62
     7
100
AcDbLine
 10
5.617930426564171
 20
8.318854585811859
 30
0.0
 11
5.617930426564171
 21
8.218854585811861
 31
0.0
  0
LINE
  5
611
102
{ACAD_REACTORS
330
939
330
987
330
9A1
102
}
330
1F
100
AcDbEntity
  8
BORDER
 62
     7
100
AcDbLine
 10
32.11793042656417
 20
8.318854585811861
 30
0.0
 11
32.11793042656417
 21
8.218854585811861
 31
0.0
  0
LINE
  5
612
330
1F
100
AcDbEntity
  8
BORDER
 62
     7
100
AcDbLine
 10
29.61793042656417
 20
14.21173686217009
 30
0.0
 11
23.11793042656417
 21
14.21173686217009
 31
0.0
  0
LINE
  5
623
330
1F
100
AcDbEntity
  8
BORDER
 62
     7
100
AcDbLine
 10
8.117930426564171
 20
14.21173686217009
 30
0.0
 11
8.117930426564171
 21
10.56067156978643
 31
0.0
  0
LINE
  5
63F
330
1F
100
AcDbEntity
  8
BORDER
 62
     7
100
AcDbLine
 10
14.61793042656417
 20
14.21173686217009
 30
0.0
 11
14.61793042656417
 21
10.56067156978643
 31
0.0
  0
LINE
  5
640
330
1F
100
AcDbEntity
  8
BORDER
 62
     7
100
AcDbLine
 10
15.61793042656417
 20
14.21173686217009
 30
0.0
 11
15.61793042656417
 21
10.56067156978643
 31
0.0
  0
LINE
  5
641
330
1F
100
AcDbEntity
  8
BORDER
 62
     7
100
AcDbLine
 10
22.11793042656417
 20
14.21173686217009
 30
0.0
 11
22.11793042656417
 21
10.56067156978643
 31
0.0
  0
LINE
  5
642
330
1F
100
AcDbEntity
  8
BORDER
 62
     7
100
AcDbLine
 10
23.11793042656417
 20
14.21173686217009
 30
0.0
 11
23.11793042656417
 21
10.56067156978643
 31
0.0
  0
LINE
  5
643
330
1F
100
AcDbEntity
  8
BORDER
 62
     7
100
AcDbLine
 10
29.61793042656418
 20
14.21173686217009
 30
0.0
 11
29.61793042656417
 21
10.56067156978643
 31
0.0
  0
LINE
  5
644
330
1F
100
AcDbEntity
  8
BORDER
 62
     7
100
AcDbLine
 10
29.61793042656417
 20
10.56067156978643
 30
0.0
 11
23.11793042656417
 21
10.56067156978643
 31
0.0
  0
LINE
  5
68D
330
1F
100
AcDbEntity
  8
BORDER
 62
     7
100
AcDbLine
 10
31.01793042656417
 20
30.06620110774959
 30
0.0
 11
31.01793042656418
 21
19.06620110774958
 31
0.0
  0
LINE
  5
68E
102
{ACAD_REACTORS
330
91F
102
}
330
1F
100
AcDbEntity
  8
BORDER
 62
     7
100
AcDbLine
 10
32.11793042656417
 20
30.06620110774959
 30
0.0
 11
32.11793042656417
 21
19.06620110774958
 31
0.0
  0
LINE
  5
68F
330
1F
100
AcDbEntity
  8
BORDER
 62
     7
100
AcDbLine
 10
5.617930426564171
 20
30.06620110774959
 30
0.0
 11
5.617930426564171
 21
19.06620110774958
 31
0.0
  0
LINE
  5
690
330
1F
100
AcDbEntity
  8
BORDER
 62
     7
100
AcDbLine
 10
6.717930426564173
 20
30.06620110774959
 30
0.0
 11
6.717930426564173
 21
19.06620110774958
 31
0.0
  0
LINE
  5
691
330
1F
100
AcDbEntity
  8
BORDER
 62
     7
100
AcDbLine
 10
5.617930426564171
 20
30.06620110774959
 30
0.0
 11
6.717930426564173
 21
30.06620110774959
 31
0.0
  0
LINE
  5
692
330
1F
100
AcDbEntity
  8
BORDER
 62
     7
100
AcDbLine
 10
5.617930426564171
 20
19.06620110774958
 30
0.0
 11
6.717930426564173
 21
19.06620110774958
 31
0.0
  0
LINE
  5
693
102
{ACAD_REACTORS
330
905
330
A7A
102
}
330
1F
100
AcDbEntity
  8
BORDER
 62
     7
100
AcDbLine
 10
31.01793042656418
 20
19.06620110774958
 30
0.0
 11
32.11793042656417
 21
19.06620110774958
 31
0.0
  0
LINE
  5
694
330
1F
100
AcDbEntity
  8
BORDER
 62
     7
100
AcDbLine
 10
31.01793042656418
 20
30.06620110774959
 30
0.0
 11
32.11793042656417
 21
30.06620110774959
 31
0.0
  0
LINE
  5
695
330
1F
100
AcDbEntity
  8
HIDDEN
100
AcDbLine
 10
31.11793042656417
 20
30.06620110774959
 30
0.0
 11
31.11793042656416
 21
19.06620110774958
 31
0.0
  0
LINE
  5
696
330
1F
100
AcDbEntity
  8
HIDDEN
100
AcDbLine
 10
6.617930426564171
 20
30.06620110774959
 30
0.0
 11
6.617930426564171
 21
19.06620110774958
 31
0.0
  0
ARC
  5
6A1
330
1F
100
AcDbEntity
  8
BORDER
 62
     7
100
AcDbCircle
 10
31.44293042656417
 20
27.56620110774959
 30
0.0
 40
0.3125
100
AcDbArc
 50
90.0
 51
270.0
  0
ARC
  5
6A2
330
1F
100
AcDbEntity
  8
BORDER
 62
     7
100
AcDbCircle
 10
31.69293042656417
 20
27.56620110774959
 30
0.0
 40
0.3125
100
AcDbArc
 50
270.0
 51
90.0
  0
LWPOLYLINE
  5
6A3
330
1F
100
AcDbEntity
  8
BORDER
 62
     7
100
AcDbPolyline
 90
        2
 70
     0
 43
0.0
 10
31.44293042656417
 20
27.25370110774959
 10
31.69293042656417
 20
27.25370110774959
  0
LINE
  5
6A4
102
{ACAD_REACTORS
330
AC8
102
}
330
1F
100
AcDbEntity
  8
BORDER
 62
     7
100
AcDbLine
 10
31.56793042656417
 20
27.65450997568791
 30
0.0
 11
31.56793042656417
 21
27.47789232598678
 31
0.0
  0
LINE
  5
6A5
102
{ACAD_REACTORS
330
AC8
102
}
330
1F
100
AcDbEntity
  8
BORDER
 62
     7
100
AcDbLine
 10
31.69293042656417
 20
27.56620110774959
 30
0.0
 11
31.44293042656417
 21
27.56620110774959
 31
0.0
  0
LWPOLYLINE
  5
6A6
330
1F
100
AcDbEntity
  8
BORDER
 62
     7
100
AcDbPolyline
 90
        2
 70
     0
 43
0.0
 10
31.69293042656417
 20
27.87870110774959
 10
31.44293042656417
 20
27.87870110774959
  0
ARC
  5
6A7
330
1F
100
AcDbEntity
  8
BORDER
 62
     7
100
AcDbCircle
 10
31.69293042656417
 20
21.56620110774959
 30
0.0
 40
0.3125
100
AcDbArc
 50
270.0
 51
90.0
  0
ARC
  5
6A8
330
1F
100
AcDbEntity
  8
BORDER
 62
     7
100
AcDbCircle
 10
31.44293042656417
 20
21.56620110774959
 30
0.0
 40
0.3125
100
AcDbArc
 50
90.0
 51
270.0
  0
LWPOLYLINE
  5
6A9
330
1F
100
AcDbEntity
  8
BORDER
 62
     7
100
AcDbPolyline
 90
        2
 70
     0
 43
0.0
 10
31.44293042656417
 20
21.25370110774959
 10
31.69293042656417
 20
21.25370110774959
  0
LWPOLYLINE
  5
6AA
330
1F
100
AcDbEntity
  8
BORDER
 62
     7
100
AcDbPolyline
 90
        2
 70
     0
 43
0.0
 10
31.69293042656417
 20
21.87870110774959
 10
31.44293042656417
 20
21.87870110774959
  0
LINE
  5
6AB
102
{ACAD_REACTORS
330
A7A
330
AAE
102
}
330
1F
100
AcDbEntity
  8
BORDER
 62
     7
100
AcDbLine
 10
31.69293042656417
 20
21.56620110774959
 30
0.0
 11
31.44293042656417
 21
21.56620110774959
 31
0.0
  0
LINE
  5
6AC
102
{ACAD_REACTORS
330
A7A
330
AAE
102
}
330
1F
100
AcDbEntity
  8
BORDER
 62
     7
100
AcDbLine
 10
31.56793042656417
 20
21.65450997568791
 30
0.0
 11
31.56793042656417
 21
21.47789232598678
 31
0.0
  0
LINE
  5
6AD
330
1F
100
AcDbEntity
  8
BORDER
 62
     7
100
AcDbLine
 10
6.167930426564169
 20
21.65450997568791
 30
0.0
 11
6.167930426564169
 21
21.47789232598678
 31
0.0
  0
ARC
  5
6AE
330
1F
100
AcDbEntity
  8
BORDER
 62
     7
100
AcDbCircle
 10
6.292930426564169
 20
21.56620110774959
 30
0.0
 40
0.3125
100
AcDbArc
 50
270.0
 51
90.0
  0
ARC
  5
6AF
330
1F
100
AcDbEntity
  8
BORDER
 62
     7
100
AcDbCircle
 10
6.042930426564169
 20
21.56620110774959
 30
0.0
 40
0.3125
100
AcDbArc
 50
90.0
 51
270.0
  0
LINE
  5
6B0
330
1F
100
AcDbEntity
  8
BORDER
 62
     7
100
AcDbLine
 10
6.042930426564169
 20
21.56620110774959
 30
0.0
 11
6.292930426564169
 21
21.56620110774959
 31
0.0
  0
LWPOLYLINE
  5
6B1
330
1F
100
AcDbEntity
  8
BORDER
 62
     7
100
AcDbPolyline
 90
        2
 70
     0
 43
0.0
 10
6.292930426564172
 20
21.25370110774959
 10
6.042930426564172
 20
21.25370110774959
  0
LWPOLYLINE
  5
6B2
330
1F
100
AcDbEntity
  8
BORDER
 62
     7
100
AcDbPolyline
 90
        2
 70
     0
 43
0.0
 10
6.042930426564172
 20
21.87870110774959
 10
6.292930426564172
 20
21.87870110774959
  0
ARC
  5
6B3
330
1F
100
AcDbEntity
  8
BORDER
 62
     7
100
AcDbCircle
 10
6.042930426564169
 20
27.56620110774959
 30
0.0
 40
0.3125
100
AcDbArc
 50
90.0
 51
270.0
  0
ARC
  5
6B4
330
1F
100
AcDbEntity
  8
BORDER
 62
     7
100
AcDbCircle
 10
6.292930426564169
 20
27.56620110774959
 30
0.0
 40
0.3125
100
AcDbArc
 50
270.0
 51
90.0
  0
LWPOLYLINE
  5
6B5
330
1F
100
AcDbEntity
  8
BORDER
 62
     7
100
AcDbPolyline
 90
        2
 70
     0
 43
0.0
 10
6.292930426564172
 20
27.25370110774959
 10
6.042930426564172
 20
27.25370110774959
  0
LWPOLYLINE
  5
6B6
330
1F
100
AcDbEntity
  8
BORDER
 62
     7
100
AcDbPolyline
 90
        2
 70
     0
 43
0.0
 10
6.042930426564172
 20
27.87870110774959
 10
6.292930426564172
 20
27.87870110774959
  0
LINE
  5
6B7
330
1F
100
AcDbEntity
  8
BORDER
 62
     7
100
AcDbLine
 10
6.042930426564169
 20
27.56620110774959
 30
0.0
 11
6.292930426564169
 21
27.56620110774959
 31
0.0
  0
LINE
  5
6B8
330
1F
100
AcDbEntity
  8
BORDER
 62
     7
100
AcDbLine
 10
6.167930426564169
 20
27.65450997568791
 30
0.0
 11
6.167930426564169
 21
27.47789232598678
 31
0.0
  0
TEXT
  5
6BA
330
1F
100
AcDbEntity
  8
BORDER
 62
     7
100
AcDbText
 10
38.82365568030359
 20
3.358772646734418
 30
0.0
 40
0.3671640361002005
  1
ENG\MISC\WALLY\P13134RIBBONBANK
100
AcDbText
  0
LINE
  5
6CF
330
1F
100
AcDbEntity
  8
BORDER
 62
     7
100
AcDbLine
 10
22.11793042656417
 20
14.21173686217009
 30
0.0
 11
15.61793042656417
 21
14.21173686217009
 31
0.0
  0
LINE
  5
6D0
330
1F
100
AcDbEntity
  8
BORDER
 62
     7
100
AcDbLine
 10
22.11793042656417
 20
10.56067156978643
 30
0.0
 11
15.61793042656417
 21
10.56067156978643
 31
0.0
  0
LINE
  5
6D1
330
1F
100
AcDbEntity
  8
BORDER
 62
     7
100
AcDbLine
 10
14.61793042656417
 20
14.21173686217009
 30
0.0
 11
8.117930426564171
 21
14.21173686217009
 31
0.0
  0
LINE
  5
6D2
330
1F
100
AcDbEntity
  8
BORDER
 62
     7
100
AcDbLine
 10
14.61793042656417
 20
10.56067156978643
 30
0.0
 11
8.117930426564171
 21
10.56067156978643
 31
0.0
  0
LINE
  5
6D5
330
1F
100
AcDbEntity
  8
BORDER
 62
     7
100
AcDbLine
 10
23.11793042656417
 20
31.81620110774959
 30
0.0
 11
23.11793042656417
 21
19.42870506685565
 31
0.0
  0
LINE
  5
6F2
330
1F
100
AcDbEntity
  8
BORDER
 62
     7
100
AcDbLine
 10
23.83993042656417
 20
29.78889066187688
 30
0.0
 11
23.83993042656417
 21
19.42870506685565
 31
0.0
  0
ARC
  5
6F3
330
1F
100
AcDbEntity
  8
BORDER
 62
     7
100
AcDbCircle
 10
23.47893042656417
 20
19.42870506685565
 30
0.0
 40
0.3610000000000006
100
AcDbArc
 50
180.0
 51
0.0
  0
ARC
  5
70A
330
1F
100
AcDbEntity
  8
BORDER
 62
     7
100
AcDbCircle
 10
24.20093042656418
 20
29.78889066187688
 30
0.0
 40
0.3610000000000006
100
AcDbArc
 50
0.0
 51
180.0
  0
ARC
  5
70B
330
1F
100
AcDbEntity
  8
BORDER
 62
     7
100
AcDbCircle
 10
25.64493042656418
 20
29.78889066187687
 30
0.0
 40
0.3610000000000006
100
AcDbArc
 50
0.0
 51
180.0
  0
LINE
  5
70C
330
1F
100
AcDbEntity
  8
BORDER
 62
     7
100
AcDbLine
 10
25.28393042656418
 20
29.78889066187687
 30
0.0
 11
25.28393042656417
 21
19.42870506685565
 31
0.0
  0
ARC
  5
70D
330
1F
100
AcDbEntity
  8
BORDER
 62
     7
100
AcDbCircle
 10
24.92293042656417
 20
19.42870506685565
 30
0.0
 40
0.3610000000000006
100
AcDbArc
 50
180.0
 51
0.0
  0
LINE
  5
70E
330
1F
100
AcDbEntity
  8
BORDER
 62
     7
100
AcDbLine
 10
24.56193042656418
 20
29.78889066187688
 30
0.0
 11
24.56193042656417
 21
19.42870506685565
 31
0.0
  0
ARC
  5
70F
330
1F
100
AcDbEntity
  8
BORDER
 62
     7
100
AcDbCircle
 10
27.08893042656418
 20
29.78889066187687
 30
0.0
 40
0.3610000000000006
100
AcDbArc
 50
0.0
 51
180.0
  0
LINE
  5
710
330
1F
100
AcDbEntity
  8
BORDER
 62
     7
100
AcDbLine
 10
26.72793042656418
 20
29.78889066187687
 30
0.0
 11
26.72793042656417
 21
19.42870506685565
 31
0.0
  0
ARC
  5
711
330
1F
100
AcDbEntity
  8
BORDER
 62
     7
100
AcDbCircle
 10
26.36693042656418
 20
19.42870506685565
 30
0.0
 40
0.3610000000000006
100
AcDbArc
 50
180.0
 51
0.0
  0
LINE
  5
712
330
1F
100
AcDbEntity
  8
BORDER
 62
     7
100
AcDbLine
 10
26.00593042656418
 20
29.78889066187687
 30
0.0
 11
26.00593042656417
 21
19.42870506685565
 31
0.0
  0
ARC
  5
713
330
1F
100
AcDbEntity
  8
BORDER
 62
     7
100
AcDbCircle
 10
28.53293042656418
 20
29.78889066187687
 30
0.0
 40
0.3610000000000006
100
AcDbArc
 50
0.0
 51
180.0
  0
LINE
  5
714
330
1F
100
AcDbEntity
  8
BORDER
 62
     7
100
AcDbLine
 10
28.17193042656418
 20
29.78889066187687
 30
0.0
 11
28.17193042656418
 21
19.42870506685565
 31
0.0
  0
ARC
  5
715
330
1F
100
AcDbEntity
  8
BORDER
 62
     7
100
AcDbCircle
 10
27.81093042656418
 20
19.42870506685565
 30
0.0
 40
0.3610000000000006
100
AcDbArc
 50
180.0
 51
0.0
  0
LINE
  5
716
330
1F
100
AcDbEntity
  8
BORDER
 62
     7
100
AcDbLine
 10
27.44993042656418
 20
29.78889066187687
 30
0.0
 11
27.44993042656418
 21
19.42870506685565
 31
0.0
  0
LINE
  5
718
102
{ACAD_REACTORS
330
905
102
}
330
1F
100
AcDbEntity
  8
BORDER
 62
     7
100
AcDbLine
 10
29.61593042656418
 20
31.81620110774959
 30
0.0
 11
29.61593042656418
 21
19.42870506685565
 31
0.0
  0
ARC
  5
719
330
1F
100
AcDbEntity
  8
BORDER
 62
     7
100
AcDbCircle
 10
29.25493042656418
 20
19.42870506685565
 30
0.0
 40
0.3610000000000006
100
AcDbArc
 50
180.0
 51
0.0
  0
LINE
  5
71A
330
1F
100
AcDbEntity
  8
BORDER
 62
     7
100
AcDbLine
 10
28.89393042656418
 20
29.78889066187687
 30
0.0
 11
28.89393042656418
 21
19.42870506685565
 31
0.0
  0
LINE
  5
726
330
1F
100
AcDbEntity
  8
BORDER
 62
     7
100
AcDbLine
 10
29.74093042656418
 20
31.81620110774959
 30
0.0
 11
29.61593042656419
 21
31.81620110774959
 31
0.0
  0
LINE
  5
727
330
1F
100
AcDbEntity
  8
BORDER
 62
     7
100
AcDbLine
 10
29.74093042656418
 20
31.81620110774959
 30
0.0
 11
29.74093042656419
 21
29.26105820432746
 31
0.0
  0
LINE
  5
728
330
1F
100
AcDbEntity
  8
BORDER
 62
     7
100
AcDbLine
 10
22.99293042656417
 20
31.81620110774959
 30
0.0
 11
22.99293042656417
 21
29.26105820432746
 31
0.0
  0
LINE
  5
729
330
1F
100
AcDbEntity
  8
BORDER
 62
     7
100
AcDbLine
 10
29.74093042656419
 20
29.26105820432746
 30
0.0
 11
29.61593042656419
 21
29.26105820432746
 31
0.0
  0
LINE
  5
72A
330
1F
100
AcDbEntity
  8
BORDER
 62
     7
100
AcDbLine
 10
23.11793042656417
 20
31.81620110774959
 30
0.0
 11
22.99293042656417
 21
31.81620110774959
 31
0.0
  0
LINE
  5
72B
330
1F
100
AcDbEntity
  8
BORDER
 62
     7
100
AcDbLine
 10
23.11793042656416
 20
29.26105820432746
 30
0.0
 11
22.99293042656417
 21
29.26105820432746
 31
0.0
  0
LINE
  5
72C
330
1F
100
AcDbEntity
  8
BORDER
 62
     7
100
AcDbLine
 10
15.61793042656417
 20
31.81620110774959
 30
0.0
 11
15.61793042656417
 21
19.42870506685566
 31
0.0
  0
LINE
  5
72D
330
1F
100
AcDbEntity
  8
BORDER
 62
     7
100
AcDbLine
 10
22.11593042656418
 20
31.81620110774959
 30
0.0
 11
22.11593042656418
 21
19.42870506685566
 31
0.0
  0
LINE
  5
72E
330
1F
100
AcDbEntity
  8
BORDER
 62
     7
100
AcDbLine
 10
21.39393042656418
 20
29.78889066187688
 30
0.0
 11
21.39393042656418
 21
19.42870506685566
 31
0.0
  0
LINE
  5
72F
330
1F
100
AcDbEntity
  8
BORDER
 62
     7
100
AcDbLine
 10
19.94993042656418
 20
29.78889066187688
 30
0.0
 11
19.94993042656417
 21
19.42870506685566
 31
0.0
  0
LINE
  5
730
330
1F
100
AcDbEntity
  8
BORDER
 62
     7
100
AcDbLine
 10
20.67193042656418
 20
29.78889066187688
 30
0.0
 11
20.67193042656418
 21
19.42870506685566
 31
0.0
  0
LINE
  5
731
330
1F
100
AcDbEntity
  8
BORDER
 62
     7
100
AcDbLine
 10
18.50593042656418
 20
29.78889066187688
 30
0.0
 11
18.50593042656417
 21
19.42870506685566
 31
0.0
  0
LINE
  5
732
330
1F
100
AcDbEntity
  8
BORDER
 62
     7
100
AcDbLine
 10
19.22793042656418
 20
29.78889066187688
 30
0.0
 11
19.22793042656417
 21
19.42870506685566
 31
0.0
  0
LINE
  5
733
330
1F
100
AcDbEntity
  8
BORDER
 62
     7
100
AcDbLine
 10
17.06193042656417
 20
29.78889066187688
 30
0.0
 11
17.06193042656417
 21
19.42870506685566
 31
0.0
  0
LINE
  5
734
330
1F
100
AcDbEntity
  8
BORDER
 62
     7
100
AcDbLine
 10
17.78393042656417
 20
29.78889066187688
 30
0.0
 11
17.78393042656417
 21
19.42870506685566
 31
0.0
  0
LINE
  5
735
330
1F
100
AcDbEntity
  8
BORDER
 62
     7
100
AcDbLine
 10
16.33993042656417
 20
29.78889066187688
 30
0.0
 11
16.33993042656417
 21
19.42870506685566
 31
0.0
  0
ARC
  5
736
330
1F
100
AcDbEntity
  8
BORDER
 62
     7
100
AcDbCircle
 10
20.31093042656418
 20
19.42870506685566
 30
0.0
 40
0.3610000000000006
100
AcDbArc
 50
180.0
 51
0.0
  0
ARC
  5
737
330
1F
100
AcDbEntity
  8
BORDER
 62
     7
100
AcDbCircle
 10
17.42293042656417
 20
19.42870506685566
 30
0.0
 40
0.3610000000000006
100
AcDbArc
 50
180.0
 51
0.0
  0
ARC
  5
738
330
1F
100
AcDbEntity
  8
BORDER
 62
     7
100
AcDbCircle
 10
15.97893042656417
 20
19.42870506685566
 30
0.0
 40
0.3610000000000006
100
AcDbArc
 50
180.0
 51
0.0
  0
ARC
  5
739
330
1F
100
AcDbEntity
  8
BORDER
 62
     7
100
AcDbCircle
 10
18.86693042656417
 20
19.42870506685566
 30
0.0
 40
0.3610000000000006
100
AcDbArc
 50
180.0
 51
0.0
  0
ARC
  5
73A
330
1F
100
AcDbEntity
  8
BORDER
 62
     7
100
AcDbCircle
 10
21.75493042656418
 20
19.42870506685566
 30
0.0
 40
0.3610000000000006
100
AcDbArc
 50
180.0
 51
0.0
  0
LINE
  5
73B
330
1F
100
AcDbEntity
  8
BORDER
 62
     7
100
AcDbLine
 10
22.24093042656418
 20
31.81620110774959
 30
0.0
 11
22.24093042656418
 21
29.26105820432746
 31
0.0
  0
LINE
  5
73C
330
1F
100
AcDbEntity
  8
BORDER
 62
     7
100
AcDbLine
 10
15.49293042656417
 20
31.81620110774959
 30
0.0
 11
15.49293042656417
 21
29.26105820432746
 31
0.0
  0
ARC
  5
73D
330
1F
100
AcDbEntity
  8
BORDER
 62
     7
100
AcDbCircle
 10
16.70093042656417
 20
29.78889066187688
 30
0.0
 40
0.3610000000000006
100
AcDbArc
 50
0.0
 51
180.0
  0
ARC
  5
73E
330
1F
100
AcDbEntity
  8
BORDER
 62
     7
100
AcDbCircle
 10
19.58893042656418
 20
29.78889066187688
 30
0.0
 40
0.3610000000000006
100
AcDbArc
 50
0.0
 51
180.0
  0
ARC
  5
73F
330
1F
100
AcDbEntity
  8
BORDER
 62
     7
100
AcDbCircle
 10
18.14493042656417
 20
29.78889066187688
 30
0.0
 40
0.3610000000000006
100
AcDbArc
 50
0.0
 51
180.0
  0
ARC
  5
740
330
1F
100
AcDbEntity
  8
BORDER
 62
     7
100
AcDbCircle
 10
21.03293042656418
 20
29.78889066187688
 30
0.0
 40
0.3610000000000006
100
AcDbArc
 50
0.0
 51
180.0
  0
LINE
  5
741
330
1F
100
AcDbEntity
  8
BORDER
 62
     7
100
AcDbLine
 10
15.61793042656416
 20
29.26105820432746
 30
0.0
 11
15.49293042656417
 21
29.26105820432746
 31
0.0
  0
LINE
  5
742
330
1F
100
AcDbEntity
  8
BORDER
 62
     7
100
AcDbLine
 10
22.24093042656418
 20
29.26105820432746
 30
0.0
 11
22.11593042656418
 21
29.26105820432746
 31
0.0
  0
LINE
  5
743
330
1F
100
AcDbEntity
  8
BORDER
 62
     7
100
AcDbLine
 10
15.61793042656417
 20
31.81620110774959
 30
0.0
 11
15.49293042656417
 21
31.81620110774959
 31
0.0
  0
LINE
  5
744
330
1F
100
AcDbEntity
  8
BORDER
 62
     7
100
AcDbLine
 10
22.24093042656418
 20
31.81620110774959
 30
0.0
 11
22.11593042656418
 21
31.81620110774959
 31
0.0
  0
LINE
  5
745
330
1F
100
AcDbEntity
  8
BORDER
 62
     7
100
AcDbLine
 10
8.117930426564168
 20
31.81620110774959
 30
0.0
 11
8.117930426564168
 21
19.42870506685566
 31
0.0
  0
LINE
  5
746
330
1F
100
AcDbEntity
  8
BORDER
 62
     7
100
AcDbLine
 10
14.61593042656418
 20
31.81620110774959
 30
0.0
 11
14.61593042656418
 21
19.42870506685566
 31
0.0
  0
LINE
  5
747
330
1F
100
AcDbEntity
  8
BORDER
 62
     7
100
AcDbLine
 10
13.89393042656418
 20
29.78889066187688
 30
0.0
 11
13.89393042656418
 21
19.42870506685566
 31
0.0
  0
LINE
  5
748
330
1F
100
AcDbEntity
  8
BORDER
 62
     7
100
AcDbLine
 10
12.44993042656418
 20
29.78889066187688
 30
0.0
 11
12.44993042656417
 21
19.42870506685566
 31
0.0
  0
LINE
  5
749
330
1F
100
AcDbEntity
  8
BORDER
 62
     7
100
AcDbLine
 10
13.17193042656418
 20
29.78889066187688
 30
0.0
 11
13.17193042656418
 21
19.42870506685566
 31
0.0
  0
LINE
  5
74A
330
1F
100
AcDbEntity
  8
BORDER
 62
     7
100
AcDbLine
 10
11.00593042656417
 20
29.78889066187688
 30
0.0
 11
11.00593042656417
 21
19.42870506685566
 31
0.0
  0
LINE
  5
74B
330
1F
100
AcDbEntity
  8
BORDER
 62
     7
100
AcDbLine
 10
11.72793042656418
 20
29.78889066187688
 30
0.0
 11
11.72793042656417
 21
19.42870506685566
 31
0.0
  0
LINE
  5
74C
330
1F
100
AcDbEntity
  8
BORDER
 62
     7
100
AcDbLine
 10
9.561930426564174
 20
29.78889066187688
 30
0.0
 11
9.56193042656417
 21
19.42870506685566
 31
0.0
  0
LINE
  5
74D
330
1F
100
AcDbEntity
  8
BORDER
 62
     7
100
AcDbLine
 10
10.28393042656417
 20
29.78889066187688
 30
0.0
 11
10.28393042656417
 21
19.42870506685566
 31
0.0
  0
LINE
  5
74E
330
1F
100
AcDbEntity
  8
BORDER
 62
     7
100
AcDbLine
 10
8.839930426564173
 20
29.78889066187688
 30
0.0
 11
8.839930426564169
 21
19.42870506685566
 31
0.0
  0
ARC
  5
74F
330
1F
100
AcDbEntity
  8
BORDER
 62
     7
100
AcDbCircle
 10
12.81093042656417
 20
19.42870506685566
 30
0.0
 40
0.3610000000000006
100
AcDbArc
 50
180.0
 51
0.0
  0
ARC
  5
750
330
1F
100
AcDbEntity
  8
BORDER
 62
     7
100
AcDbCircle
 10
9.922930426564171
 20
19.42870506685566
 30
0.0
 40
0.3610000000000006
100
AcDbArc
 50
180.0
 51
0.0
  0
ARC
  5
751
330
1F
100
AcDbEntity
  8
BORDER
 62
     7
100
AcDbCircle
 10
8.478930426564168
 20
19.42870506685566
 30
0.0
 40
0.3610000000000006
100
AcDbArc
 50
180.0
 51
0.0
  0
ARC
  5
752
330
1F
100
AcDbEntity
  8
BORDER
 62
     7
100
AcDbCircle
 10
11.36693042656417
 20
19.42870506685566
 30
0.0
 40
0.3610000000000006
100
AcDbArc
 50
180.0
 51
0.0
  0
ARC
  5
753
330
1F
100
AcDbEntity
  8
BORDER
 62
     7
100
AcDbCircle
 10
14.25493042656418
 20
19.42870506685566
 30
0.0
 40
0.3610000000000006
100
AcDbArc
 50
180.0
 51
0.0
  0
LINE
  5
754
330
1F
100
AcDbEntity
  8
BORDER
 62
     7
100
AcDbLine
 10
14.74093042656418
 20
31.81620110774959
 30
0.0
 11
14.74093042656418
 21
29.26105820432746
 31
0.0
  0
LINE
  5
755
330
1F
100
AcDbEntity
  8
BORDER
 62
     7
100
AcDbLine
 10
7.992930426564168
 20
31.81620110774959
 30
0.0
 11
7.992930426564168
 21
29.26105820432746
 31
0.0
  0
ARC
  5
756
330
1F
100
AcDbEntity
  8
BORDER
 62
     7
100
AcDbCircle
 10
9.200930426564173
 20
29.78889066187688
 30
0.0
 40
0.3610000000000006
100
AcDbArc
 50
0.0
 51
180.0
  0
ARC
  5
757
330
1F
100
AcDbEntity
  8
BORDER
 62
     7
100
AcDbCircle
 10
12.08893042656418
 20
29.78889066187688
 30
0.0
 40
0.3610000000000006
100
AcDbArc
 50
0.0
 51
180.0
  0
ARC
  5
758
330
1F
100
AcDbEntity
  8
BORDER
 62
     7
100
AcDbCircle
 10
10.64493042656417
 20
29.78889066187688
 30
0.0
 40
0.3610000000000006
100
AcDbArc
 50
0.0
 51
180.0
  0
ARC
  5
759
330
1F
100
AcDbEntity
  8
BORDER
 62
     7
100
AcDbCircle
 10
13.53293042656418
 20
29.78889066187688
 30
0.0
 40
0.3610000000000006
100
AcDbArc
 50
0.0
 51
180.0
  0
LINE
  5
75A
330
1F
100
AcDbEntity
  8
BORDER
 62
     7
100
AcDbLine
 10
8.117930426564164
 20
29.26105820432746
 30
0.0
 11
7.992930426564168
 21
29.26105820432746
 31
0.0
  0
LINE
  5
75B
330
1F
100
AcDbEntity
  8
BORDER
 62
     7
100
AcDbLine
 10
14.74093042656418
 20
29.26105820432746
 30
0.0
 11
14.61593042656418
 21
29.26105820432746
 31
0.0
  0
LINE
  5
75C
330
1F
100
AcDbEntity
  8
BORDER
 62
     7
100
AcDbLine
 10
8.117930426564168
 20
31.81620110774959
 30
0.0
 11
7.992930426564168
 21
31.81620110774959
 31
0.0
  0
LINE
  5
75D
330
1F
100
AcDbEntity
  8
BORDER
 62
     7
100
AcDbLine
 10
14.74093042656418
 20
31.81620110774959
 30
0.0
 11
14.61593042656418
 21
31.81620110774959
 31
0.0
  0
LINE
  5
75E
330
1F
100
AcDbEntity
  8
BORDER
 62
     7
100
AcDbLine
 10
28.89393042656418
 20
14.21173686217009
 30
0.0
 11
28.89393042656418
 21
10.56067156978643
 31
0.0
  0
LINE
  5
75F
330
1F
100
AcDbEntity
  8
BORDER
 62
     7
100
AcDbLine
 10
28.17193042656418
 20
14.21173686217009
 30
0.0
 11
28.17193042656418
 21
10.56067156978643
 31
0.0
  0
LINE
  5
760
330
1F
100
AcDbEntity
  8
BORDER
 62
     7
100
AcDbLine
 10
27.44993042656418
 20
14.21173686217009
 30
0.0
 11
27.44993042656418
 21
10.56067156978643
 31
0.0
  0
LINE
  5
761
330
1F
100
AcDbEntity
  8
BORDER
 62
     7
100
AcDbLine
 10
26.00593042656417
 20
14.21173686217009
 30
0.0
 11
26.00593042656418
 21
10.56067156978643
 31
0.0
  0
LINE
  5
762
330
1F
100
AcDbEntity
  8
BORDER
 62
     7
100
AcDbLine
 10
26.72793042656418
 20
14.21173686217009
 30
0.0
 11
26.72793042656418
 21
10.56067156978643
 31
0.0
  0
LINE
  5
763
330
1F
100
AcDbEntity
  8
BORDER
 62
     7
100
AcDbLine
 10
24.56193042656418
 20
14.21173686217009
 30
0.0
 11
24.56193042656417
 21
10.56067156978643
 31
0.0
  0
LINE
  5
764
330
1F
100
AcDbEntity
  8
BORDER
 62
     7
100
AcDbLine
 10
25.28393042656417
 20
14.21173686217009
 30
0.0
 11
25.28393042656417
 21
10.56067156978643
 31
0.0
  0
LINE
  5
765
330
1F
100
AcDbEntity
  8
BORDER
 62
     7
100
AcDbLine
 10
23.83993042656417
 20
14.21173686217009
 30
0.0
 11
23.83993042656417
 21
10.56067156978643
 31
0.0
  0
LINE
  5
766
330
1F
100
AcDbEntity
  8
BORDER
 62
     7
100
AcDbLine
 10
17.06193042656417
 20
14.21173686217009
 30
0.0
 11
17.06193042656417
 21
10.56067156978643
 31
0.0
  0
LINE
  5
767
330
1F
100
AcDbEntity
  8
BORDER
 62
     7
100
AcDbLine
 10
16.33993042656416
 20
14.21173686217009
 30
0.0
 11
16.33993042656417
 21
10.56067156978643
 31
0.0
  0
LINE
  5
768
330
1F
100
AcDbEntity
  8
BORDER
 62
     7
100
AcDbLine
 10
17.78393042656417
 20
14.21173686217009
 30
0.0
 11
17.78393042656417
 21
10.56067156978643
 31
0.0
  0
LINE
  5
769
330
1F
100
AcDbEntity
  8
BORDER
 62
     7
100
AcDbLine
 10
18.50593042656418
 20
14.21173686217009
 30
0.0
 11
18.50593042656418
 21
10.56067156978643
 31
0.0
  0
LINE
  5
76A
330
1F
100
AcDbEntity
  8
BORDER
 62
     7
100
AcDbLine
 10
19.22793042656418
 20
14.21173686217009
 30
0.0
 11
19.22793042656418
 21
10.56067156978643
 31
0.0
  0
LINE
  5
76B
330
1F
100
AcDbEntity
  8
BORDER
 62
     7
100
AcDbLine
 10
19.94993042656418
 20
14.21173686217009
 30
0.0
 11
19.94993042656418
 21
10.56067156978643
 31
0.0
  0
LINE
  5
76C
330
1F
100
AcDbEntity
  8
BORDER
 62
     7
100
AcDbLine
 10
21.39393042656418
 20
14.21173686217009
 30
0.0
 11
21.39393042656418
 21
10.56067156978643
 31
0.0
  0
LINE
  5
76D
330
1F
100
AcDbEntity
  8
BORDER
 62
     7
100
AcDbLine
 10
20.67193042656418
 20
14.21173686217009
 30
0.0
 11
20.67193042656418
 21
10.56067156978643
 31
0.0
  0
LINE
  5
76E
330
1F
100
AcDbEntity
  8
BORDER
 62
     7
100
AcDbLine
 10
9.561930426564174
 20
14.21173686217009
 30
0.0
 11
9.561930426564174
 21
10.56067156978643
 31
0.0
  0
LINE
  5
76F
330
1F
100
AcDbEntity
  8
BORDER
 62
     7
100
AcDbLine
 10
8.839930426564166
 20
14.21173686217009
 30
0.0
 11
8.839930426564173
 21
10.56067156978643
 31
0.0
  0
LINE
  5
770
330
1F
100
AcDbEntity
  8
BORDER
 62
     7
100
AcDbLine
 10
10.28393042656417
 20
14.21173686217009
 30
0.0
 11
10.28393042656417
 21
10.56067156978643
 31
0.0
  0
LINE
  5
771
330
1F
100
AcDbEntity
  8
BORDER
 62
     7
100
AcDbLine
 10
11.00593042656417
 20
14.21173686217009
 30
0.0
 11
11.00593042656417
 21
10.56067156978643
 31
0.0
  0
LINE
  5
772
330
1F
100
AcDbEntity
  8
BORDER
 62
     7
100
AcDbLine
 10
11.72793042656418
 20
14.21173686217009
 30
0.0
 11
11.72793042656418
 21
10.56067156978643
 31
0.0
  0
LINE
  5
773
330
1F
100
AcDbEntity
  8
BORDER
 62
     7
100
AcDbLine
 10
12.44993042656418
 20
14.21173686217009
 30
0.0
 11
12.44993042656418
 21
10.56067156978643
 31
0.0
  0
LINE
  5
774
330
1F
100
AcDbEntity
  8
BORDER
 62
     7
100
AcDbLine
 10
13.89393042656418
 20
14.21173686217009
 30
0.0
 11
13.89393042656418
 21
10.56067156978643
 31
0.0
  0
LINE
  5
775
330
1F
100
AcDbEntity
  8
BORDER
 62
     7
100
AcDbLine
 10
13.17193042656418
 20
14.21173686217009
 30
0.0
 11
13.17193042656417
 21
10.56067156978643
 31
0.0
  0
LINE
  5
776
330
1F
100
AcDbEntity
  8
DIM
 62
     7
100
AcDbLine
 10
6.717930426564173
 20
28.40111021468152
 30
0.0
 11
31.01793042656417
 21
28.40111021468153
 31
0.0
  0
LINE
  5
778
102
{ACAD_REACTORS
330
AAE
330
AC8
102
}
330
1F
100
AcDbEntity
  8
BORDER
 62
     7
100
AcDbLine
 10
31.56793042656417
 20
24.65450997568791
 30
0.0
 11
31.56793042656417
 21
24.47789232598678
 31
0.0
  0
ARC
  5
779
330
1F
100
AcDbEntity
  8
BORDER
 62
     7
100
AcDbCircle
 10
31.69293042656417
 20
24.56620110774959
 30
0.0
 40
0.3125
100
AcDbArc
 50
270.0
 51
90.0
  0
ARC
  5
77A
330
1F
100
AcDbEntity
  8
BORDER
 62
     7
100
AcDbCircle
 10
31.44293042656417
 20
24.56620110774959
 30
0.0
 40
0.3125
100
AcDbArc
 50
90.0
 51
270.0
  0
LINE
  5
77B
102
{ACAD_REACTORS
330
AAE
330
AC8
102
}
330
1F
100
AcDbEntity
  8
BORDER
 62
     7
100
AcDbLine
 10
31.69293042656417
 20
24.56620110774959
 30
0.0
 11
31.44293042656417
 21
24.56620110774959
 31
0.0
  0
LWPOLYLINE
  5
77C
330
1F
100
AcDbEntity
  8
BORDER
 62
     7
100
AcDbPolyline
 90
        2
 70
     0
 43
0.0
 10
31.44293042656417
 20
24.25370110774959
 10
31.69293042656417
 20
24.25370110774959
  0
LWPOLYLINE
  5
77D
330
1F
100
AcDbEntity
  8
BORDER
 62
     7
100
AcDbPolyline
 90
        2
 70
     0
 43
0.0
 10
31.69293042656417
 20
24.87870110774959
 10
31.44293042656417
 20
24.87870110774959
  0
ARC
  5
77E
330
1F
100
AcDbEntity
  8
BORDER
 62
     7
100
AcDbCircle
 10
6.292930426564169
 20
24.56620110774959
 30
0.0
 40
0.3125
100
AcDbArc
 50
270.0
 51
90.0
  0
LINE
  5
77F
330
1F
100
AcDbEntity
  8
BORDER
 62
     7
100
AcDbLine
 10
6.167930426564169
 20
24.65450997568791
 30
0.0
 11
6.167930426564169
 21
24.47789232598678
 31
0.0
  0
ARC
  5
780
330
1F
100
AcDbEntity
  8
BORDER
 62
     7
100
AcDbCircle
 10
6.042930426564169
 20
24.56620110774959
 30
0.0
 40
0.3125
100
AcDbArc
 50
90.0
 51
270.0
  0
LWPOLYLINE
  5
781
330
1F
100
AcDbEntity
  8
BORDER
 62
     7
100
AcDbPolyline
 90
        2
 70
     0
 43
0.0
 10
6.292930426564172
 20
24.25370110774959
 10
6.042930426564172
 20
24.25370110774959
  0
LINE
  5
782
330
1F
100
AcDbEntity
  8
BORDER
 62
     7
100
AcDbLine
 10
6.042930426564169
 20
24.56620110774959
 30
0.0
 11
6.292930426564169
 21
24.56620110774959
 31
0.0
  0
LWPOLYLINE
  5
783
330
1F
100
AcDbEntity
  8
BORDER
 62
     7
100
AcDbPolyline
 90
        2
 70
     0
 43
0.0
 10
6.042930426564172
 20
24.87870110774959
 10
6.292930426564172
 20
24.87870110774959
  0
LINE
  5
784
330
1F
100
AcDbEntity
  8
DIM
 62
     7
100
AcDbLine
 10
6.717930426564173
 20
27.2272493771993
 30
0.0
 11
31.01793042656417
 21
27.2272493771993
 31
0.0
  0
LINE
  5
786
330
1F
100
AcDbEntity
  8
DIM
 62
     7
100
AcDbLine
 10
6.717930426564173
 20
12.97313463471937
 30
0.0
 11
8.117930426564171
 21
12.97313463471937
 31
0.0
  0
LINE
  5
787
330
1F
100
AcDbEntity
  8
DIM
 62
     7
100
AcDbLine
 10
6.717930426564173
 20
11.79927379723715
 30
0.0
 11
8.117930426564171
 21
11.79927379723715
 31
0.0
  0
LINE
  5
788
330
1F
100
AcDbEntity
  8
DIM
 62
     7
100
AcDbLine
 10
6.717930426564173
 20
20.73129200081765
 30
0.0
 11
31.01793042656417
 21
20.73129200081764
 31
0.0
  0
LINE
  5
789
330
1F
100
AcDbEntity
  8
DIM
 62
     7
100
AcDbLine
 10
6.717930426564173
 20
21.90515283829987
 30
0.0
 11
31.01793042656417
 21
21.90515283829987
 31
0.0
  0
LINE
  5
83E
330
1F
100
AcDbEntity
  8
0
100
AcDbLine
 10
39.77512915580783
 20
12.38620421597826
 30
0.0
 11
40.84083514601435
 21
12.38620421597826
 31
0.0
  0
LINE
  5
83F
330
1F
100
AcDbEntity
  8
0
100
AcDbLine
 10
40.29752180790731
 20
12.90831555089861
 30
0.0
 11
40.29752180790731
 21
11.85356367395298
 31
0.0
  0
CIRCLE
  5
840
330
1F
100
AcDbEntity
  8
HW-OBJ
100
AcDbCircle
 10
40.29752180790731
 20
12.38620421597826
 30
0.0
 40
0.4375
  0
CIRCLE
  5
841
330
1F
100
AcDbEntity
  8
HW-OBJ
100
AcDbCircle
 10
40.29752180790731
 20
12.38620421597826
 30
0.0
 40
0.1875
  0
CIRCLE
  5
842
330
1F
100
AcDbEntity
  8
HW-OBJ
100
AcDbCircle
 10
40.29752180790731
 20
12.38620421597826
 30
0.0
 40
0.25
  0
LWPOLYLINE
  5
843
330
1F
100
AcDbEntity
  8
HW-OBJ
100
AcDbPolyline
 90
        6
 70
     1
 43
0.0
 10
40.1531842406099
 20
12.63620421597826
 10
40.00884667331249
 20
12.38620421597826
 10
40.1531842406099
 20
12.13620421597826
 10
40.44185937520471
 20
12.13620421597826
 10
40.58619694250212
 20
12.38620421597826
 10
40.44185937520471
 20
12.63620421597826
  0
LINE
  5
861
330
1F
100
AcDbEntity
  8
HW-OBJ
100
AcDbLine
 10
31.11793042656417
 20
12.82370421597826
 30
0.0
 11
31.11793042656417
 21
11.94870421597826
 31
0.0
  0
LINE
  5
862
330
1F
100
AcDbEntity
  8
HW-OBJ
100
AcDbLine
 10
31.18043042656418
 20
11.94870421597826
 30
0.0
 11
31.18043042656418
 21
12.82370421597826
 31
0.0
  0
LINE
  5
863
330
1F
100
AcDbEntity
  8
HW-OBJ
100
AcDbLine
 10
31.18043042656418
 20
12.68170421597826
 30
0.0
 11
31.18043042656418
 21
12.09070421597826
 31
0.0
  0
LINE
  5
864
330
1F
100
AcDbEntity
  8
HW-OBJ
100
AcDbLine
 10
31.25843042656418
 20
12.09070421597826
 30
0.0
 11
31.25843042656418
 21
12.68170421597826
 31
0.0
  0
ARC
  5
865
330
1F
100
AcDbEntity
  8
HW-OBJ
100
AcDbCircle
 10
31.34510238568594
 20
12.16969786503215
 30
0.0
 40
0.0866719591217576
100
AcDbArc
 50
123.6264291359729
 51
236.3735708640275
  0
ARC
  5
866
330
1F
100
AcDbEntity
  8
HW-OBJ
100
AcDbCircle
 10
31.44475846744242
 20
12.16969786503215
 30
0.0
 40
0.0866719591217591
100
AcDbArc
 50
303.6264291359744
 51
56.37357086402605
  0
LINE
  5
867
330
1F
100
AcDbEntity
  8
HW-OBJ
100
AcDbLine
 10
31.11793042656417
 20
11.94870421597826
 30
0.0
 11
31.18043042656418
 21
11.94870421597826
 31
0.0
  0
LINE
  5
868
330
1F
100
AcDbEntity
  8
HW-OBJ
100
AcDbLine
 10
31.18043042656418
 20
12.09070421597826
 30
0.0
 11
31.25843042656418
 21
12.09070421597826
 31
0.0
  0
LINE
  5
869
330
1F
100
AcDbEntity
  8
HW-OBJ
100
AcDbLine
 10
31.49275529196936
 20
12.09752908138345
 30
0.0
 11
31.29710556115899
 21
12.09752908138345
 31
0.0
  0
LINE
  5
86A
330
1F
100
AcDbEntity
  8
0
100
AcDbLine
 10
31.87613988148697
 20
12.38620421597826
 30
0.0
 11
30.91015407302697
 21
12.38620421597826
 31
0.0
  0
LINE
  5
86B
330
1F
100
AcDbEntity
  8
HW-OBJ
100
AcDbLine
 10
31.18043042656418
 20
12.38620421597826
 30
0.0
 11
31.25843042656418
 21
12.46420421597826
 31
0.0
  0
ARC
  5
86C
330
1F
100
AcDbEntity
  8
HW-OBJ
100
AcDbCircle
 10
31.54710556115899
 20
12.38620421597826
 30
0.0
 40
0.2886751345948129
100
AcDbArc
 50
150.0
 51
210.0
  0
ARC
  5
86D
330
1F
100
AcDbEntity
  8
HW-OBJ
100
AcDbCircle
 10
31.24275529196936
 20
12.38620421597826
 30
0.0
 40
0.2886751345948175
100
AcDbArc
 50
330.0000000000005
 51
29.99999999999958
  0
LINE
  5
86E
330
1F
100
AcDbEntity
  8
HW-OBJ
100
AcDbLine
 10
31.25843042656418
 20
12.60271056692437
 30
0.0
 11
31.25843042656418
 21
12.16969786503215
 31
0.0
  0
LINE
  5
86F
330
1F
100
AcDbEntity
  8
HW-OBJ
100
AcDbLine
 10
31.53143042656418
 20
12.16969786503215
 30
0.0
 11
31.53143042656418
 21
12.60271056692437
 31
0.0
  0
LINE
  5
870
330
1F
100
AcDbEntity
  8
HW-OBJ
100
AcDbLine
 10
31.65643042656418
 20
12.26403391936792
 30
0.0
 11
31.65643042656418
 21
12.50837451258859
 31
0.0
  0
LINE
  5
871
330
1F
100
AcDbEntity
  8
HW-OBJ
100
AcDbLine
 10
31.62235072317452
 20
12.22995421597826
 30
0.0
 11
31.62235072317452
 21
12.54245421597826
 31
0.0
  0
LINE
  5
872
330
1F
100
AcDbEntity
  8
HW-OBJ
100
AcDbLine
 10
31.53143042656418
 20
12.22995421597826
 30
0.0
 11
31.62235072317452
 21
12.22995421597826
 31
0.0
  0
LINE
  5
873
330
1F
100
AcDbEntity
  8
HW-OBJ
100
AcDbLine
 10
31.18043042656418
 20
12.30820421597826
 30
0.0
 11
31.25843042656418
 21
12.38620421597826
 31
0.0
  0
LINE
  5
874
330
1F
100
AcDbEntity
  8
HW-OBJ
100
AcDbLine
 10
31.49275529196936
 20
12.24186664868085
 30
0.0
 11
31.29710556115899
 21
12.24186664868085
 31
0.0
  0
LINE
  5
875
330
1F
100
AcDbEntity
  8
HW-OBJ
100
AcDbLine
 10
31.62235072317452
 20
12.22995421597826
 30
0.0
 11
31.65643042656418
 21
12.26403391936792
 31
0.0
  0
LINE
  5
876
330
1F
100
AcDbEntity
  8
HW-OBJ
100
AcDbLine
 10
31.62235072317452
 20
12.54245421597826
 30
0.0
 11
31.53143042656418
 21
12.54245421597826
 31
0.0
  0
ARC
  5
877
330
1F
100
AcDbEntity
  8
HW-OBJ
100
AcDbCircle
 10
31.34510238568594
 20
12.60271056692437
 30
0.0
 40
0.0866719591217576
100
AcDbArc
 50
123.6264291359729
 51
236.3735708640275
  0
ARC
  5
878
330
1F
100
AcDbEntity
  8
HW-OBJ
100
AcDbCircle
 10
31.44475846744243
 20
12.60271056692437
 30
0.0
 40
0.0866719591217585
100
AcDbArc
 50
303.6264291359739
 51
56.37357086402616
  0
LINE
  5
879
330
1F
100
AcDbEntity
  8
HW-OBJ
100
AcDbLine
 10
31.49275529196936
 20
12.67487935057307
 30
0.0
 11
31.29710556115899
 21
12.67487935057307
 31
0.0
  0
LINE
  5
87A
330
1F
100
AcDbEntity
  8
HW-OBJ
100
AcDbLine
 10
31.49275529196936
 20
12.53054178327566
 30
0.0
 11
31.29710556115899
 21
12.53054178327566
 31
0.0
  0
LINE
  5
87B
330
1F
100
AcDbEntity
  8
HW-OBJ
100
AcDbLine
 10
31.65643042656418
 20
12.50837451258859
 30
0.0
 11
31.62235072317452
 21
12.54245421597826
 31
0.0
  0
LINE
  5
87C
330
1F
100
AcDbEntity
  8
HW-OBJ
100
AcDbLine
 10
31.18043042656418
 20
12.82370421597826
 30
0.0
 11
31.11793042656417
 21
12.82370421597826
 31
0.0
  0
LINE
  5
87D
330
1F
100
AcDbEntity
  8
HW-OBJ
100
AcDbLine
 10
31.25843042656418
 20
12.68170421597826
 30
0.0
 11
31.18043042656418
 21
12.68170421597826
 31
0.0
  0
LINE
  5
87E
330
1F
100
AcDbEntity
  8
0
100
AcDbLine
 10
46.79752180790731
 20
12.90831555089861
 30
0.0
 11
46.79752180790731
 21
11.85356367395298
 31
0.0
  0
CIRCLE
  5
87F
330
1F
100
AcDbEntity
  8
HW-OBJ
100
AcDbCircle
 10
46.79752180790731
 20
12.38620421597826
 30
0.0
 40
0.4375
  0
LINE
  5
880
330
1F
100
AcDbEntity
  8
0
100
AcDbLine
 10
46.27512915580783
 20
12.38620421597826
 30
0.0
 11
47.34083514601436
 21
12.38620421597826
 31
0.0
  0
CIRCLE
  5
881
330
1F
100
AcDbEntity
  8
HW-OBJ
100
AcDbCircle
 10
46.79752180790731
 20
12.38620421597826
 30
0.0
 40
0.25
  0
LWPOLYLINE
  5
882
330
1F
100
AcDbEntity
  8
HW-OBJ
100
AcDbPolyline
 90
        6
 70
     1
 43
0.0
 10
46.6531842406099
 20
12.63620421597826
 10
46.5088466733125
 20
12.38620421597826
 10
46.6531842406099
 20
12.13620421597826
 10
46.94185937520471
 20
12.13620421597826
 10
47.08619694250212
 20
12.38620421597826
 10
46.94185937520471
 20
12.63620421597826
  0
CIRCLE
  5
883
330
1F
100
AcDbEntity
  8
HW-OBJ
100
AcDbCircle
 10
46.79752180790731
 20
12.38620421597826
 30
0.0
 40
0.1875
  0
ARC
  5
884
330
1F
100
AcDbEntity
  8
HW-OBJ
100
AcDbCircle
 10
6.291102385685924
 20
12.60271056692437
 30
0.0
 40
0.0866719591217585
100
AcDbArc
 50
123.6264291359738
 51
236.3735708640261
  0
ARC
  5
885
330
1F
100
AcDbEntity
  8
HW-OBJ
100
AcDbCircle
 10
6.39075846744241
 20
12.60271056692437
 30
0.0
 40
0.0866719591217576
100
AcDbArc
 50
303.6264291359725
 51
56.37357086402707
  0
LINE
  5
886
330
1F
100
AcDbEntity
  8
HW-OBJ
100
AcDbLine
 10
6.617930426564171
 20
12.82370421597826
 30
0.0
 11
6.617930426564171
 21
11.94870421597826
 31
0.0
  0
LINE
  5
887
330
1F
100
AcDbEntity
  8
HW-OBJ
100
AcDbLine
 10
6.555430426564171
 20
11.94870421597826
 30
0.0
 11
6.555430426564171
 21
12.82370421597826
 31
0.0
  0
LINE
  5
888
330
1F
100
AcDbEntity
  8
HW-OBJ
100
AcDbLine
 10
6.555430426564171
 20
12.68170421597826
 30
0.0
 11
6.555430426564171
 21
12.09070421597826
 31
0.0
  0
LINE
  5
889
330
1F
100
AcDbEntity
  8
HW-OBJ
100
AcDbLine
 10
6.477430426564168
 20
12.09070421597826
 30
0.0
 11
6.477430426564168
 21
12.68170421597826
 31
0.0
  0
ARC
  5
88A
330
1F
100
AcDbEntity
  8
HW-OBJ
100
AcDbCircle
 10
6.39075846744241
 20
12.16969786503215
 30
0.0
 40
0.0866719591217576
100
AcDbArc
 50
303.6264291359725
 51
56.37357086402707
  0
ARC
  5
88B
330
1F
100
AcDbEntity
  8
HW-OBJ
100
AcDbCircle
 10
6.291102385685931
 20
12.16969786503215
 30
0.0
 40
0.0866719591217591
100
AcDbArc
 50
123.6264291359739
 51
236.3735708640256
  0
LINE
  5
88C
330
1F
100
AcDbEntity
  8
HW-OBJ
100
AcDbLine
 10
6.555430426564171
 20
12.09070421597826
 30
0.0
 11
6.477430426564168
 21
12.09070421597826
 31
0.0
  0
LINE
  5
88D
330
1F
100
AcDbEntity
  8
HW-OBJ
100
AcDbLine
 10
6.243105561158984
 20
12.09752908138345
 30
0.0
 11
6.438755291969357
 21
12.09752908138345
 31
0.0
  0
LINE
  5
88E
330
1F
100
AcDbEntity
  8
HW-OBJ
100
AcDbLine
 10
6.617930426564171
 20
11.94870421597826
 30
0.0
 11
6.555430426564171
 21
11.94870421597826
 31
0.0
  0
LINE
  5
88F
330
1F
100
AcDbEntity
  8
HW-OBJ
100
AcDbLine
 10
6.11351012995383
 20
12.54245421597826
 30
0.0
 11
6.204430426564165
 21
12.54245421597826
 31
0.0
  0
LINE
  5
890
330
1F
100
AcDbEntity
  8
HW-OBJ
100
AcDbLine
 10
6.204430426564165
 20
12.22995421597826
 30
0.0
 11
6.11351012995383
 21
12.22995421597826
 31
0.0
  0
LINE
  5
891
330
1F
100
AcDbEntity
  8
0
100
AcDbLine
 10
5.85972097164138
 20
12.38620421597826
 30
0.0
 11
6.825706780101377
 21
12.38620421597826
 31
0.0
  0
LINE
  5
892
330
1F
100
AcDbEntity
  8
HW-OBJ
100
AcDbLine
 10
6.555430426564171
 20
12.38620421597826
 30
0.0
 11
6.477430426564168
 21
12.46420421597826
 31
0.0
  0
ARC
  5
893
330
1F
100
AcDbEntity
  8
HW-OBJ
100
AcDbCircle
 10
6.188755291969357
 20
12.38620421597826
 30
0.0
 40
0.2886751345948129
100
AcDbArc
 50
330.0000000000001
 51
29.99999999999994
  0
ARC
  5
894
330
1F
100
AcDbEntity
  8
HW-OBJ
100
AcDbCircle
 10
6.493105561158984
 20
12.38620421597826
 30
0.0
 40
0.2886751345948175
100
AcDbArc
 50
150.0000000000004
 51
209.9999999999996
  0
LINE
  5
895
330
1F
100
AcDbEntity
  8
HW-OBJ
100
AcDbLine
 10
6.477430426564168
 20
12.60271056692437
 30
0.0
 11
6.477430426564168
 21
12.16969786503215
 31
0.0
  0
LINE
  5
896
330
1F
100
AcDbEntity
  8
HW-OBJ
100
AcDbLine
 10
6.204430426564165
 20
12.16969786503215
 30
0.0
 11
6.204430426564165
 21
12.60271056692437
 31
0.0
  0
LINE
  5
897
330
1F
100
AcDbEntity
  8
HW-OBJ
100
AcDbLine
 10
6.555430426564171
 20
12.30820421597826
 30
0.0
 11
6.477430426564168
 21
12.38620421597826
 31
0.0
  0
LINE
  5
898
330
1F
100
AcDbEntity
  8
HW-OBJ
100
AcDbLine
 10
6.243105561158984
 20
12.24186664868085
 30
0.0
 11
6.438755291969357
 21
12.24186664868085
 31
0.0
  0
LINE
  5
899
330
1F
100
AcDbEntity
  8
HW-OBJ
100
AcDbLine
 10
6.243105561158984
 20
12.53054178327566
 30
0.0
 11
6.438755291969357
 21
12.53054178327566
 31
0.0
  0
LINE
  5
89A
330
1F
100
AcDbEntity
  8
HW-OBJ
100
AcDbLine
 10
6.079430426564165
 20
12.26403391936792
 30
0.0
 11
6.079430426564165
 21
12.50837451258859
 31
0.0
  0
LINE
  5
89B
330
1F
100
AcDbEntity
  8
HW-OBJ
100
AcDbLine
 10
6.11351012995383
 20
12.22995421597826
 30
0.0
 11
6.11351012995383
 21
12.54245421597826
 31
0.0
  0
LINE
  5
89C
330
1F
100
AcDbEntity
  8
HW-OBJ
100
AcDbLine
 10
6.11351012995383
 20
12.22995421597826
 30
0.0
 11
6.079430426564165
 21
12.26403391936792
 31
0.0
  0
LINE
  5
89D
330
1F
100
AcDbEntity
  8
HW-OBJ
100
AcDbLine
 10
6.079430426564165
 20
12.50837451258859
 30
0.0
 11
6.11351012995383
 21
12.54245421597826
 31
0.0
  0
LINE
  5
89E
330
1F
100
AcDbEntity
  8
HW-OBJ
100
AcDbLine
 10
6.555430426564171
 20
12.82370421597826
 30
0.0
 11
6.617930426564171
 21
12.82370421597826
 31
0.0
  0
LINE
  5
89F
330
1F
100
AcDbEntity
  8
HW-OBJ
100
AcDbLine
 10
6.477430426564168
 20
12.68170421597826
 30
0.0
 11
6.555430426564171
 21
12.68170421597826
 31
0.0
  0
LINE
  5
8A0
330
1F
100
AcDbEntity
  8
HW-OBJ
100
AcDbLine
 10
6.243105561158984
 20
12.67487935057307
 30
0.0
 11
6.438755291969357
 21
12.67487935057307
 31
0.0
  0
LINE
  5
8A7
330
1F
100
AcDbEntity
  8
DIM
 62
     7
100
AcDbLine
 10
40.54752180790731
 20
8.519968068800096
 30
0.0
 11
40.54752180790731
 21
7.834312964919231
 31
0.0
  0
LINE
  5
8A8
330
1F
100
AcDbEntity
  8
DIM
 62
     7
100
AcDbLine
 10
43.54752180790732
 20
8.519968068800096
 30
0.0
 11
43.54752180790732
 21
7.834312964919231
 31
0.0
  0
LINE
  5
8A9
330
1F
100
AcDbEntity
  8
DIM
 62
     7
100
AcDbLine
 10
46.54752180790732
 20
8.519968068800096
 30
0.0
 11
46.54752180790732
 21
7.834312964919233
 31
0.0
  0
LINE
  5
8AC
102
{ACAD_REACTORS
330
953
330
9A1
102
}
330
1F
100
AcDbEntity
  8
DIM
 62
     7
100
AcDbLine
 10
31.49293042656417
 20
8.519968068800094
 30
0.0
 11
31.49293042656417
 21
7.834312964919231
 31
0.0
  0
LINE
  5
8AD
102
{ACAD_REACTORS
330
953
102
}
330
1F
100
AcDbEntity
  8
DIM
 62
     7
100
AcDbLine
 10
6.242930426564171
 20
8.519968068800094
 30
0.0
 11
6.242930426564171
 21
7.834312964919231
 31
0.0
  0
DIMENSION
  5
8AE
102
{ACAD_XDICTIONARY
360
8BC
102
}
102
{ACAD_REACTORS
330
8C7
102
}
330
1F
100
AcDbEntity
  8
DIM
100
AcDbDimension
280
     0
  2
*D5
 10
49.04752180790731
 20
15.9010090745614
 30
0.0
 11
43.54752180790731
 21
15.9010090745614
 31
0.0
 70
    32
 71
     5
 42
11.0
 73
     0
 74
     0
 75
     0
  3
Standard
100
AcDbAlignedDimension
 13
38.04752180790731
 23
14.21885458581186
 33
0.0
 14
49.04752180790731
 24
14.11885458581186
 34
0.0
100
AcDbRotatedDimension
1001
ACAD
1000
DSTYLE
1002
{
1070
    40
1040
2.0
1002
}
  0
DIMENSION
  5
8D2
102
{ACAD_XDICTIONARY
360
8E0
102
}
102
{ACAD_REACTORS
330
8EB
102
}
330
1F
100
AcDbEntity
  8
DIM
100
AcDbDimension
280
     0
  2
*D6
 10
50.7975218079073
 20
17.12378563127436
 30
0.0
 11
44.4225218079073
 21
17.12378563127436
 31
0.0
 70
    32
 71
     5
 42
12.75
 73
     0
 74
     0
 75
     0
  3
Standard
100
AcDbAlignedDimension
 13
38.04752180790731
 23
14.21885458581186
 33
0.0
 14
50.7975218079073
 24
14.21885458581186
 34
0.0
100
AcDbRotatedDimension
1001
ACAD
1000
DSTYLE
1002
{
1070
    40
1040
2.0
1002
}
  0
DIMENSION
  5
8EC
102
{ACAD_XDICTIONARY
360
8FA
102
}
102
{ACAD_REACTORS
330
905
102
}
330
1F
100
AcDbEntity
  8
DIM
100
AcDbDimension
280
     0
  2
*D7
 10
35.81416693318946
 20
31.81620110774959
 30
0.0
 11
35.81416693318945
 21
25.44120110774959
 31
0.0
 70
    32
 71
     5
 42
12.75
 73
     0
 74
     0
 75
     0
  3
Standard
100
AcDbAlignedDimension
 13
32.11793042656417
 23
19.06620110774958
 33
0.0
 14
29.61593042656418
 24
31.81620110774959
 34
0.0
 50
90.0
100
AcDbRotatedDimension
1001
ACAD
1000
DSTYLE
1002
{
1070
    40
1040
2.0
1002
}
  0
DIMENSION
  5
906
102
{ACAD_XDICTIONARY
360
914
102
}
102
{ACAD_REACTORS
330
91F
102
}
330
1F
100
AcDbEntity
  8
DIM
100
AcDbDimension
280
     0
  2
*D8
 10
34.42678864718607
 20
30.06620110774959
 30
0.0
 11
34.42678864718607
 21
24.56620110774959
 31
0.0
 70
    32
 71
     5
 42
11.0
 73
     0
 74
     0
 75
     0
  3
Standard
100
AcDbAlignedDimension
 13
32.24293042656417
 23
19.06620110774958
 33
0.0
 14
32.11793042656417
 24
30.06620110774959
 34
0.0
 50
90.0
100
AcDbRotatedDimension
1001
ACAD
1000
DSTYLE
1002
{
1070
    40
1040
2.0
1002
}
  0
DIMENSION
  5
920
102
{ACAD_XDICTIONARY
360
92E
102
}
102
{ACAD_REACTORS
330
939
102
}
330
1F
100
AcDbEntity
  8
DIM
100
AcDbDimension
280
     0
  2
*D9
 10
35.96715186730381
 20
14.21885458581186
 30
0.0
 11
35.96715186730381
 21
11.21885458581187
 31
0.0
 70
    32
 71
     5
 42
6.0
 73
     0
 74
     0
 75
     0
  3
Standard
100
AcDbAlignedDimension
 13
32.11793042656417
 23
8.218854585811861
 33
0.0
 14
32.11793042656417
 24
14.21885458581186
 34
0.0
 50
90.0
100
AcDbRotatedDimension
1001
ACAD
1000
DSTYLE
1002
{
1070
    40
1040
2.0
1002
}
  0
DIMENSION
  5
93A
102
{ACAD_XDICTIONARY
360
948
102
}
102
{ACAD_REACTORS
330
953
102
}
330
1F
100
AcDbEntity
  8
DIM
100
AcDbDimension
280
     0
  2
*D10
 10
31.49293042656417
 20
6.959455255253033
 30
0.0
 11
18.86793042656417
 21
6.959455255253033
 31
0.0
 70
    32
 71
     5
 42
25.25
 73
     0
 74
     0
 75
     0
  3
Standard
100
AcDbAlignedDimension
 13
6.242930426564171
 23
7.834312964919231
 33
0.0
 14
31.49293042656417
 24
7.834312964919231
 34
0.0
100
AcDbRotatedDimension
1001
ACAD
1000
DSTYLE
1002
{
1070
    40
1040
2.0
1002
}
  0
DIMENSION
  5
96E
102
{ACAD_XDICTIONARY
360
97C
102
}
102
{ACAD_REACTORS
330
987
102
}
330
1F
100
AcDbEntity
  8
DIM
100
AcDbDimension
280
     0
  2
*D11
 10
32.11793042656417
 20
5.583831595838304
 30
0.0
 11
18.86793042656417
 21
5.583831595838304
 31
0.0
 70
    32
 71
     5
 42
26.5
 73
     0
 74
     0
 75
     0
  3
Standard
100
AcDbAlignedDimension
 13
5.617930426564171
 23
8.218854585811861
 33
0.0
 14
32.11793042656417
 24
8.218854585811861
 34
0.0
100
AcDbRotatedDimension
1001
ACAD
1000
DSTYLE
1002
{
1070
    40
1040
2.0
1002
}
  0
DIMENSION
  5
988
102
{ACAD_XDICTIONARY
360
996
102
}
102
{ACAD_REACTORS
330
9A1
102
}
330
1F
100
AcDbEntity
  8
DIM
100
AcDbDimension
280
     0
  2
*D12
 10
32.11793042656417
 20
6.965369040979311
 30
0.0
 11
33.37793042656417
 21
6.965369040979311
 31
0.0
 70
    32
 71
     5
 42
0.625
 73
     0
 74
     0
 75
     0
  3
Standard
100
AcDbAlignedDimension
 13
31.49293042656417
 23
8.519968068800094
 33
0.0
 14
32.11793042656417
 24
8.218854585811861
 34
0.0
100
AcDbRotatedDimension
1001
ACAD
1000
DSTYLE
1002
{
1070
    40
1040
2.0
1002
}
  0
LINE
  5
9B6
330
1F
100
AcDbEntity
  8
DIM
 62
     7
100
AcDbLine
 10
8.839930426564169
 20
12.97313463471937
 30
0.0
 11
9.561930426564174
 21
12.97313463471937
 31
0.0
  0
LINE
  5
9B7
330
1F
100
AcDbEntity
  8
DIM
 62
     7
100
AcDbLine
 10
8.839930426564169
 20
11.79927379723715
 30
0.0
 11
9.561930426564174
 21
11.79927379723715
 31
0.0
  0
LINE
  5
9B8
330
1F
100
AcDbEntity
  8
DIM
 62
     7
100
AcDbLine
 10
10.28393042656417
 20
11.79927379723715
 30
0.0
 11
11.00593042656417
 21
11.79927379723715
 31
0.0
  0
LINE
  5
9B9
330
1F
100
AcDbEntity
  8
DIM
 62
     7
100
AcDbLine
 10
10.28393042656417
 20
12.97313463471937
 30
0.0
 11
11.00593042656417
 21
12.97313463471937
 31
0.0
  0
LINE
  5
9BA
330
1F
100
AcDbEntity
  8
DIM
 62
     7
100
AcDbLine
 10
11.72793042656418
 20
12.97313463471937
 30
0.0
 11
12.44993042656418
 21
12.97313463471937
 31
0.0
  0
LINE
  5
9BB
330
1F
100
AcDbEntity
  8
DIM
 62
     7
100
AcDbLine
 10
11.72793042656418
 20
11.79927379723715
 30
0.0
 11
12.44993042656418
 21
11.79927379723715
 31
0.0
  0
LINE
  5
9BC
330
1F
100
AcDbEntity
  8
DIM
 62
     7
100
AcDbLine
 10
13.17193042656417
 20
11.79927379723715
 30
0.0
 11
13.89393042656418
 21
11.79927379723715
 31
0.0
  0
LINE
  5
9BD
330
1F
100
AcDbEntity
  8
DIM
 62
     7
100
AcDbLine
 10
13.17193042656418
 20
12.97313463471937
 30
0.0
 11
13.89393042656418
 21
12.97313463471937
 31
0.0
  0
LINE
  5
9BE
330
1F
100
AcDbEntity
  8
DIM
 62
     7
100
AcDbLine
 10
14.61793042656417
 20
12.97313463471937
 30
0.0
 11
15.61793042656417
 21
12.97313463471937
 31
0.0
  0
LINE
  5
9BF
330
1F
100
AcDbEntity
  8
DIM
 62
     7
100
AcDbLine
 10
14.61793042656417
 20
11.79927379723715
 30
0.0
 11
15.61793042656417
 21
11.79927379723715
 31
0.0
  0
LINE
  5
9C0
330
1F
100
AcDbEntity
  8
DIM
 62
     7
100
AcDbLine
 10
16.33993042656417
 20
11.79927379723715
 30
0.0
 11
17.06193042656417
 21
11.79927379723715
 31
0.0
  0
LINE
  5
9C1
330
1F
100
AcDbEntity
  8
DIM
 62
     7
100
AcDbLine
 10
16.33993042656417
 20
12.97313463471937
 30
0.0
 11
17.06193042656417
 21
12.97313463471937
 31
0.0
  0
LINE
  5
9C2
330
1F
100
AcDbEntity
  8
DIM
 62
     7
100
AcDbLine
 10
17.78393042656417
 20
12.97313463471937
 30
0.0
 11
18.50593042656418
 21
12.97313463471937
 31
0.0
  0
LINE
  5
9C3
330
1F
100
AcDbEntity
  8
DIM
 62
     7
100
AcDbLine
 10
17.78393042656417
 20
11.79927379723715
 30
0.0
 11
18.50593042656418
 21
11.79927379723715
 31
0.0
  0
LINE
  5
9C4
330
1F
100
AcDbEntity
  8
DIM
 62
     7
100
AcDbLine
 10
19.22793042656418
 20
11.79927379723715
 30
0.0
 11
19.94993042656418
 21
11.79927379723715
 31
0.0
  0
LINE
  5
9C5
330
1F
100
AcDbEntity
  8
DIM
 62
     7
100
AcDbLine
 10
19.22793042656418
 20
12.97313463471937
 30
0.0
 11
19.94993042656418
 21
12.97313463471937
 31
0.0
  0
LINE
  5
9C6
330
1F
100
AcDbEntity
  8
DIM
 62
     7
100
AcDbLine
 10
20.67193042656418
 20
12.97313463471937
 30
0.0
 11
21.39393042656418
 21
12.97313463471937
 31
0.0
  0
LINE
  5
9C7
330
1F
100
AcDbEntity
  8
DIM
 62
     7
100
AcDbLine
 10
20.67193042656418
 20
11.79927379723715
 30
0.0
 11
21.39393042656418
 21
11.79927379723715
 31
0.0
  0
LINE
  5
9C8
330
1F
100
AcDbEntity
  8
DIM
 62
     7
100
AcDbLine
 10
22.11793042656417
 20
11.79927379723715
 30
0.0
 11
23.11793042656418
 21
11.79927379723715
 31
0.0
  0
LINE
  5
9C9
330
1F
100
AcDbEntity
  8
DIM
 62
     7
100
AcDbLine
 10
22.11793042656417
 20
12.97313463471937
 30
0.0
 11
23.11793042656418
 21
12.97313463471937
 31
0.0
  0
LINE
  5
9CA
330
1F
100
AcDbEntity
  8
DIM
 62
     7
100
AcDbLine
 10
23.83993042656417
 20
12.97313463471937
 30
0.0
 11
24.56193042656418
 21
12.97313463471937
 31
0.0
  0
LINE
  5
9CB
330
1F
100
AcDbEntity
  8
DIM
 62
     7
100
AcDbLine
 10
23.83993042656417
 20
11.79927379723715
 30
0.0
 11
24.56193042656417
 21
11.79927379723715
 31
0.0
  0
LINE
  5
9CC
330
1F
100
AcDbEntity
  8
DIM
 62
     7
100
AcDbLine
 10
25.28393042656417
 20
11.79927379723715
 30
0.0
 11
26.00593042656418
 21
11.79927379723715
 31
0.0
  0
LINE
  5
9CD
330
1F
100
AcDbEntity
  8
DIM
 62
     7
100
AcDbLine
 10
25.28393042656417
 20
12.97313463471937
 30
0.0
 11
26.00593042656418
 21
12.97313463471937
 31
0.0
  0
LINE
  5
9CE
330
1F
100
AcDbEntity
  8
DIM
 62
     7
100
AcDbLine
 10
26.72793042656418
 20
12.97313463471937
 30
0.0
 11
27.44993042656418
 21
12.97313463471937
 31
0.0
  0
LINE
  5
9CF
330
1F
100
AcDbEntity
  8
DIM
 62
     7
100
AcDbLine
 10
26.72793042656418
 20
11.79927379723715
 30
0.0
 11
27.44993042656418
 21
11.79927379723715
 31
0.0
  0
LINE
  5
9D0
330
1F
100
AcDbEntity
  8
DIM
 62
     7
100
AcDbLine
 10
28.17193042656418
 20
11.79927379723715
 30
0.0
 11
28.89393042656418
 21
11.79927379723715
 31
0.0
  0
LINE
  5
9D1
330
1F
100
AcDbEntity
  8
DIM
 62
     7
100
AcDbLine
 10
28.17193042656418
 20
12.97313463471937
 30
0.0
 11
28.89393042656418
 21
12.97313463471937
 31
0.0
  0
LINE
  5
9D2
330
1F
100
AcDbEntity
  8
DIM
 62
     7
100
AcDbLine
 10
29.61793042656417
 20
12.97313463471938
 30
0.0
 11
31.01793042656417
 21
12.97313463471937
 31
0.0
  0
LINE
  5
9D3
330
1F
100
AcDbEntity
  8
DIM
 62
     7
100
AcDbLine
 10
29.61793042656417
 20
11.79927379723715
 30
0.0
 11
31.01793042656417
 21
11.79927379723715
 31
0.0
  0
LINE
  5
9D4
330
1F
100
AcDbEntity
  8
BORDER
 62
     7
100
AcDbLine
 10
49.0475218079073
 20
10.68942841037167
 30
0.0
 11
50.7975218079073
 21
10.68942841037167
 31
0.0
  0
CIRCLE
  5
9D5
330
1F
100
AcDbEntity
  8
0
100
AcDbCircle
 10
49.88996872431883
 20
13.21937431359607
 30
0.0
 40
0.1560963348831876
  0
CIRCLE
  5
9D6
330
1F
100
AcDbEntity
  8
0
100
AcDbCircle
 10
49.88996872431883
 20
11.71180377362714
 30
0.0
 40
0.1560963348831876
  0
LEADER
  5
9D7
330
1F
100
AcDbEntity
  8
DIM
100
AcDbLeader
  3
Standard
 76
     2
 10
50.04606505920202
 20
13.27135952553773
 30
0.0
 10
51.72843654500735
 20
13.27135952553773
 30
0.0
1001
ACAD
1000
DSTYLE
1002
{
1070
   147
1040
0.09
1070
    77
1070
     0
1070
    40
1040
2.0
1002
}
  0
TEXT
  5
9D8
330
1F
100
AcDbEntity
  8
DIM
100
AcDbText
 10
51.8325007682628
 20
13.18471757300599
 30
0.0
 40
0.2
  1
NOT TO SCALE OR
100
AcDbText
  0
TEXT
  5
9D9
330
1F
100
AcDbEntity
  8
DIM
100
AcDbText
 10
51.8325007682628
 20
12.85138423967266
 30
0.0
 40
0.2
  1
LOCATED CORRECTLY
100
AcDbText
  0
TEXT
  5
9DA
330
1F
100
AcDbEntity
  8
DIM
100
AcDbText
 10
51.8325007682628
 20
12.51805090633933
 30
0.0
 40
0.2
  1
FOR REF ONLY
100
AcDbText
  0
DIMENSION
  5
A61
102
{ACAD_XDICTIONARY
360
A6F
102
}
102
{ACAD_REACTORS
330
A7A
102
}
330
1F
100
AcDbEntity
  8
DIM
100
AcDbDimension
280
     0
  2
*D13
 10
33.18095620482765
 20
19.06620110774958
 30
0.0
 11
33.18095620482765
 21
20.31620110774959
 31
0.0
 70
    32
 71
     5
 42
2.5
 73
     0
 74
     0
 75
     0
  3
Standard
100
AcDbAlignedDimension
 13
31.56793042656417
 23
21.56620110774959
 33
0.0
 14
32.11793042656417
 24
19.06620110774958
 34
0.0
 50
90.0
100
AcDbRotatedDimension
1001
ACAD
1000
DSTYLE
1002
{
1070
    40
1040
2.0
1002
}
  0
DIMENSION
  5
A95
102
{ACAD_XDICTIONARY
360
AA3
102
}
102
{ACAD_REACTORS
330
AAE
102
}
330
1F
100
AcDbEntity
  8
DIM
100
AcDbDimension
280
     0
  2
*D14
 10
33.18095620482765
 20
24.56620110774959
 30
0.0
 11
33.18095620482765
 21
23.06620110774959
 31
0.0
 70
    32
 71
     5
 42
3.0
 73
     0
 74
     0
 75
     0
  3
Standard
100
AcDbAlignedDimension
 13
31.56793042656417
 23
21.56620110774959
 33
0.0
 14
31.56793042656417
 24
24.56620110774959
 34
0.0
 50
90.0
100
AcDbRotatedDimension
1001
ACAD
1000
DSTYLE
1002
{
1070
    40
1040
2.0
1002
}
  0
DIMENSION
  5
AAF
102
{ACAD_XDICTIONARY
360
ABD
102
}
102
{ACAD_REACTORS
330
AC8
102
}
330
1F
100
AcDbEntity
  8
DIM
100
AcDbDimension
280
     0
  2
*D15
 10
33.18095620482765
 20
27.56620110774959
 30
0.0
 11
33.18095620482765
 21
26.06620110774959
 31
0.0
 70
    32
 71
     5
 42
3.0
 73
     0
 74
     0
 75
     0
  3
Standard
100
AcDbAlignedDimension
 13
31.56793042656417
 23
24.56620110774959
 33
0.0
 14
31.56793042656417
 24
27.56620110774959
 34
0.0
 50
90.0
100
AcDbRotatedDimension
1001
ACAD
1000
DSTYLE
1002
{
1070
    40
1040
2.0
1002
}
  0
VIEWPORT
  5
2E
330
1B
100
AcDbEntity
 67
     1
  8
0
100
AcDbViewport
 10
7.980617053026048
 20
4.973740930553573
 30
0.0
 40
22.37091445454034
 41
10.06983198945889
 68
     1
 69
     1
 12
7.980617053026048
 22
4.973740930553573
 13
0.0
 23
0.0
 14
0.5
 24
0.5
 15
0.5
 25
0.5
 16
0.0
 26
0.0
 36
1.0
 17
0.0
 27
0.0
 37
0.0
 42
50.0
 43
0.0
 44
0.0
 45
10.06983198945889
 50
0.0
 51
0.0
 72
   100
 90
    32832
  1

281
     0
 71
     1
 74
     0
110
0.0
120
0.0
130
0.0
111
1.0
121
0.0
131
0.0
112
0.0
122
1.0
132
0.0
 79
     0
146
0.0
170
     0
 61
     5
348
9E7
292
     1
282
     1
141
0.0
142
0.0
 63
   250
421
  3355443
  0
LINE
  5
4A6
330
1B
100
AcDbEntity
 67
     1
  8
BORDER
100
AcDbLine
 10
-0.018910355572956
 20
-0.0263756575647953
 30
0.0
 11
15.98108964442704
 21
-0.0263756575647953
 31
0.0
  0
LINE
  5
4A7
330
1B
100
AcDbEntity
 67
     1
  8
BORDER
100
AcDbLine
 10
15.98108964442704
 20
-0.0263756575647953
 30
0.0
 11
15.98108964442704
 21
9.973624342435204
 31
0.0
  0
LINE
  5
4A8
330
1B
100
AcDbEntity
 67
     1
  8
BORDER
100
AcDbLine
 10
15.98108964442704
 20
9.973624342435204
 30
0.0
 11
-0.018910355572956
 21
9.973624342435204
 31
0.0
  0
LINE
  5
4A9
330
1B
100
AcDbEntity
 67
     1
  8
BORDER
100
AcDbLine
 10
-0.018910355572956
 20
9.973624342435204
 30
0.0
 11
-0.018910355572956
 21
-0.0263756575647953
 31
0.0
  0
INSERT
  5
4AA
330
1B
100
AcDbEntity
 67
     1
  8
BORDER
100
AcDbBlockReference
 66
     1
  2
TITLEB
 10
15.98108964442704
 20
-0.0263756575647953
 30
0.0
1001
MASTER-TITLE
1002
{
1000
MGTITLE
1002
}
  0
ATTRIB
  5
4AB
330
4AA
100
AcDbEntity
 67
     1
  8
0
100
AcDbText
 10
14.69983964442704
 20
0.2236243424352047
 30
0.0
 40
0.1875
  1
 25254
 41
0.8000000000000001
100
AcDbAttribute
280
     0
  2
DWGNO
 70
     0
280
     0
  0
ATTRIB
  5
4AC
330
4AA
100
AcDbEntity
 67
     1
  8
0
100
AcDbText
 10
12.63733964442704
 20
0.2548743424352047
 30
0.0
 40
0.125
  1
RJC
 41
0.8
100
AcDbAttribute
280
     0
  2
DRNBY
 70
     0
280
     0
  0
ATTRIB
  5
4AD
330
4AA
100
AcDbEntity
 67
     1
  8
0
100
AcDbText
 10
13.48108964442704
 20
0.2548743424352047
 30
0.0
 40
0.125
  1
4/12/10
 41
0.9857142857142857
 72
     5
 11
14.19983964442704
 21
0.2548743424352047
 31
0.0
100
AcDbAttribute
280
     0
  2
DATE
 70
     0
280
     0
  0
ATTRIB
  5
4AE
330
4AA
100
AcDbEntity
 67
     1
  8
0
100
AcDbText
 10
12.57483964442704
 20
0.0048743424352047
 30
0.0
 40
0.125
  1
--
 41
0.8
100
AcDbAttribute
280
     0
  2
SCALE
 70
     0
280
     0
  0
ATTRIB
  5
4AF
330
4AA
100
AcDbEntity
 67
     1
  8
0
100
AcDbText
 10
13.57483964442704
 20
0.0048743424352047
 30
0.0
 40
0.125
  1

 41
0.8
100
AcDbAttribute
280
     0
  2
APRVD
 70
     0
280
     0
  0
ATTRIB
  5
4B0
330
4AA
100
AcDbEntity
 67
     1
  8
0
100
AcDbText
 10
15.32483964442704
 20
0.0048743424352047
 30
0.0
 40
0.125
  1
1
 41
0.8
100
AcDbAttribute
280
     0
  2
SHT
 70
     0
280
     0
  0
ATTRIB
  5
4B1
330
4AA
100
AcDbEntity
 67
     1
  8
0
100
AcDbText
 10
15.69983964442704
 20
0.0048743424352047
 30
0.0
 40
0.125
  1
 1
 41
0.8
100
AcDbAttribute
280
     0
  2
OFSHT
 70
     0
280
     0
  0
ATTRIB
  5
4B2
330
4AA
100
AcDbEntity
 67
     1
  8
0
100
AcDbText
 10
12.38733964442704
 20
0.8486243424352046
 30
0.0
 40
0.1875
  1
3 PHASE RIBBON RESISTOR 
 41
0.8000000000000001
100
AcDbAttribute
280
     0
  2
DESC1
 70
     0
280
     0
  0
ATTRIB
  5
4B3
330
4AA
100
AcDbEntity
 67
     1
  8
0
100
AcDbText
 10
12.38733964442704
 20
0.5673743424352047
 30
0.0
 40
0.1875
  1
ASSEMBLY .051 OHM, 3000 W.
 41
0.8000000000000001
100
AcDbAttribute
280
     0
  2
DESC2
 70
     0
280
     0
  0
ATTRIB
  5
4B4
330
4AA
100
AcDbEntity
 67
     1
  8
0
100
AcDbText
 10
11.76233964442704
 20
1.067374342435204
 30
0.0
 40
0.125
  1
.01
 41
0.8
100
AcDbAttribute
280
     0
  2
TOLXX
 70
     0
280
     0
  0
ATTRIB
  5
4B5
330
4AA
100
AcDbEntity
 67
     1
  8
0
100
AcDbText
 10
11.76233964442704
 20
0.8173743424352046
 30
0.0
 40
0.125
  1
.005
 41
0.8
100
AcDbAttribute
280
     0
  2
TOLXXX
 70
     0
280
     0
  0
ATTRIB
  5
4B6
330
4AA
100
AcDbEntity
 67
     1
  8
0
100
AcDbText
 10
11.51233964442704
 20
0.4423743424352047
 30
0.0
 40
0.125
  1
1/32
 41
0.8
100
AcDbAttribute
280
     0
  2
TOLFRAC
 70
     0
280
     0
  0
ATTRIB
  5
4B7
330
4AA
100
AcDbEntity
 67
     1
  8
0
100
AcDbText
 10
11.51233964442704
 20
0.0673743424352047
 30
0.0
 40
0.125
  1
1/2%%d
 41
0.8
100
AcDbAttribute
280
     0
  2
TOLANG
 70
     0
280
     0
  0
ATTRIB
  5
4B8
330
4AA
100
AcDbEntity
 67
     1
  8
0
100
AcDbText
 10
14.38733964442704
 20
0.0673743424352047
 30
0.0
 40
0.25
  1
B
 41
0.8
100
AcDbAttribute
280
     0
  2
DWG.SIZE
 70
     0
280
     0
  0
SEQEND
  5
4B9
330
4AA
100
AcDbEntity
 67
     1
  8
BORDER
  0
LWPOLYLINE
  5
4BA
330
1B
100
AcDbEntity
 67
     1
  8
BORDER
100
AcDbPolyline
 90
        3
 70
     0
 43
0.0
 10
7.231089644427044
 20
-0.0263756575647953
 10
15.98108964442704
 20
-0.0263756575647953
 10
15.98108964442704
 20
1.723624342435205
  0
LINE
  5
4BB
330
1B
100
AcDbEntity
 67
     1
  8
BORDER
100
AcDbLine
 10
15.98108964442704
 20
1.723624342435204
 30
0.0
 11
7.231089644427044
 21
1.723624342435204
 31
0.0
  0
LINE
  5
4BC
330
1B
100
AcDbEntity
 67
     1
  8
BORDER
100
AcDbLine
 10
7.231089644427044
 20
-0.0263756575647953
 30
0.0
 11
7.231089644427044
 21
1.723624342435204
 31
0.0
  0
LINE
  5
536
330
1B
100
AcDbEntity
 67
     1
  8
BORDER
100
AcDbLine
 10
15.98108964442704
 20
1.723624342435205
 30
0.0
 11
7.231089644427044
 21
1.723624342435205
 31
0.0
  0
LINE
  5
537
330
1B
100
AcDbEntity
 67
     1
  8
BORDER
100
AcDbLine
 10
7.231089644427044
 20
-0.0263756575647944
 30
0.0
 11
7.231089644427044
 21
1.723624342435205
 31
0.0
  0
INSERT
  5
538
330
1B
100
AcDbEntity
 67
     1
  8
BORDER
100
AcDbBlockReference
 66
     1
  2
REVISE12
 10
7.231089644427044
 20
0.4736243424352047
 30
0.0
  0
ATTRIB
  5
539
330
538
100
AcDbEntity
 67
     1
  8
0
100
AcDbText
 10
7.262339644427044
 20
0.5361243424352056
 30
0.0
 40
0.125
  1

 41
0.9
 72
     5
 11
7.449839644427044
 21
0.5361243424352056
 31
0.0
100
AcDbAttribute
280
     0
  2
NO
 70
     8
280
     0
  0
ATTRIB
  5
53A
330
538
100
AcDbEntity
 67
     1
  8
0
100
AcDbText
 10
7.543589644427044
 20
0.5361243424352056
 30
0.0
 40
0.125
  1

100
AcDbAttribute
280
     0
  2
REV
 70
     8
280
     0
  0
ATTRIB
  5
53B
330
538
100
AcDbEntity
 67
     1
  8
0
100
AcDbText
 10
10.04358964442704
 20
0.5361243424352056
 30
0.0
 40
0.125
  1

 41
1.125
 72
     5
 11
10.69983964442704
 21
0.5361243424352056
 31
0.0
100
AcDbAttribute
280
     0
  2
RDATE
 70
     8
280
     0
  0
ATTRIB
  5
53C
330
538
100
AcDbEntity
 67
     1
  8
0
100
AcDbText
 10
10.76233964442704
 20
0.5361243424352056
 30
0.0
 40
0.125
  1

100
AcDbAttribute
280
     0
  2
BY
 70
     8
280
     0
  0
SEQEND
  5
53D
330
538
100
AcDbEntity
 67
     1
  8
BORDER
  0
INSERT
  5
53E
330
1B
100
AcDbEntity
 67
     1
  8
BORDER
100
AcDbBlockReference
 66
     1
  2
REVISE12
 10
7.231089644427044
 20
0.7236243424352047
 30
0.0
  0
ATTRIB
  5
53F
330
53E
100
AcDbEntity
 67
     1
  8
0
100
AcDbText
 10
7.262339644427044
 20
0.7861243424352056
 30
0.0
 40
0.125
  1

 41
0.9
 72
     5
 11
7.449839644427044
 21
0.7861243424352056
 31
0.0
100
AcDbAttribute
280
     0
  2
NO
 70
     8
280
     0
  0
ATTRIB
  5
540
330
53E
100
AcDbEntity
 67
     1
  8
0
100
AcDbText
 10
7.543589644427044
 20
0.7861243424352056
 30
0.0
 40
0.125
  1

100
AcDbAttribute
280
     0
  2
REV
 70
     8
280
     0
  0
ATTRIB
  5
541
330
53E
100
AcDbEntity
 67
     1
  8
0
100
AcDbText
 10
10.04358964442704
 20
0.7861243424352056
 30
0.0
 40
0.125
  1

 41
1.125
 72
     5
 11
10.69983964442704
 21
0.7861243424352056
 31
0.0
100
AcDbAttribute
280
     0
  2
RDATE
 70
     8
280
     0
  0
ATTRIB
  5
542
330
53E
100
AcDbEntity
 67
     1
  8
0
100
AcDbText
 10
10.76233964442704
 20
0.7861243424352056
 30
0.0
 40
0.125
  1

100
AcDbAttribute
280
     0
  2
BY
 70
     8
280
     0
  0
SEQEND
  5
543
330
53E
100
AcDbEntity
 67
     1
  8
BORDER
  0
INSERT
  5
544
330
1B
100
AcDbEntity
 67
     1
  8
BORDER
100
AcDbBlockReference
 66
     1
  2
REVISE12
 10
7.231089644427044
 20
0.9736243424352046
 30
0.0
  0
ATTRIB
  5
545
330
544
100
AcDbEntity
 67
     1
  8
0
100
AcDbText
 10
7.262339644427044
 20
1.036124342435205
 30
0.0
 40
0.125
  1

 41
0.9
 72
     5
 11
7.449839644427044
 21
1.036124342435205
 31
0.0
100
AcDbAttribute
280
     0
  2
NO
 70
     8
280
     0
  0
ATTRIB
  5
546
330
544
100
AcDbEntity
 67
     1
  8
0
100
AcDbText
 10
7.543589644427044
 20
1.036124342435205
 30
0.0
 40
0.125
  1

100
AcDbAttribute
280
     0
  2
REV
 70
     8
280
     0
  0
ATTRIB
  5
547
330
544
100
AcDbEntity
 67
     1
  8
0
100
AcDbText
 10
10.04358964442704
 20
1.036124342435205
 30
0.0
 40
0.125
  1

 41
1.125
 72
     5
 11
10.69983964442704
 21
1.036124342435205
 31
0.0
100
AcDbAttribute
280
     0
  2
RDATE
 70
     8
280
     0
  0
ATTRIB
  5
548
330
544
100
AcDbEntity
 67
     1
  8
0
100
AcDbText
 10
10.76233964442704
 20
1.036124342435205
 30
0.0
 40
0.125
  1

100
AcDbAttribute
280
     0
  2
BY
 70
     8
280
     0
  0
SEQEND
  5
549
330
544
100
AcDbEntity
 67
     1
  8
BORDER
  0
INSERT
  5
54A
330
1B
100
AcDbEntity
 67
     1
  8
BORDER
100
AcDbBlockReference
 66
     1
  2
REVISE12
 10
7.231089644427044
 20
1.223624342435204
 30
0.0
  0
ATTRIB
  5
54B
330
54A
100
AcDbEntity
 67
     1
  8
0
100
AcDbText
 10
7.262339644427044
 20
1.286124342435205
 30
0.0
 40
0.125
  1

 41
0.9
 72
     5
 11
7.449839644427044
 21
1.286124342435205
 31
0.0
100
AcDbAttribute
280
     0
  2
NO
 70
     8
280
     0
  0
ATTRIB
  5
54C
330
54A
100
AcDbEntity
 67
     1
  8
0
100
AcDbText
 10
7.543589644427044
 20
1.286124342435205
 30
0.0
 40
0.125
  1

100
AcDbAttribute
280
     0
  2
REV
 70
     8
280
     0
  0
ATTRIB
  5
54D
330
54A
100
AcDbEntity
 67
     1
  8
0
100
AcDbText
 10
10.04358964442704
 20
1.286124342435205
 30
0.0
 40
0.125
  1

 41
1.125
 72
     5
 11
10.69983964442704
 21
1.286124342435205
 31
0.0
100
AcDbAttribute
280
     0
  2
RDATE
 70
     8
280
     0
  0
ATTRIB
  5
54E
330
54A
100
AcDbEntity
 67
     1
  8
0
100
AcDbText
 10
10.76233964442704
 20
1.286124342435205
 30
0.0
 40
0.125
  1

100
AcDbAttribute
280
     0
  2
BY
 70
     8
280
     0
  0
SEQEND
  5
54F
330
54A
100
AcDbEntity
 67
     1
  8
BORDER
  0
INSERT
  5
550
330
1B
100
AcDbEntity
 67
     1
  8
BORDER
100
AcDbBlockReference
 66
     1
  2
REVISE12
 10
7.231089644427044
 20
1.473624342435204
 30
0.0
  0
ATTRIB
  5
551
330
550
100
AcDbEntity
 67
     1
  8
0
100
AcDbText
 10
7.262339644427044
 20
1.536124342435204
 30
0.0
 40
0.125
  1

 41
0.9
 72
     5
 11
7.449839644427044
 21
1.536124342435204
 31
0.0
100
AcDbAttribute
280
     0
  2
NO
 70
     8
280
     0
  0
ATTRIB
  5
552
330
550
100
AcDbEntity
 67
     1
  8
0
100
AcDbText
 10
7.543589644427044
 20
1.536124342435204
 30
0.0
 40
0.125
  1

100
AcDbAttribute
280
     0
  2
REV
 70
     8
280
     0
  0
ATTRIB
  5
553
330
550
100
AcDbEntity
 67
     1
  8
0
100
AcDbText
 10
10.04358964442704
 20
1.536124342435204
 30
0.0
 40
0.125
  1

 41
1.125
 72
     5
 11
10.69983964442704
 21
1.536124342435204
 31
0.0
100
AcDbAttribute
280
     0
  2
RDATE
 70
     8
280
     0
  0
ATTRIB
  5
554
330
550
100
AcDbEntity
 67
     1
  8
0
100
AcDbText
 10
10.76233964442704
 20
1.536124342435204
 30
0.0
 40
0.125
  1

100
AcDbAttribute
280
     0
  2
BY
 70
     8
280
     0
  0
SEQEND
  5
555
330
550
100
AcDbEntity
 67
     1
  8
BORDER
  0
INSERT
  5
556
330
1B
100
AcDbEntity
 67
     1
  8
BORDER
100
AcDbBlockReference
 66
     1
  2
REVISE12
 10
7.231089644427044
 20
1.473624342435205
 30
0.0
  0
ATTRIB
  5
557
330
556
100
AcDbEntity
 67
     1
  8
0
100
AcDbText
 10
7.262339644427044
 20
1.536124342435205
 30
0.0
 40
0.125
  1

 41
0.9
 72
     5
 11
7.449839644427044
 21
1.536124342435205
 31
0.0
100
AcDbAttribute
280
     0
  2
NO
 70
     8
280
     0
  0
ATTRIB
  5
558
330
556
100
AcDbEntity
 67
     1
  8
0
100
AcDbText
 10
7.543589644427044
 20
1.536124342435205
 30
0.0
 40
0.125
  1

100
AcDbAttribute
280
     0
  2
REV
 70
     8
280
     0
  0
ATTRIB
  5
559
330
556
100
AcDbEntity
 67
     1
  8
0
100
AcDbText
 10
10.04358964442704
 20
1.536124342435205
 30
0.0
 40
0.125
  1

 41
1.125
 72
     5
 11
10.69983964442704
 21
1.536124342435205
 31
0.0
100
AcDbAttribute
280
     0
  2
RDATE
 70
     8
280
     0
  0
ATTRIB
  5
55A
330
556
100
AcDbEntity
 67
     1
  8
0
100
AcDbText
 10
10.76233964442704
 20
1.536124342435205
 30
0.0
 40
0.125
  1

100
AcDbAttribute
280
     0
  2
BY
 70
     8
280
     0
  0
SEQEND
  5
55B
330
556
100
AcDbEntity
 67
     1
  8
BORDER
  0
INSERT
  5
55C
330
1B
100
AcDbEntity
 67
     1
  8
BORDER
100
AcDbBlockReference
 66
     1
  2
REVISE12
 10
7.231089644427044
 20
0.2236243424352047
 30
0.0
  0
ATTRIB
  5
55D
330
55C
100
AcDbEntity
 67
     1
  8
0
100
AcDbText
 10
7.262339644427044
 20
0.2861243424352056
 30
0.0
 40
0.125
  1
A
 41
2.25
 72
     5
 11
7.449839644427044
 21
0.2861243424352056
 31
0.0
100
AcDbAttribute
280
     0
  2
NO
 70
     8
280
     0
  0
ATTRIB
  5
55E
330
55C
100
AcDbEntity
 67
     1
  8
0
100
AcDbText
 10
7.543589644427044
 20
0.2861243424352056
 30
0.0
 40
0.125
  1
2673, WAS P/N P13134
100
AcDbAttribute
280
     0
  2
REV
 70
     8
280
     0
  0
ATTRIB
  5
55F
330
55C
100
AcDbEntity
 67
     1
  8
0
100
AcDbText
 10
10.04358964442704
 20
0.2861243424352056
 30
0.0
 40
0.125
  1
4/12/10
 41
0.9000000000000001
 72
     5
 11
10.69983964442704
 21
0.2861243424352056
 31
0.0
100
AcDbAttribute
280
     0
  2
RDATE
 70
     8
280
     0
  0
ATTRIB
  5
560
330
55C
100
AcDbEntity
 67
     1
  8
0
100
AcDbText
 10
10.76233964442704
 20
0.2861243424352056
 30
0.0
 40
0.125
  1
RJC
100
AcDbAttribute
280
     0
  2
BY
 70
     8
280
     0
  0
SEQEND
  5
561
330
55C
100
AcDbEntity
 67
     1
  8
BORDER
  0
LWPOLYLINE
  5
5F2
102
{ACAD_REACTORS
330
5F4
102
}
330
1B
100
AcDbEntity
 67
     1
  8
VIEWPORT
 62
     8
100
AcDbPolyline
 90
        6
 70
     1
 43
0.0
 10
0.2575477123728689
 20
9.843548805775203
 10
15.86873048786209
 20
9.843548805775203
 10
15.86873048786209
 20
1.797918028634843
 10
7.115858589877802
 20
1.797918028634843
 10
7.115858589877802
 20
0.0373447138403016
 10
0.2386021055919514
 20
0.0373447138403016
  0
VIEWPORT
  5
5F4
330
1B
100
AcDbEntity
 67
     1
  8
VIEWPORT
 62
     8
100
AcDbViewport
 10
8.053666296727019
 20
4.940446759807752
 30
0.0
 40
15.63012838227013
 41
9.806204091934901
 68
     2
 69
     2
 12
29.41267735991516
 22
15.1465236699399
 13
0.0
 23
0.0
 14
0.5
 24
0.5
 15
0.5
 25
0.5
 16
0.0
 26
0.0
 36
1.0
 17
0.0
 27
0.0
 37
0.0
 42
50.0
 43
0.0
 44
0.0
 45
34.39241191482272
 50
0.0
 51
0.0
 72
   100
 90
    98368
340
5F2
  1

281
     0
 71
     1
 74
     0
110
0.0
120
0.0
130
0.0
111
1.0
121
0.0
131
0.0
112
0.0
122
1.0
132
0.0
 79
     0
146
0.0
170
     0
 61
     5
348
9E7
292
     1
282
     1
141
0.0
142
0.0
 63
   250
421
  3355443
  0
TEXT
  5
B05
330
1B
100
AcDbEntity
 67
     1
  8
DIM
100
AcDbText
 10
11.19276611785814
 20
7.83161812890826
 30
0.0
 40
0.2
  1
.051 0HM
100
AcDbText
  0
TEXT
  5
B06
330
1B
100
AcDbEntity
 67
     1
  8
DIM
100
AcDbText
 10
11.19276611785814
 20
7.498284795574927
 30
0.0
 40
0.2
  1
3000 WATT
100
AcDbText
  0
ENDSEC
  0
SECTION
  2
OBJECTS
  0
DICTIONARY
  5
C
330
0
100
AcDbDictionary
281
     1
  3
ACAD_CIP_PREVIOUS_PRODUCT_INFO
350
BFA
  3
ACAD_COLOR
350
9F2
  3
ACAD_DETAILVIEWSTYLE
350
BF6
  3
ACAD_GROUP
350
D
  3
ACAD_LAYOUT
350
1A
  3
ACAD_MATERIAL
350
9DD
  3
ACAD_MLEADERSTYLE
350
BF2
  3
ACAD_MLINESTYLE
350
17
  3
ACAD_PLOTSETTINGS
350
19
  3
ACAD_PLOTSTYLENAME
350
E
  3
ACAD_SCALELIST
350
BE0
  3
ACAD_SECTIONVIEWSTYLE
350
BF4
  3
ACAD_TABLESTYLE
350
9F3
  3
ACAD_VISUALSTYLE
350
9E1
  3
ACDB_RECOMPOSE_DATA
350
C17
  3
AcDbVariableDictionary
350
261
  0
DICTIONARY
  5
A28
330
8
100
AcDbDictionary
280
     1
281
     1
  0
DICTIONARY
  5
9F8
330
2
100
AcDbDictionary
280
     1
281
     1
  3
ACAD_LAYERFILTERS
360
9FA
  3
ACLYDICTIONARY
360
9F9
  0
DICTIONARY
  5
BFD
330
10
100
AcDbDictionary
280
     1
281
     1
  3
ADSK_XREC_LAYER_RECONCILED
360
BFE
  0
DICTIONARY
  5
BFF
330
274
100
AcDbDictionary
280
     1
281
     1
  3
ADSK_XREC_LAYER_RECONCILED
360
C00
  0
DICTIONARY
  5
C01
330
572
100
AcDbDictionary
280
     1
281
     1
  3
ADSK_XREC_LAYER_RECONCILED
360
C02
  0
DICTIONARY
  5
C03
330
573
100
AcDbDictionary
280
     1
281
     1
  3
ADSK_XREC_LAYER_RECONCILED
360
C04
  0
DICTIONARY
  5
C05
330
575
100
AcDbDictionary
280
     1
281
     1
  3
ADSK_XREC_LAYER_RECONCILED
360
C06
  0
DICTIONARY
  5
C07
330
816
100
AcDbDictionary
280
     1
281
     1
  3
ADSK_XREC_LAYER_RECONCILED
360
C08
  0
DICTIONARY
  5
8BC
330
8AE
100
AcDbDictionary
280
     1
281
     1
  3
ACAD_DIMASSOC
360
8C7
  0
DICTIONARY
  5
8E0
330
8D2
100
AcDbDictionary
280
     1
281
     1
  3
ACAD_DIMASSOC
360
8EB
  0
DICTIONARY
  5
8FA
330
8EC
100
AcDbDictionary
280
     1
281
     1
  3
ACAD_DIMASSOC
360
905
  0
DICTIONARY
  5
914
330
906
100
AcDbDictionary
280
     1
281
     1
  3
ACAD_DIMASSOC
360
91F
  0
DICTIONARY
  5
92E
330
920
100
AcDbDictionary
280
     1
281
     1
  3
ACAD_DIMASSOC
360
939
  0
DICTIONARY
  5
948
330
93A
100
AcDbDictionary
280
     1
281
     1
  3
ACAD_DIMASSOC
360
953
  0
DICTIONARY
  5
97C
330
96E
100
AcDbDictionary
280
     1
281
     1
  3
ACAD_DIMASSOC
360
987
  0
DICTIONARY
  5
996
330
988
100
AcDbDictionary
280
     1
281
     1
  3
ACAD_DIMASSOC
360
9A1
  0
DICTIONARY
  5
A6F
330
A61
100
AcDbDictionary
280
     1
281
     1
  3
ACAD_DIMASSOC
360
A7A
  0
DICTIONARY
  5
AA3
330
A95
100
AcDbDictionary
280
     1
281
     1
  3
ACAD_DIMASSOC
360
AAE
  0
DICTIONARY
  5
ABD
330
AAF
100
AcDbDictionary
280
     1
281
     1
  3
ACAD_DIMASSOC
360
AC8
  0
XRECORD
  5
BFA
102
{ACAD_REACTORS
330
C
102
}
330
C
100
AcDbXrecord
280
     1
300
AMECH_PP
300
2014
300
86133PDSU_2014_0F
  0
DICTIONARY
  5
9F2
102
{ACAD_REACTORS
330
C
102
}
330
C
100
AcDbDictionary
281
     1
  0
DICTIONARY
  5
BF6
102
{ACAD_REACTORS
330
C
102
}
330
C
100
AcDbDictionary
281
     1
  3
Imperial24
350
BF7
  0
DICTIONARY
  5
D
102
{ACAD_REACTORS
330
C
102
}
330
C
100
AcDbDictionary
281
     1
  0
DICTIONARY
  5
1A
102
{ACAD_REACTORS
330
C
102
}
330
C
100
AcDbDictionary
281
     1
  3
Model
350
22
  3
TCI-B
350
1E
  0
DICTIONARY
  5
9DD
102
{ACAD_REACTORS
330
C
102
}
330
C
100
AcDbDictionary
281
     1
  3
ByBlock
350
9DF
  3
ByLayer
350
9DE
  3
Global
350
9E0
  0
DICTIONARY
  5
BF2
102
{ACAD_REACTORS
330
C
102
}
330
C
100
AcDbDictionary
281
     1
  3
Standard
350
BF3
  0
DICTIONARY
  5
17
102
{ACAD_REACTORS
330
C
102
}
330
C
100
AcDbDictionary
281
     1
  3
Standard
350
18
  0
DICTIONARY
  5
19
102
{ACAD_REACTORS
330
C
102
}
330
C
100
AcDbDictionary
281
     1
  3
ANSI B title block - no output device
350
AD
  0
ACDBDICTIONARYWDFLT
  5
E
102
{ACAD_REACTORS
330
C
102
}
330
C
100
AcDbDictionary
281
     1
  3
Normal
350
F
100
AcDbDictionaryWithDefault
340
F
  0
DICTIONARY
  5
BE0
102
{ACAD_REACTORS
330
C
102
}
330
C
100
AcDbDictionary
281
     1
  3
A0
350
BE1
  3
A1
350
BE2
  3
A2
350
BE3
  3
A3
350
BE4
  3
A4
350
BE5
  3
A5
350
BE6
  3
A6
350
BE7
  3
A7
350
BE8
  3
A8
350
BE9
  3
A9
350
BEA
  3
B0
350
BEB
  3
B1
350
BEC
  3
B2
350
BED
  3
B3
350
BEE
  3
B4
350
BEF
  3
B5
350
BF0
  3
B6
350
BF1
  0
DICTIONARY
  5
BF4
102
{ACAD_REACTORS
330
C
102
}
330
C
100
AcDbDictionary
281
     1
  3
Imperial24
350
BF5
  0
DICTIONARY
  5
9F3
102
{ACAD_REACTORS
330
C
102
}
330
C
100
AcDbDictionary
281
     1
  3
Standard
350
9F4
  0
DICTIONARY
  5
9E1
102
{ACAD_REACTORS
330
C
102
}
330
C
100
AcDbDictionary
281
     1
  3
2dWireframe
350
9E7
  3
3D Hidden
350
9E9
  3
3dWireframe
350
9E8
  3
Basic
350
9E6
  3
Brighten
350
9ED
  3
ColorChange
350
9F1
  3
Conceptual
350
9EA
  3
Dim
350
9EC
  3
EdgeColorOff
350
BDF
  3
Facepattern
350
9F0
  3
Flat
350
9E2
  3
FlatWithEdges
350
9E3
  3
Gouraud
350
9E4
  3
GouraudWithEdges
350
9E5
  3
Hidden
350
BD7
  3
JitterOff
350
BDD
  3
Linepattern
350
9EF
  3
OverhangOff
350
BDE
  3
Realistic
350
9EB
  3
Shaded
350
BDC
  3
Shaded with edges
350
BDB
  3
Shades of Gray
350
BD8
  3
Sketchy
350
BD9
  3
Thicken
350
9EE
  3
Wireframe
350
BD6
  3
X-Ray
350
BDA
  0
XRECORD
  5
C17
102
{ACAD_REACTORS
330
C
102
}
330
C
100
AcDbXrecord
280
     1
 90
        1
330
9F4
330
BF5
330
BF7
  0
DICTIONARY
  5
261
102
{ACAD_REACTORS
330
C
102
}
330
C
100
AcDbDictionary
281
     1
  3
CANNOSCALE
350
C0D
  3
CMLEADERSTYLE
350
C09
  3
CTABLESTYLE
350
A50
  3
CVIEWDETAILSTYLE
350
C0A
  3
CVIEWSECTIONSTYLE
350
C0B
  3
DIMASSOC
350
263
  3
HIDETEXT
350
262
  3
INDEXCTL
350
A52
  3
LAYEREVAL
350
C0F
  3
LAYERNOTIFY
350
C10
  3
LIGHTINGUNITS
350
C0E
  3
MSLTSCALE
350
C0C
  3
SORTENTS
350
A51
  0
DICTIONARY
  5
9FA
102
{ACAD_REACTORS
330
9F8
102
}
330
9F8
100
AcDbDictionary
281
     1
  0
DICTIONARY
  5
9F9
102
{ACAD_REACTORS
330
9F8
102
}
330
9F8
100
AcDbDictionary
281
     1
1001
ACAD
1000
<All
  0
XRECORD
  5
BFE
102
{ACAD_REACTORS
330
BFD
102
}
330
BFD
100
AcDbXrecord
280
     1
290
     1
  0
XRECORD
  5
C00
102
{ACAD_REACTORS
330
BFF
102
}
330
BFF
100
AcDbXrecord
280
     1
290
     1
  0
XRECORD
  5
C02
102
{ACAD_REACTORS
330
C01
102
}
330
C01
100
AcDbXrecord
280
     1
290
     1
  0
XRECORD
  5
C04
102
{ACAD_REACTORS
330
C03
102
}
330
C03
100
AcDbXrecord
280
     1
290
     1
  0
XRECORD
  5
C06
102
{ACAD_REACTORS
330
C05
102
}
330
C05
100
AcDbXrecord
280
     1
290
     1
  0
XRECORD
  5
C08
102
{ACAD_REACTORS
330
C07
102
}
330
C07
100
AcDbXrecord
280
     1
290
     1
  0
DIMASSOC
  5
8C7
102
{ACAD_REACTORS
330
8BC
102
}
330
8BC
100
AcDbDimAssoc
330
8AE
 90
        3
 70
     0
 71
     0
  1
AcDbOsnapPointRef
 72
     1
331
5FC
 73
     2
 91
        0
 40
1.0
 10
38.04752180790731
 20
13.35717136343073
 30
0.0
 75
     0
  1
AcDbOsnapPointRef
 72
    13
331
5FF
 73
     2
 91
        0
 40
0.0
 10
49.04752180790731
 20
13.25717136343073
 30
0.0
 75
     0
  0
DIMASSOC
  5
8EB
102
{ACAD_REACTORS
330
8E0
102
}
330
8E0
100
AcDbDimAssoc
330
8D2
 90
        3
 70
     0
 71
     0
  1
AcDbOsnapPointRef
 72
    13
331
5FD
 73
     2
 91
        0
 40
0.0
 10
38.04752180790731
 20
13.35717136343073
 30
0.0
 75
     0
  1
AcDbOsnapPointRef
 72
    13
331
5FC
 73
     2
 91
        0
 40
0.0
 10
50.7975218079073
 20
13.35717136343073
 30
0.0
 75
     0
  0
DIMASSOC
  5
905
102
{ACAD_REACTORS
330
8FA
102
}
330
8FA
100
AcDbDimAssoc
330
8EC
 90
        3
 70
     0
 71
     0
  1
AcDbOsnapPointRef
 72
     1
331
693
 73
     2
 91
        0
 40
1.0
 10
32.11793042656417
 20
19.06620110774958
 30
0.0
 75
     0
  1
AcDbOsnapPointRef
 72
    13
331
718
 73
     2
 91
        0
 40
0.0
 10
29.61593042656418
 20
31.81620110774959
 30
0.0
 75
     0
  0
DIMASSOC
  5
91F
102
{ACAD_REACTORS
330
914
102
}
330
914
100
AcDbDimAssoc
330
906
 90
        2
 70
     0
 71
     0
  1
AcDbOsnapPointRef
 72
    13
331
68E
 73
     2
 91
        0
 40
0.0
 10
32.11793042656417
 20
30.06620110774959
 30
0.0
 75
     0
  0
DIMASSOC
  5
939
102
{ACAD_REACTORS
330
92E
102
}
330
92E
100
AcDbDimAssoc
330
920
 90
        3
 70
     0
 71
     0
  1
AcDbOsnapPointRef
 72
     1
331
611
 73
     2
 91
        0
 40
1.0
 10
32.11793042656417
 20
7.35717136343073
 30
0.0
 75
     0
  1
AcDbOsnapPointRef
 72
    13
331
601
 73
     2
 91
        0
 40
0.0
 10
32.11793042656417
 20
13.35717136343073
 30
0.0
 75
     0
  0
DIMASSOC
  5
953
102
{ACAD_REACTORS
330
948
102
}
330
948
100
AcDbDimAssoc
330
93A
 90
        3
 70
     0
 71
     0
  1
AcDbOsnapPointRef
 72
     1
331
8AD
 73
     2
 91
        0
 40
1.0
 10
6.242930426564171
 20
6.972629742538099
 30
0.0
 75
     0
  1
AcDbOsnapPointRef
 72
     1
331
8AC
 73
     2
 91
        0
 40
1.0
 10
31.49293042656417
 20
6.972629742538099
 30
0.0
 75
     0
  0
DIMASSOC
  5
987
102
{ACAD_REACTORS
330
97C
102
}
330
97C
100
AcDbDimAssoc
330
96E
 90
        3
 70
     0
 71
     0
  1
AcDbOsnapPointRef
 72
    13
331
602
 73
     2
 91
        0
 40
0.0
 10
5.617930426564171
 20
7.35717136343073
 30
0.0
 75
     0
  1
AcDbOsnapPointRef
 72
     1
331
611
 73
     2
 91
        0
 40
1.0
 10
32.11793042656417
 20
7.35717136343073
 30
0.0
 75
     0
  0
DIMASSOC
  5
9A1
102
{ACAD_REACTORS
330
996
102
}
330
996
100
AcDbDimAssoc
330
988
 90
        3
 70
     0
 71
     0
  1
AcDbOsnapPointRef
 72
    13
331
8AC
 73
     2
 91
        0
 40
0.0
 10
31.49293042656417
 20
7.658284846418963
 30
0.0
 75
     0
  1
AcDbOsnapPointRef
 72
     1
331
611
 73
     2
 91
        0
 40
1.0
 10
32.11793042656417
 20
7.35717136343073
 30
0.0
 75
     0
  0
DIMASSOC
  5
A7A
102
{ACAD_REACTORS
330
A6F
102
}
330
A6F
100
AcDbDimAssoc
330
A61
 90
        3
 70
     0
 71
     0
  1
AcDbOsnapPointRef
 72
     6
331
6AC
 73
     2
 91
        0
 40
0.5000002439606642
 10
0.0
 20
0.0
 30
0.0
332
6AB
 74
     2
 92
        0
 75
     0
  1
AcDbOsnapPointRef
 72
     1
331
693
 73
     2
 91
        0
 40
1.0
 10
0.0
 20
0.0
 30
2.000000000000000E+50
 75
     0
  0
DIMASSOC
  5
AAE
102
{ACAD_REACTORS
330
AA3
102
}
330
AA3
100
AcDbDimAssoc
330
A95
 90
        3
 70
     0
 71
     0
  1
AcDbOsnapPointRef
 72
     6
331
6AC
 73
     2
 91
        0
 40
0.5000002439606642
 10
0.0
 20
0.0
 30
0.0
332
6AB
 74
     2
 92
        0
 75
     0
  1
AcDbOsnapPointRef
 72
     6
331
77B
 73
     2
 91
        0
 40
0.5
 10
0.0
 20
0.0
 30
0.0
332
778
 74
     2
 92
        0
 75
     0
  0
DIMASSOC
  5
AC8
102
{ACAD_REACTORS
330
ABD
102
}
330
ABD
100
AcDbDimAssoc
330
AAF
 90
        3
 70
     0
 71
     0
  1
AcDbOsnapPointRef
 72
     6
331
77B
 73
     2
 91
        0
 40
0.5
 10
0.0
 20
0.0
 30
0.0
332
778
 74
     2
 92
        0
 75
     0
  1
AcDbOsnapPointRef
 72
     6
331
6A5
 73
     2
 91
        0
 40
0.5
 10
0.0
 20
0.0
 30
0.0
332
6A4
 74
     2
 92
        0
 75
     0
  0
ACDBDETAILVIEWSTYLE
  5
BF7
102
{ACAD_XDICTIONARY
360
C15
102
}
102
{ACAD_REACTORS
330
BF6
102
}
330
BF6
100
AcDbModelDocViewStyle
 70
     0
  3
Imperial24
290
     0
100
AcDbDetailViewStyle
 70
     0
 71
     0
 90
        3
 71
     1
340
11
 62
   256
 40
0.24
340
0
 62
   256
 40
0.24
300

 40
0.36
280
     3
 71
     2
340
16
 90
       25
 62
   256
 71
     3
340
11
 62
   256
 40
0.24
 90
        1
 40
0.75
 90
        1
300
%<\AcVar ViewType \f "%tc1">% %<\AcVar ViewDetailId>%\PSCALE %<\AcVar ViewScale \f "%sn">%
 71
     4
340
16
 90
       25
 62
   256
340
16
 90
       25
 62
   256
280
     0
  0
LAYOUT
  5
22
102
{ACAD_REACTORS
330
1A
102
}
330
1A
100
AcDbPlotSettings
  1

  2
none_device
  4
none_user_media
  6

 40
7.460000038146972
 41
6.400000095367431
 42
11.27000427246094
 43
6.399993896484375
 44
215.8999938964844
 45
279.3999938964844
 46
0.0
 47
0.0
 48
0.0
 49
0.0
140
0.0
141
0.0
142
1.0
143
1.979912147698159
 70
 11952
 72
     0
 73
     1
 74
     0
  7

 75
     0
147
0.5050729150596895
 76
     0
 77
     2
 78
   300
148
1.821692977681004
149
47.9252139705347
100
AcDbLayout
  1
Model
 70
     1
 71
     0
 10
0.0
 20
0.0
 11
12.0
 21
9.0
 12
0.0
 22
0.0
 32
0.0
 14
0.0
 24
0.0
 34
0.0
 15
0.0
 25
0.0
 35
0.0
146
0.0
 13
0.0
 23
0.0
 33
0.0
 16
1.0
 26
0.0
 36
0.0
 17
0.0
 27
1.0
 37
0.0
 76
     0
330
1F
  0
LAYOUT
  5
1E
102
{ACAD_REACTORS
330
1A
102
}
330
1A
100
AcDbPlotSettings
  1

  2
none_device
  4
ANSI_B_(11.00_x_17.00_Inches)
  6

 40
6.4
 41
19.1
 42
6.4
 43
19.1
 44
279.3999938964844
 45
431.7999877929687
 46
6.349999999999999
 47
-6.349999999999999
 48
0.0
 49
0.0
140
0.0
141
0.0
142
1.0
143
1.0
 70
   692
 72
     0
 73
     1
 74
     1
  7
monochrome.ctb
 75
    16
147
1.0
 76
     0
 77
     2
 78
   300
148
0.5056923703613819
149
0.6708533071709369
100
AcDbLayout
  1
TCI-B
 70
     1
 71
     1
 10
-0.5031702833198187
 20
-0.5027604402395771
 11
16.4968292360884
 21
10.49723931946453
 12
0.0
 22
0.0
 32
0.0
 14
-0.0199091484394245
 24
-0.0264115475264148
 34
-0.0000000000112498
 15
15.98114325449152
 25
9.973893408633561
 35
0.0000000000002956
146
0.0
 13
0.0
 23
0.0
 33
0.0
 16
1.0
 26
0.0
 36
0.0
 17
0.0
 27
1.0
 37
0.0
 76
     0
330
1B
331
2E
  0
MATERIAL
  5
9DF
102
{ACAD_REACTORS
330
9DD
102
}
330
9DD
100
AcDbMaterial
  1
ByBlock
 73
     1
 78
     1
172
     1
176
     1
270
     1
274
     1
 94
       63
  0
MATERIAL
  5
9DE
102
{ACAD_REACTORS
330
9DD
102
}
330
9DD
100
AcDbMaterial
  1
ByLayer
 73
     1
 78
     1
172
     1
176
     1
270
     1
274
     1
 94
       63
  0
MATERIAL
  5
9E0
102
{ACAD_REACTORS
330
9DD
102
}
330
9DD
100
AcDbMaterial
  1
Global
 73
     1
 78
     1
172
     1
176
     1
270
     1
274
     1
 94
       63
  0
MLEADERSTYLE
  5
BF3
102
{ACAD_REACTORS
330
BF2
102
}
330
BF2
100
AcDbMLeaderStyle
179
     2
170
     2
171
     1
172
     0
 90
        2
 40
0.0
 41
0.0
173
     1
 91
-1056964608
340
14
 92
       -2
290
     1
 42
0.09
291
     1
 43
0.36
  3
Standard
 44
0.18
300

342
11
174
     1
178
     6
175
     1
176
     0
 93
-1056964608
 45
0.18
292
     0
297
     0
 46
0.18
 94
-1056964608
 47
1.0
 49
1.0
140
1.0
293
     1
141
0.0
294
     1
177
     0
142
1.0
295
     1
296
     0
143
0.125
271
     0
272
     9
273
     9
298
     1
  0
MLINESTYLE
  5
18
102
{ACAD_REACTORS
330
17
102
}
330
17
100
AcDbMlineStyle
  2
STANDARD
 70
     0
  3

 62
   256
 51
90.0
 52
90.0
 71
     2
 49
0.5
 62
   256
  6
BYLAYER
 49
-0.5
 62
   256
  6
BYLAYER
  0
PLOTSETTINGS
  5
AD
102
{ACAD_REACTORS
330
19
102
}
330
19
100
AcDbPlotSettings
  1
ANSI B title block - no output device
  2
None
  4
ANSI_B_(11.00_x_17.00_Inches)
  6

 40
6.4
 41
19.1
 42
6.4
 43
19.1
 44
279.3999938964844
 45
431.7999877929687
 46
6.349999999999999
 47
-6.349999999999999
 48
0.0
 49
0.0
140
0.0
141
0.0
142
1.0
143
1.0
 70
   692
 72
     0
 73
     1
 74
     1
  7

 75
    16
147
1.0
 76
     0
 77
     2
 78
   300
148
0.0199131222394598
149
0.0028019540496935
  0
ACDBPLACEHOLDER
  5
F
102
{ACAD_REACTORS
330
E
102
}
330
E
  0
SCALE
  5
BE1
102
{ACAD_REACTORS
330
BE0
102
}
330
BE0
100
AcDbScale
 70
     0
300
1:1
140
1.0
141
1.0
290
     1
  0
SCALE
  5
BE2
102
{ACAD_REACTORS
330
BE0
102
}
330
BE0
100
AcDbScale
 70
     0
300
1/128" = 1'-0"
140
0.0078125
141
12.0
290
     0
  0
SCALE
  5
BE3
102
{ACAD_REACTORS
330
BE0
102
}
330
BE0
100
AcDbScale
 70
     0
300
1/64" = 1'-0"
140
0.015625
141
12.0
290
     0
  0
SCALE
  5
BE4
102
{ACAD_REACTORS
330
BE0
102
}
330
BE0
100
AcDbScale
 70
     0
300
1/32" = 1'-0"
140
0.03125
141
12.0
290
     0
  0
SCALE
  5
BE5
102
{ACAD_REACTORS
330
BE0
102
}
330
BE0
100
AcDbScale
 70
     0
300
1/16" = 1'-0"
140
0.0625
141
12.0
290
     0
  0
SCALE
  5
BE6
102
{ACAD_REACTORS
330
BE0
102
}
330
BE0
100
AcDbScale
 70
     0
300
3/32" = 1'-0"
140
0.09375
141
12.0
290
     0
  0
SCALE
  5
BE7
102
{ACAD_REACTORS
330
BE0
102
}
330
BE0
100
AcDbScale
 70
     0
300
1/8" = 1'-0"
140
0.125
141
12.0
290
     0
  0
SCALE
  5
BE8
102
{ACAD_REACTORS
330
BE0
102
}
330
BE0
100
AcDbScale
 70
     0
300
3/16" = 1'-0"
140
0.1875
141
12.0
290
     0
  0
SCALE
  5
BE9
102
{ACAD_REACTORS
330
BE0
102
}
330
BE0
100
AcDbScale
 70
     0
300
1/4" = 1'-0"
140
0.25
141
12.0
290
     0
  0
SCALE
  5
BEA
102
{ACAD_REACTORS
330
BE0
102
}
330
BE0
100
AcDbScale
 70
     0
300
3/8" = 1'-0"
140
0.375
141
12.0
290
     0
  0
SCALE
  5
BEB
102
{ACAD_REACTORS
330
BE0
102
}
330
BE0
100
AcDbScale
 70
     0
300
1/2" = 1'-0"
140
0.5
141
12.0
290
     0
  0
SCALE
  5
BEC
102
{ACAD_REACTORS
330
BE0
102
}
330
BE0
100
AcDbScale
 70
     0
300
3/4" = 1'-0"
140
0.75
141
12.0
290
     0
  0
SCALE
  5
BED
102
{ACAD_REACTORS
330
BE0
102
}
330
BE0
100
AcDbScale
 70
     0
300
1" = 1'-0"
140
1.0
141
12.0
290
     0
  0
SCALE
  5
BEE
102
{ACAD_REACTORS
330
BE0
102
}
330
BE0
100
AcDbScale
 70
     0
300
1-1/2" = 1'-0"
140
1.5
141
12.0
290
     0
  0
SCALE
  5
BEF
102
{ACAD_REACTORS
330
BE0
102
}
330
BE0
100
AcDbScale
 70
     0
300
3" = 1'-0"
140
3.0
141
12.0
290
     0
  0
SCALE
  5
BF0
102
{ACAD_REACTORS
330
BE0
102
}
330
BE0
100
AcDbScale
 70
     0
300
6" = 1'-0"
140
6.0
141
12.0
290
     0
  0
SCALE
  5
BF1
102
{ACAD_REACTORS
330
BE0
102
}
330
BE0
100
AcDbScale
 70
     0
300
1'-0" = 1'-0"
140
12.0
141
12.0
290
     0
  0
ACDBSECTIONVIEWSTYLE
  5
BF5
102
{ACAD_XDICTIONARY
360
C13
102
}
102
{ACAD_REACTORS
330
BF4
102
}
330
BF4
100
AcDbModelDocViewStyle
 70
     0
  3
Imperial24
290
     0
100
AcDbSectionViewStyle
 70
     0
 71
     0
 90
       78
 71
     1
340
11
 62
   256
 40
0.24
340
0
340
0
 62
   256
 40
0.24
300
I, O, Q, S, X, Z
 40
0.48
 90
        3
 40
0.18
 90
        1
 71
     2
340
16
 90
       25
 62
   256
340
16
 90
       50
 62
   256
 40
0.24
 40
0.0
 40
0.24
 71
     3
340
11
 62
   256
 40
0.24
 90
        1
 40
0.75
 90
        1
300
%<\AcVar ViewType \f "%tc1">% %<\AcVar ViewSectionStartId>%-%<\AcVar ViewSectionEndId>%\PSCALE %<\AcVar ViewScale \f "%sn">%
 71
     4
 62
   256
 62
   257
300
ANSI31
 40
1.0
 90
        0
290
     0
290
     0
 90
        6
 40
0.0
 40
1.570796326794896
 40
0.2617993877991494
 40
1.308996938995747
 40
-0.2617993877991494
 40
1.832595714594046
  0
TABLESTYLE
  5
9F4
102
{ACAD_XDICTIONARY
360
C11
102
}
102
{ACAD_REACTORS
330
9F3
102
}
330
9F3
100
AcDbTableStyle
280
     0
  3
Standard
 70
     0
 71
     0
 40
0.06
 41
0.06
280
     0
281
     0
  7
Standard
140
0.18
170
     2
 62
     0
 63
     7
283
     0
 90
      512
 91
        0
  1

274
    -2
284
     1
 64
     0
275
    -2
285
     1
 65
     0
276
    -2
286
     1
 66
     0
277
    -2
287
     1
 67
     0
278
    -2
288
     1
 68
     0
279
    -2
289
     1
 69
     0
  7
Standard
140
0.25
170
     5
 62
     0
 63
     7
283
     0
 90
      512
 91
        0
  1

274
    -2
284
     1
 64
     0
275
    -2
285
     1
 65
     0
276
    -2
286
     1
 66
     0
277
    -2
287
     1
 67
     0
278
    -2
288
     1
 68
     0
279
    -2
289
     1
 69
     0
  7
Standard
140
0.18
170
     5
 62
     0
 63
     7
283
     0
 90
      512
 91
        0
  1

274
    -2
284
     1
 64
     0
275
    -2
285
     1
 65
     0
276
    -2
286
     1
 66
     0
277
    -2
287
     1
 67
     0
278
    -2
288
     1
 68
     0
279
    -2
289
     1
 69
     0
  0
VISUALSTYLE
  5
9E7
102
{ACAD_REACTORS
330
9E1
102
}
330
9E1
100
AcDbVisualStyle
  2
2dWireframe
 70
     4
177
     3
291
     0
 70
    58
 90
        0
176
     1
 90
        2
176
     1
 90
        0
176
     1
 90
        0
176
     1
 40
0.6
176
     1
 40
30.0
176
     1
 62
     7
176
     1
 90
        1
176
     1
 90
        4
176
     1
 62
     7
176
     1
 62
   257
176
     1
 90
        1
176
     1
 90
        1
176
     1
 40
1.0
176
     1
 90
        0
176
     1
 62
   257
176
     1
 40
1.0
176
     1
 90
        1
176
     1
 90
        6
176
     1
 90
        2
176
     1
 62
     7
176
     1
 90
        5
176
     1
 90
        0
176
     1
 90
        0
176
     1
290
     0
176
     1
 90
        1
176
     1
 40
0.0
176
     1
 90
        0
176
     1
290
     1
176
     1
290
     1
176
     1
290
     0
176
     1
290
     0
176
     1
290
     0
176
     1
290
     0
176
     1
290
     0
176
     1
290
     0
176
     1
290
     0
176
     1
 90
       50
176
     1
 40
0.0
176
     1
 40
1.0
176
     1
 90
        0
176
     1
 62
    18
420
        0
176
     1
 90
       50
176
     1
 90
        3
176
     1
 62
     5
420
      255
176
     1
290
     0
176
     1
 90
       50
176
     1
 90
       50
176
     1
 90
       50
176
     1
290
     0
176
     1
 90
       50
176
     1
 62
   256
176
     0
 40
1.0
176
     0
 90
        2
176
     1
  1
strokes_ogs.tif
176
     1
290
     0
176
     1
 40
1.0
176
     1
 40
1.0
176
     1
  0
VISUALSTYLE
  5
9E9
102
{ACAD_REACTORS
330
9E1
102
}
330
9E1
100
AcDbVisualStyle
  2
3D Hidden
 70
     6
177
     3
291
     0
 70
    58
 90
        1
176
     1
 90
        2
176
     1
 90
        2
176
     1
 90
        0
176
     1
 40
0.6
176
     1
 40
30.0
176
     1
 62
     7
176
     1
 90
        2
176
     1
 90
        2
176
     1
 62
     7
176
     1
 62
   257
176
     1
 90
        2
176
     1
 90
        1
176
     1
 40
40.0
176
     1
 90
        0
176
     1
 62
   257
176
     1
 40
1.0
176
     1
 90
        1
176
     1
 90
        6
176
     1
 90
        2
176
     1
 62
     7
176
     1
 90
        3
176
     1
 90
        0
176
     1
 90
        0
176
     1
290
     0
176
     1
 90
        1
176
     1
 40
0.0
176
     1
 90
        0
176
     1
290
     0
176
     1
290
     1
176
     1
290
     1
176
     1
290
     0
176
     1
290
     0
176
     1
290
     0
176
     1
290
     0
176
     1
290
     0
176
     1
290
     0
176
     1
 90
       50
176
     1
 40
0.0
176
     1
 40
1.0
176
     1
 90
        0
176
     1
 62
    18
420
        0
176
     1
 90
       50
176
     1
 90
        3
176
     1
 62
     5
420
      255
176
     1
290
     0
176
     1
 90
       50
176
     1
 90
       50
176
     1
 90
       50
176
     1
290
     0
176
     1
 90
       50
176
     1
 62
   256
176
     0
 40
1.0
176
     0
 90
        2
176
     1
  1
strokes_ogs.tif
176
     1
290
     0
176
     1
 40
1.0
176
     1
 40
1.0
176
     1
  0
VISUALSTYLE
  5
9E8
102
{ACAD_REACTORS
330
9E1
102
}
330
9E1
100
AcDbVisualStyle
  2
3dWireframe
 70
     5
177
     3
291
     0
 70
    58
 90
        0
176
     1
 90
        2
176
     1
 90
        0
176
     1
 90
        0
176
     1
 40
0.6
176
     1
 40
30.0
176
     1
 62
     7
176
     1
 90
        1
176
     1
 90
        4
176
     1
 62
     7
176
     1
 62
   257
176
     1
 90
        1
176
     1
 90
        1
176
     1
 40
1.0
176
     1
 90
        0
176
     1
 62
   257
176
     1
 40
1.0
176
     1
 90
        1
176
     1
 90
        6
176
     1
 90
        2
176
     1
 62
     7
176
     1
 90
        5
176
     1
 90
        0
176
     1
 90
        0
176
     1
290
     0
176
     1
 90
        1
176
     1
 40
0.0
176
     1
 90
        0
176
     1
290
     0
176
     1
290
     1
176
     1
290
     1
176
     1
290
     0
176
     1
290
     0
176
     1
290
     0
176
     1
290
     0
176
     1
290
     0
176
     1
290
     0
176
     1
 90
       50
176
     1
 40
0.0
176
     1
 40
1.0
176
     1
 90
        0
176
     1
 62
    18
420
        0
176
     1
 90
       50
176
     1
 90
        3
176
     1
 62
     5
420
      255
176
     1
290
     0
176
     1
 90
       50
176
     1
 90
       50
176
     1
 90
       50
176
     1
290
     0
176
     1
 90
       50
176
     1
 62
   256
176
     0
 40
1.0
176
     0
 90
        2
176
     1
  1
strokes_ogs.tif
176
     1
290
     0
176
     1
 40
1.0
176
     1
 40
1.0
176
     1
  0
VISUALSTYLE
  5
9E6
102
{ACAD_REACTORS
330
9E1
102
}
330
9E1
100
AcDbVisualStyle
  2
Basic
 70
     7
177
     3
291
     1
 70
    58
 90
        1
176
     1
 90
        0
176
     1
 90
        1
176
     1
 90
        0
176
     1
 40
0.6
176
     1
 40
30.0
176
     1
 62
     7
176
     1
 90
        0
176
     1
 90
        4
176
     1
 62
     7
176
     1
 62
   257
176
     1
 90
        1
176
     1
 90
        1
176
     1
 40
1.0
176
     1
 90
        8
176
     1
 62
     7
176
     1
 40
1.0
176
     1
 90
        1
176
     1
 90
        6
176
     1
 90
        2
176
     1
 62
     7
176
     1
 90
        5
176
     1
 90
        0
176
     1
 90
        0
176
     1
290
     0
176
     1
 90
        1
176
     1
 40
0.0
176
     1
 90
        0
176
     1
290
     0
176
     1
290
     1
176
     1
290
     1
176
     1
290
     0
176
     1
290
     0
176
     1
290
     0
176
     1
290
     0
176
     1
290
     0
176
     1
290
     0
176
     1
 90
       50
176
     1
 40
0.0
176
     1
 40
1.0
176
     1
 90
        0
176
     1
 62
    18
420
        0
176
     1
 90
       50
176
     1
 90
        3
176
     1
 62
     5
420
      255
176
     1
290
     0
176
     1
 90
       50
176
     1
 90
       50
176
     1
 90
       50
176
     1
290
     0
176
     1
 90
       50
176
     1
 62
   256
176
     0
 40
1.0
176
     0
 90
        2
176
     1
  1
strokes_ogs.tif
176
     1
290
     0
176
     1
 40
1.0
176
     1
 40
1.0
176
     1
  0
VISUALSTYLE
  5
9ED
102
{ACAD_REACTORS
330
9E1
102
}
330
9E1
100
AcDbVisualStyle
  2
Brighten
 70
    12
177
     3
291
     1
 70
    58
 90
        2
176
     1
 90
        2
176
     1
 90
        0
176
     1
 90
        0
176
     1
 40
0.6
176
     1
 40
30.0
176
     1
 62
     7
176
     1
 90
        1
176
     1
 90
        4
176
     1
 62
     7
176
     1
 62
   257
176
     1
 90
        1
176
     1
 90
        1
176
     1
 40
1.0
176
     1
 90
        8
176
     1
 62
     7
176
     1
 40
1.0
176
     1
 90
        1
176
     1
 90
        6
176
     1
 90
        2
176
     1
 62
     7
176
     1
 90
        5
176
     1
 90
        0
176
     1
 90
        0
176
     1
290
     0
176
     1
 90
        1
176
     1
 40
50.0
176
     1
 90
        0
176
     1
290
     0
176
     1
290
     1
176
     1
290
     1
176
     1
290
     0
176
     1
290
     0
176
     1
290
     0
176
     1
290
     0
176
     1
290
     0
176
     1
290
     0
176
     1
 90
       50
176
     1
 40
0.0
176
     1
 40
1.0
176
     1
 90
        0
176
     1
 62
    18
420
        0
176
     1
 90
       50
176
     1
 90
        3
176
     1
 62
     5
420
      255
176
     1
290
     0
176
     1
 90
       50
176
     1
 90
       50
176
     1
 90
       50
176
     1
290
     0
176
     1
 90
       50
176
     1
 62
   256
176
     0
 40
1.0
176
     0
 90
        2
176
     1
  1
strokes_ogs.tif
176
     1
290
     0
176
     1
 40
1.0
176
     1
 40
1.0
176
     1
  0
VISUALSTYLE
  5
9F1
102
{ACAD_REACTORS
330
9E1
102
}
330
9E1
100
AcDbVisualStyle
  2
ColorChange
 70
    16
177
     3
291
     1
 70
    58
 90
        2
176
     1
 90
        2
176
     1
 90
        3
176
     1
 90
        0
176
     1
 40
0.6
176
     1
 40
30.0
176
     1
 62
     8
176
     1
 90
        1
176
     1
 90
        4
176
     1
 62
     7
176
     1
 62
   257
176
     1
 90
        1
176
     1
 90
        1
176
     1
 40
1.0
176
     1
 90
        8
176
     1
 62
     8
176
     1
 40
1.0
176
     1
 90
        1
176
     1
 90
        6
176
     1
 90
        2
176
     1
 62
     7
176
     1
 90
        5
176
     1
 90
        0
176
     1
 90
        0
176
     1
290
     0
176
     1
 90
        1
176
     1
 40
0.0
176
     1
 90
        0
176
     1
290
     0
176
     1
290
     1
176
     1
290
     1
176
     1
290
     0
176
     1
290
     0
176
     1
290
     0
176
     1
290
     0
176
     1
290
     0
176
     1
290
     0
176
     1
 90
       50
176
     1
 40
0.0
176
     1
 40
1.0
176
     1
 90
        0
176
     1
 62
    18
420
        0
176
     1
 90
       50
176
     1
 90
        3
176
     1
 62
     5
420
      255
176
     1
290
     0
176
     1
 90
       50
176
     1
 90
       50
176
     1
 90
       50
176
     1
290
     0
176
     1
 90
       50
176
     1
 62
   256
176
     0
 40
1.0
176
     0
 90
        2
176
     1
  1
strokes_ogs.tif
176
     1
290
     0
176
     1
 40
1.0
176
     1
 40
1.0
176
     1
  0
VISUALSTYLE
  5
9EA
102
{ACAD_REACTORS
330
9E1
102
}
330
9E1
100
AcDbVisualStyle
  2
Conceptual
 70
     9
177
     3
291
     0
 70
    58
 90
        3
176
     1
 90
        2
176
     1
 90
        0
176
     1
 90
        0
176
     1
 40
0.6
176
     1
 40
30.0
176
     1
 62
     7
176
     1
 90
        2
176
     1
 90
        2
176
     1
 62
     7
176
     1
 62
   257
176
     1
 90
        1
176
     1
 90
        1
176
     1
 40
40.0
176
     1
 90
        8
176
     1
 62
     7
176
     1
 40
1.0
176
     1
 90
        1
176
     1
 90
        6
176
     1
 90
        2
176
     1
 62
     7
176
     1
 90
        3
176
     1
 90
        0
176
     1
 90
        0
176
     1
290
     0
176
     1
 90
        1
176
     1
 40
0.0
176
     1
 90
        0
176
     1
290
     0
176
     1
290
     1
176
     1
290
     1
176
     1
290
     0
176
     1
290
     0
176
     1
290
     0
176
     1
290
     0
176
     1
290
     0
176
     1
290
     0
176
     1
 90
       50
176
     1
 40
0.0
176
     1
 40
1.0
176
     1
 90
        0
176
     1
 62
    18
420
        0
176
     1
 90
       50
176
     1
 90
        3
176
     1
 62
     5
420
      255
176
     1
290
     0
176
     1
 90
       50
176
     1
 90
       50
176
     1
 90
       50
176
     1
290
     0
176
     1
 90
       50
176
     1
 62
   256
176
     0
 40
1.0
176
     0
 90
        2
176
     1
  1
strokes_ogs.tif
176
     1
290
     0
176
     1
 40
1.0
176
     1
 40
1.0
176
     1
  0
VISUALSTYLE
  5
9EC
102
{ACAD_REACTORS
330
9E1
102
}
330
9E1
100
AcDbVisualStyle
  2
Dim
 70
    11
177
     3
291
     1
 70
    58
 90
        2
176
     1
 90
        2
176
     1
 90
        0
176
     1
 90
        0
176
     1
 40
0.6
176
     1
 40
30.0
176
     1
 62
     7
176
     1
 90
        1
176
     1
 90
        4
176
     1
 62
     7
176
     1
 62
   257
176
     1
 90
        1
176
     1
 90
        1
176
     1
 40
1.0
176
     1
 90
        8
176
     1
 62
     7
176
     1
 40
1.0
176
     1
 90
        1
176
     1
 90
        6
176
     1
 90
        2
176
     1
 62
     7
176
     1
 90
        5
176
     1
 90
        0
176
     1
 90
        0
176
     1
290
     0
176
     1
 90
        1
176
     1
 40
-50.0
176
     1
 90
        0
176
     1
290
     0
176
     1
290
     1
176
     1
290
     1
176
     1
290
     0
176
     1
290
     0
176
     1
290
     0
176
     1
290
     0
176
     1
290
     0
176
     1
290
     0
176
     1
 90
       50
176
     1
 40
0.0
176
     1
 40
1.0
176
     1
 90
        0
176
     1
 62
    18
420
        0
176
     1
 90
       50
176
     1
 90
        3
176
     1
 62
     5
420
      255
176
     1
290
     0
176
     1
 90
       50
176
     1
 90
       50
176
     1
 90
       50
176
     1
290
     0
176
     1
 90
       50
176
     1
 62
   256
176
     0
 40
1.0
176
     0
 90
        2
176
     1
  1
strokes_ogs.tif
176
     1
290
     0
176
     1
 40
1.0
176
     1
 40
1.0
176
     1
  0
VISUALSTYLE
  5
BDF
102
{ACAD_REACTORS
330
9E1
102
}
330
9E1
100
AcDbVisualStyle
  2
EdgeColorOff
 70
    22
177
     3
291
     1
 70
    58
 90
        2
176
     0
 90
        2
176
     0
 90
        0
176
     0
 90
        0
176
     0
 40
0.6
176
     0
 40
30.0
176
     0
 62
     7
420
 16777215
176
     0
 90
        1
176
     0
 90
        4
176
     0
 62
     7
176
     0
 62
   257
176
     0
 90
        1
176
     0
 90
        1
176
     0
 40
1.0
176
     0
 90
        8
176
     2
 62
     7
176
     0
 40
1.0
176
     0
 90
        1
176
     0
 90
        6
176
     0
 90
        2
176
     0
 62
     7
176
     0
 90
        5
176
     0
 90
        0
176
     0
 90
        0
176
     0
290
     0
176
     0
 90
        1
176
     0
 40
0.0
176
     0
 90
        0
176
     0
290
     0
176
     0
290
     1
176
     0
290
     1
176
     0
290
     0
176
     0
290
     0
176
     0
290
     0
176
     0
290
     0
176
     0
290
     0
176
     0
290
     0
176
     0
 90
       50
176
     0
 40
0.0
176
     0
 40
1.0
176
     0
 90
        0
176
     0
 62
    18
420
        0
176
     0
 90
       50
176
     0
 90
        3
176
     0
 62
     5
420
      255
176
     0
290
     0
176
     0
 90
       50
176
     0
 90
       50
176
     0
 90
       50
176
     0
290
     0
176
     0
 90
       50
176
     0
 62
   256
176
     0
 40
1.0
176
     0
 90
        2
176
     0
  1
strokes_ogs.tif
176
     0
290
     0
176
     0
 40
1.0
176
     0
 40
1.0
176
     0
  0
VISUALSTYLE
  5
9F0
102
{ACAD_REACTORS
330
9E1
102
}
330
9E1
100
AcDbVisualStyle
  2
Facepattern
 70
    15
177
     3
291
     1
 70
    58
 90
        2
176
     1
 90
        2
176
     1
 90
        0
176
     1
 90
        0
176
     1
 40
0.6
176
     1
 40
30.0
176
     1
 62
     7
176
     1
 90
        1
176
     1
 90
        4
176
     1
 62
     7
176
     1
 62
   257
176
     1
 90
        1
176
     1
 90
        1
176
     1
 40
1.0
176
     1
 90
        8
176
     1
 62
     7
176
     1
 40
1.0
176
     1
 90
        1
176
     1
 90
        6
176
     1
 90
        2
176
     1
 62
     7
176
     1
 90
        5
176
     1
 90
        0
176
     1
 90
        0
176
     1
290
     0
176
     1
 90
        1
176
     1
 40
0.0
176
     1
 90
        0
176
     1
290
     0
176
     1
290
     1
176
     1
290
     1
176
     1
290
     0
176
     1
290
     0
176
     1
290
     0
176
     1
290
     0
176
     1
290
     0
176
     1
290
     0
176
     1
 90
       50
176
     1
 40
0.0
176
     1
 40
1.0
176
     1
 90
        0
176
     1
 62
    18
420
        0
176
     1
 90
       50
176
     1
 90
        3
176
     1
 62
     5
420
      255
176
     1
290
     0
176
     1
 90
       50
176
     1
 90
       50
176
     1
 90
       50
176
     1
290
     0
176
     1
 90
       50
176
     1
 62
   256
176
     0
 40
1.0
176
     0
 90
        2
176
     1
  1
strokes_ogs.tif
176
     1
290
     0
176
     1
 40
1.0
176
     1
 40
1.0
176
     1
  0
VISUALSTYLE
  5
9E2
102
{ACAD_REACTORS
330
9E1
102
}
330
9E1
100
AcDbVisualStyle
  2
Flat
 70
     0
177
     3
291
     1
 70
    58
 90
        2
176
     1
 90
        1
176
     1
 90
        1
176
     1
 90
        2
176
     1
 40
0.6
176
     1
 40
30.0
176
     1
 62
     7
176
     1
 90
        0
176
     1
 90
        4
176
     1
 62
     7
176
     1
 62
   257
176
     1
 90
        1
176
     1
 90
        1
176
     1
 40
1.0
176
     1
 90
        8
176
     1
 62
     7
176
     1
 40
1.0
176
     1
 90
        1
176
     1
 90
        6
176
     1
 90
        2
176
     1
 62
     7
176
     1
 90
        5
176
     1
 90
        0
176
     1
 90
        0
176
     1
290
     0
176
     1
 90
       13
176
     1
 40
0.0
176
     1
 90
        0
176
     1
290
     0
176
     1
290
     1
176
     1
290
     1
176
     1
290
     0
176
     1
290
     0
176
     1
290
     0
176
     1
290
     0
176
     1
290
     0
176
     1
290
     0
176
     1
 90
       50
176
     1
 40
0.0
176
     1
 40
1.0
176
     1
 90
        0
176
     1
 62
    18
420
        0
176
     1
 90
       50
176
     1
 90
        3
176
     1
 62
     5
420
      255
176
     1
290
     0
176
     1
 90
       50
176
     1
 90
       50
176
     1
 90
       50
176
     1
290
     0
176
     1
 90
       50
176
     1
 62
   256
176
     0
 40
1.0
176
     0
 90
        2
176
     1
  1
strokes_ogs.tif
176
     1
290
     0
176
     1
 40
1.0
176
     1
 40
1.0
176
     1
  0
VISUALSTYLE
  5
9E3
102
{ACAD_REACTORS
330
9E1
102
}
330
9E1
100
AcDbVisualStyle
  2
FlatWithEdges
 70
     1
177
     3
291
     1
 70
    58
 90
        2
176
     1
 90
        1
176
     1
 90
        1
176
     1
 90
        2
176
     1
 40
0.6
176
     1
 40
30.0
176
     1
 62
     7
176
     1
 90
        1
176
     1
 90
        4
176
     1
 62
     7
176
     1
 62
   257
176
     1
 90
        1
176
     1
 90
        1
176
     1
 40
1.0
176
     1
 90
        0
176
     1
 62
   257
176
     1
 40
1.0
176
     1
 90
        1
176
     1
 90
        6
176
     1
 90
        2
176
     1
 62
     7
176
     1
 90
        5
176
     1
 90
        0
176
     1
 90
        0
176
     1
290
     0
176
     1
 90
       13
176
     1
 40
0.0
176
     1
 90
        0
176
     1
290
     0
176
     1
290
     1
176
     1
290
     1
176
     1
290
     0
176
     1
290
     0
176
     1
290
     0
176
     1
290
     0
176
     1
290
     0
176
     1
290
     0
176
     1
 90
       50
176
     1
 40
0.0
176
     1
 40
1.0
176
     1
 90
        0
176
     1
 62
    18
420
        0
176
     1
 90
       50
176
     1
 90
        3
176
     1
 62
     5
420
      255
176
     1
290
     0
176
     1
 90
       50
176
     1
 90
       50
176
     1
 90
       50
176
     1
290
     0
176
     1
 90
       50
176
     1
 62
   256
176
     0
 40
1.0
176
     0
 90
        2
176
     1
  1
strokes_ogs.tif
176
     1
290
     0
176
     1
 40
1.0
176
     1
 40
1.0
176
     1
  0
VISUALSTYLE
  5
9E4
102
{ACAD_REACTORS
330
9E1
102
}
330
9E1
100
AcDbVisualStyle
  2
Gouraud
 70
     2
177
     3
291
     1
 70
    58
 90
        2
176
     1
 90
        2
176
     1
 90
        1
176
     1
 90
        2
176
     1
 40
0.6
176
     1
 40
30.0
176
     1
 62
     7
176
     1
 90
        0
176
     1
 90
        4
176
     1
 62
     7
176
     1
 62
   257
176
     1
 90
        1
176
     1
 90
        1
176
     1
 40
1.0
176
     1
 90
        0
176
     1
 62
     7
176
     1
 40
1.0
176
     1
 90
        1
176
     1
 90
        6
176
     1
 90
        2
176
     1
 62
     7
176
     1
 90
        5
176
     1
 90
        0
176
     1
 90
        0
176
     1
290
     0
176
     1
 90
       13
176
     1
 40
0.0
176
     1
 90
        0
176
     1
290
     0
176
     1
290
     1
176
     1
290
     1
176
     1
290
     0
176
     1
290
     0
176
     1
290
     0
176
     1
290
     0
176
     1
290
     0
176
     1
290
     0
176
     1
 90
       50
176
     1
 40
0.0
176
     1
 40
1.0
176
     1
 90
        0
176
     1
 62
    18
420
        0
176
     1
 90
       50
176
     1
 90
        3
176
     1
 62
     5
420
      255
176
     1
290
     0
176
     1
 90
       50
176
     1
 90
       50
176
     1
 90
       50
176
     1
290
     0
176
     1
 90
       50
176
     1
 62
   256
176
     0
 40
1.0
176
     0
 90
        2
176
     1
  1
strokes_ogs.tif
176
     1
290
     0
176
     1
 40
1.0
176
     1
 40
1.0
176
     1
  0
VISUALSTYLE
  5
9E5
102
{ACAD_REACTORS
330
9E1
102
}
330
9E1
100
AcDbVisualStyle
  2
GouraudWithEdges
 70
     3
177
     3
291
     1
 70
    58
 90
        2
176
     1
 90
        2
176
     1
 90
        1
176
     1
 90
        2
176
     1
 40
0.6
176
     1
 40
30.0
176
     1
 62
     7
176
     1
 90
        1
176
     1
 90
        4
176
     1
 62
     7
176
     1
 62
   257
176
     1
 90
        1
176
     1
 90
        1
176
     1
 40
1.0
176
     1
 90
        0
176
     1
 62
   257
176
     1
 40
1.0
176
     1
 90
        1
176
     1
 90
        6
176
     1
 90
        2
176
     1
 62
     7
176
     1
 90
        5
176
     1
 90
        0
176
     1
 90
        0
176
     1
290
     0
176
     1
 90
       13
176
     1
 40
0.0
176
     1
 90
        0
176
     1
290
     0
176
     1
290
     1
176
     1
290
     1
176
     1
290
     0
176
     1
290
     0
176
     1
290
     0
176
     1
290
     0
176
     1
290
     0
176
     1
290
     0
176
     1
 90
       50
176
     1
 40
0.0
176
     1
 40
1.0
176
     1
 90
        0
176
     1
 62
    18
420
        0
176
     1
 90
       50
176
     1
 90
        3
176
     1
 62
     5
420
      255
176
     1
290
     0
176
     1
 90
       50
176
     1
 90
       50
176
     1
 90
       50
176
     1
290
     0
176
     1
 90
       50
176
     1
 62
   256
176
     0
 40
1.0
176
     0
 90
        2
176
     1
  1
strokes_ogs.tif
176
     1
290
     0
176
     1
 40
1.0
176
     1
 40
1.0
176
     1
  0
VISUALSTYLE
  5
BD7
102
{ACAD_REACTORS
330
9E1
102
}
330
9E1
100
AcDbVisualStyle
  2
Hidden
 70
     6
177
     3
291
     0
 70
    58
 90
        1
176
     1
 90
        2
176
     1
 90
        2
176
     1
 90
        0
176
     1
 40
0.6
176
     1
 40
30.0
176
     1
 62
     7
420
 16777215
176
     1
 90
        2
176
     1
 90
        2
176
     1
 62
     7
176
     1
 62
   257
176
     1
 90
        2
176
     1
 90
        1
176
     1
 40
40.0
176
     1
 90
        0
176
     1
 62
   257
176
     1
 40
1.0
176
     1
 90
        1
176
     1
 90
        6
176
     1
 90
        2
176
     1
 62
     7
176
     1
 90
        3
176
     1
 90
        0
176
     1
 90
        0
176
     1
290
     0
176
     1
 90
        1
176
     1
 40
0.0
176
     1
 90
        0
176
     1
290
     0
176
     1
290
     1
176
     1
290
     1
176
     1
290
     0
176
     1
290
     0
176
     1
290
     0
176
     1
290
     0
176
     1
290
     0
176
     1
290
     0
176
     1
 90
       50
176
     1
 40
0.0
176
     1
 40
1.0
176
     1
 90
        0
176
     1
 62
    18
420
        0
176
     1
 90
       50
176
     1
 90
        3
176
     1
 62
     5
420
      255
176
     1
290
     0
176
     1
 90
       50
176
     1
 90
       50
176
     1
 90
       50
176
     1
290
     0
176
     1
 90
       50
176
     1
 62
   256
176
     0
 40
1.0
176
     0
 90
        2
176
     1
  1
strokes_ogs.tif
176
     1
290
     0
176
     1
 40
1.0
176
     1
 40
1.0
176
     1
  0
VISUALSTYLE
  5
BDD
102
{ACAD_REACTORS
330
9E1
102
}
330
9E1
100
AcDbVisualStyle
  2
JitterOff
 70
    20
177
     3
291
     1
 70
    58
 90
        2
176
     0
 90
        2
176
     0
 90
        0
176
     0
 90
        0
176
     0
 40
0.6
176
     0
 40
30.0
176
     0
 62
     7
420
 16777215
176
     0
 90
        1
176
     0
 90
        4
176
     0
 62
     7
176
     0
 62
   257
176
     0
 90
        1
176
     0
 90
        1
176
     0
 40
1.0
176
     0
 90
       10
176
     2
 62
     7
176
     0
 40
1.0
176
     0
 90
        1
176
     0
 90
        6
176
     0
 90
        2
176
     0
 62
     7
176
     0
 90
        5
176
     0
 90
        0
176
     0
 90
        0
176
     0
290
     0
176
     0
 90
        1
176
     0
 40
0.0
176
     0
 90
        0
176
     0
290
     0
176
     0
290
     1
176
     0
290
     1
176
     0
290
     0
176
     0
290
     0
176
     0
290
     0
176
     0
290
     0
176
     0
290
     0
176
     0
290
     0
176
     0
 90
       50
176
     0
 40
0.0
176
     0
 40
1.0
176
     0
 90
        0
176
     0
 62
    18
420
        0
176
     0
 90
       50
176
     0
 90
        3
176
     0
 62
     5
420
      255
176
     0
290
     0
176
     0
 90
       50
176
     0
 90
       50
176
     0
 90
       50
176
     0
290
     0
176
     0
 90
       50
176
     0
 62
   256
176
     0
 40
1.0
176
     0
 90
        2
176
     0
  1
strokes_ogs.tif
176
     0
290
     0
176
     0
 40
1.0
176
     0
 40
1.0
176
     0
  0
VISUALSTYLE
  5
9EF
102
{ACAD_REACTORS
330
9E1
102
}
330
9E1
100
AcDbVisualStyle
  2
Linepattern
 70
    14
177
     3
291
     1
 70
    58
 90
        2
176
     1
 90
        2
176
     1
 90
        0
176
     1
 90
        0
176
     1
 40
0.6
176
     1
 40
30.0
176
     1
 62
     7
176
     1
 90
        1
176
     1
 90
        4
176
     1
 62
     7
176
     1
 62
   257
176
     1
 90
        7
176
     1
 90
        7
176
     1
 40
1.0
176
     1
 90
        8
176
     1
 62
     7
176
     1
 40
1.0
176
     1
 90
        1
176
     1
 90
        6
176
     1
 90
        2
176
     1
 62
     7
176
     1
 90
        5
176
     1
 90
        0
176
     1
 90
        0
176
     1
290
     0
176
     1
 90
        1
176
     1
 40
0.0
176
     1
 90
        0
176
     1
290
     0
176
     1
290
     1
176
     1
290
     1
176
     1
290
     0
176
     1
290
     0
176
     1
290
     0
176
     1
290
     0
176
     1
290
     0
176
     1
290
     0
176
     1
 90
       50
176
     1
 40
0.0
176
     1
 40
1.0
176
     1
 90
        0
176
     1
 62
    18
420
        0
176
     1
 90
       50
176
     1
 90
        3
176
     1
 62
     5
420
      255
176
     1
290
     0
176
     1
 90
       50
176
     1
 90
       50
176
     1
 90
       50
176
     1
290
     0
176
     1
 90
       50
176
     1
 62
   256
176
     0
 40
1.0
176
     0
 90
        2
176
     1
  1
strokes_ogs.tif
176
     1
290
     0
176
     1
 40
1.0
176
     1
 40
1.0
176
     1
  0
VISUALSTYLE
  5
BDE
102
{ACAD_REACTORS
330
9E1
102
}
330
9E1
100
AcDbVisualStyle
  2
OverhangOff
 70
    21
177
     3
291
     1
 70
    58
 90
        2
176
     0
 90
        2
176
     0
 90
        0
176
     0
 90
        0
176
     0
 40
0.6
176
     0
 40
30.0
176
     0
 62
     7
420
 16777215
176
     0
 90
        1
176
     0
 90
        4
176
     0
 62
     7
176
     0
 62
   257
176
     0
 90
        1
176
     0
 90
        1
176
     0
 40
1.0
176
     0
 90
        9
176
     2
 62
     7
176
     0
 40
1.0
176
     0
 90
        1
176
     0
 90
        6
176
     0
 90
        2
176
     0
 62
     7
176
     0
 90
        5
176
     0
 90
        0
176
     0
 90
        0
176
     0
290
     0
176
     0
 90
        1
176
     0
 40
0.0
176
     0
 90
        0
176
     0
290
     0
176
     0
290
     1
176
     0
290
     1
176
     0
290
     0
176
     0
290
     0
176
     0
290
     0
176
     0
290
     0
176
     0
290
     0
176
     0
290
     0
176
     0
 90
       50
176
     0
 40
0.0
176
     0
 40
1.0
176
     0
 90
        0
176
     0
 62
    18
420
        0
176
     0
 90
       50
176
     0
 90
        3
176
     0
 62
     5
420
      255
176
     0
290
     0
176
     0
 90
       50
176
     0
 90
       50
176
     0
 90
       50
176
     0
290
     0
176
     0
 90
       50
176
     0
 62
   256
176
     0
 40
1.0
176
     0
 90
        2
176
     0
  1
strokes_ogs.tif
176
     0
290
     0
176
     0
 40
1.0
176
     0
 40
1.0
176
     0
  0
VISUALSTYLE
  5
9EB
102
{ACAD_REACTORS
330
9E1
102
}
330
9E1
100
AcDbVisualStyle
  2
Realistic
 70
     8
177
     3
291
     0
 70
    58
 90
        2
176
     1
 90
        2
176
     1
 90
        0
176
     1
 90
        0
176
     1
 40
0.6
176
     1
 40
30.0
176
     1
 62
     7
176
     1
 90
        1
176
     1
 90
        0
176
     1
 62
     7
176
     1
 62
   257
176
     1
 90
        1
176
     1
 90
        1
176
     1
 40
1.0
176
     1
 90
        8
176
     1
 62
     8
176
     1
 40
1.0
176
     1
 90
        1
176
     1
 90
        6
176
     1
 90
        2
176
     1
 62
     7
176
     1
 90
        5
176
     1
 90
        0
176
     1
 90
        0
176
     1
290
     0
176
     1
 90
       13
176
     1
 40
0.0
176
     1
 90
        0
176
     1
290
     0
176
     1
290
     1
176
     1
290
     1
176
     1
290
     0
176
     1
290
     0
176
     1
290
     0
176
     1
290
     0
176
     1
290
     0
176
     1
290
     0
176
     1
 90
       50
176
     1
 40
0.0
176
     1
 40
1.0
176
     1
 90
        0
176
     1
 62
    18
420
        0
176
     1
 90
       50
176
     1
 90
        3
176
     1
 62
     5
420
      255
176
     1
290
     0
176
     1
 90
       50
176
     1
 90
       50
176
     1
 90
       50
176
     1
290
     0
176
     1
 90
       50
176
     1
 62
   256
176
     0
 40
1.0
176
     0
 90
        2
176
     1
  1
strokes_ogs.tif
176
     1
290
     0
176
     1
 40
1.0
176
     1
 40
1.0
176
     1
  0
VISUALSTYLE
  5
BDC
102
{ACAD_REACTORS
330
9E1
102
}
330
9E1
100
AcDbVisualStyle
  2
Shaded
 70
    27
177
     3
291
     0
 70
    58
 90
        2
176
     1
 90
        2
176
     1
 90
        1
176
     1
 90
        2
176
     1
 40
0.6
176
     1
 40
30.0
176
     1
 62
     7
420
 16777215
176
     1
 90
        0
176
     1
 90
        4
176
     1
 62
     7
176
     1
 62
   257
176
     1
 90
        1
176
     1
 90
        1
176
     1
 40
1.0
176
     1
 90
        8
176
     1
 62
   257
176
     1
 40
1.0
176
     1
 90
        1
176
     1
 90
        6
176
     1
 90
        2
176
     1
 62
     8
420
  7895160
176
     1
 90
        3
176
     1
 90
        0
176
     1
 90
        0
176
     1
290
     0
176
     1
 90
        5
176
     1
 40
0.0
176
     1
 90
        0
176
     1
290
     0
176
     1
290
     1
176
     1
290
     1
176
     1
290
     0
176
     1
290
     0
176
     1
290
     0
176
     1
290
     0
176
     1
290
     0
176
     1
290
     0
176
     1
 90
       50
176
     1
 40
0.0
176
     1
 40
1.0
176
     1
 90
        0
176
     1
 62
    18
420
        0
176
     1
 90
       50
176
     1
 90
        3
176
     1
 62
     5
420
      255
176
     1
290
     0
176
     1
 90
       50
176
     1
 90
       50
176
     1
 90
       50
176
     1
290
     0
176
     1
 90
       50
176
     1
 62
   256
176
     0
 40
1.0
176
     0
 90
        2
176
     1
  1
strokes_ogs.tif
176
     1
290
     0
176
     1
 40
1.0
176
     1
 40
1.0
176
     1
  0
VISUALSTYLE
  5
BDB
102
{ACAD_REACTORS
330
9E1
102
}
330
9E1
100
AcDbVisualStyle
  2
Shaded with edges
 70
    26
177
     3
291
     0
 70
    58
 90
        2
176
     1
 90
        2
176
     1
 90
        1
176
     1
 90
        2
176
     1
 40
0.6
176
     1
 40
30.0
176
     1
 62
     7
420
 16777215
176
     1
 90
        1
176
     1
 90
       10
176
     1
 62
     7
176
     1
 62
   257
176
     1
 90
        2
176
     1
 90
        1
176
     1
 40
1.0
176
     1
 90
        8
176
     1
 62
   257
176
     1
 40
1.0
176
     1
 90
        1
176
     1
 90
        6
176
     1
 90
        2
176
     1
 62
     7
176
     1
 90
        3
176
     1
 90
        0
176
     1
 90
        0
176
     1
290
     0
176
     1
 90
        5
176
     1
 40
0.0
176
     1
 90
        0
176
     1
290
     0
176
     1
290
     1
176
     1
290
     1
176
     1
290
     0
176
     1
290
     0
176
     1
290
     0
176
     1
290
     0
176
     1
290
     0
176
     1
290
     0
176
     1
 90
       50
176
     1
 40
0.0
176
     1
 40
1.0
176
     1
 90
        0
176
     1
 62
    18
420
        0
176
     1
 90
       50
176
     1
 90
        3
176
     1
 62
     5
420
      255
176
     1
290
     0
176
     1
 90
       50
176
     1
 90
       50
176
     1
 90
       50
176
     1
290
     0
176
     1
 90
       50
176
     1
 62
   256
176
     0
 40
1.0
176
     0
 90
        2
176
     1
  1
strokes_ogs.tif
176
     1
290
     0
176
     1
 40
1.0
176
     1
 40
1.0
176
     1
  0
VISUALSTYLE
  5
BD8
102
{ACAD_REACTORS
330
9E1
102
}
330
9E1
100
AcDbVisualStyle
  2
Shades of Gray
 70
    23
177
     3
291
     0
 70
    58
 90
        2
176
     1
 90
        2
176
     1
 90
        3
176
     1
 90
        0
176
     1
 40
0.6
176
     1
 40
30.0
176
     1
 62
     7
420
 16777215
176
     1
 90
        2
176
     1
 90
        2
176
     1
 62
     7
176
     1
 62
     7
176
     1
 90
        1
176
     1
 90
        1
176
     1
 40
40.0
176
     1
 90
        8
176
     1
 62
     7
176
     1
 40
1.0
176
     1
 90
        1
176
     1
 90
        6
176
     1
 90
        2
176
     1
 62
     7
176
     1
 90
        3
176
     1
 90
        0
176
     1
 90
        0
176
     1
290
     0
176
     1
 90
        1
176
     1
 40
0.0
176
     1
 90
        0
176
     1
290
     0
176
     1
290
     1
176
     1
290
     1
176
     1
290
     0
176
     1
290
     0
176
     1
290
     0
176
     1
290
     0
176
     1
290
     0
176
     1
290
     0
176
     1
 90
       50
176
     1
 40
0.0
176
     1
 40
1.0
176
     1
 90
        0
176
     1
 62
    18
420
        0
176
     1
 90
       50
176
     1
 90
        3
176
     1
 62
     5
420
      255
176
     1
290
     0
176
     1
 90
       50
176
     1
 90
       50
176
     1
 90
       50
176
     1
290
     0
176
     1
 90
       50
176
     1
 62
   256
176
     0
 40
1.0
176
     0
 90
        2
176
     1
  1
strokes_ogs.tif
176
     1
290
     0
176
     1
 40
1.0
176
     1
 40
1.0
176
     1
  0
VISUALSTYLE
  5
BD9
102
{ACAD_REACTORS
330
9E1
102
}
330
9E1
100
AcDbVisualStyle
  2
Sketchy
 70
    24
177
     3
291
     0
 70
    58
 90
        1
176
     1
 90
        2
176
     1
 90
        2
176
     1
 90
        0
176
     1
 40
0.6
176
     1
 40
30.0
176
     1
 62
     7
420
 16777215
176
     1
 90
        2
176
     1
 90
        2
176
     1
 62
     7
176
     1
 62
     7
176
     1
 90
        1
176
     1
 90
        1
176
     1
 40
40.0
176
     1
 90
       11
176
     1
 62
     7
176
     1
 40
1.0
176
     1
 90
        1
176
     1
 90
        6
176
     1
 90
        2
176
     1
 62
     7
176
     1
 90
        6
176
     1
 90
        0
176
     1
 90
        0
176
     1
290
     0
176
     1
 90
        1
176
     1
 40
0.0
176
     1
 90
        0
176
     1
290
     0
176
     1
290
     1
176
     1
290
     1
176
     1
290
     0
176
     1
290
     0
176
     1
290
     0
176
     1
290
     0
176
     1
290
     0
176
     1
290
     0
176
     1
 90
       50
176
     1
 40
0.0
176
     1
 40
1.0
176
     1
 90
        0
176
     1
 62
    18
420
        0
176
     1
 90
       50
176
     1
 90
        3
176
     1
 62
     5
420
      255
176
     1
290
     0
176
     1
 90
       50
176
     1
 90
       50
176
     1
 90
       50
176
     1
290
     0
176
     1
 90
       50
176
     1
 62
   256
176
     0
 40
1.0
176
     0
 90
        2
176
     1
  1
strokes_ogs.tif
176
     1
290
     0
176
     1
 40
1.0
176
     1
 40
1.0
176
     1
  0
VISUALSTYLE
  5
9EE
102
{ACAD_REACTORS
330
9E1
102
}
330
9E1
100
AcDbVisualStyle
  2
Thicken
 70
    13
177
     3
291
     1
 70
    58
 90
        2
176
     1
 90
        2
176
     1
 90
        0
176
     1
 90
        0
176
     1
 40
0.6
176
     1
 40
30.0
176
     1
 62
     7
176
     1
 90
        1
176
     1
 90
        4
176
     1
 62
     7
176
     1
 62
   257
176
     1
 90
        1
176
     1
 90
        1
176
     1
 40
1.0
176
     1
 90
       12
176
     1
 62
     7
176
     1
 40
1.0
176
     1
 90
        1
176
     1
 90
        6
176
     1
 90
        2
176
     1
 62
     7
176
     1
 90
        5
176
     1
 90
        0
176
     1
 90
        0
176
     1
290
     0
176
     1
 90
        1
176
     1
 40
0.0
176
     1
 90
        0
176
     1
290
     0
176
     1
290
     1
176
     1
290
     1
176
     1
290
     0
176
     1
290
     0
176
     1
290
     0
176
     1
290
     0
176
     1
290
     0
176
     1
290
     0
176
     1
 90
       50
176
     1
 40
0.0
176
     1
 40
1.0
176
     1
 90
        0
176
     1
 62
    18
420
        0
176
     1
 90
       50
176
     1
 90
        3
176
     1
 62
     5
420
      255
176
     1
290
     0
176
     1
 90
       50
176
     1
 90
       50
176
     1
 90
       50
176
     1
290
     0
176
     1
 90
       50
176
     1
 62
   256
176
     0
 40
1.0
176
     0
 90
        2
176
     1
  1
strokes_ogs.tif
176
     1
290
     0
176
     1
 40
1.0
176
     1
 40
1.0
176
     1
  0
VISUALSTYLE
  5
BD6
102
{ACAD_REACTORS
330
9E1
102
}
330
9E1
100
AcDbVisualStyle
  2
Wireframe
 70
     5
177
     3
291
     0
 70
    58
 90
        0
176
     1
 90
        2
176
     1
 90
        0
176
     1
 90
        0
176
     1
 40
0.6
176
     1
 40
30.0
176
     1
 62
     7
420
 16777215
176
     1
 90
        1
176
     1
 90
        4
176
     1
 62
     7
176
     1
 62
   257
176
     1
 90
        1
176
     1
 90
        1
176
     1
 40
1.0
176
     1
 90
        0
176
     1
 62
   257
176
     1
 40
1.0
176
     1
 90
        1
176
     1
 90
        6
176
     1
 90
        2
176
     1
 62
     7
176
     1
 90
        3
176
     1
 90
        0
176
     1
 90
        0
176
     1
290
     0
176
     1
 90
        1
176
     1
 40
0.0
176
     1
 90
        0
176
     1
290
     0
176
     1
290
     1
176
     1
290
     1
176
     1
290
     0
176
     1
290
     0
176
     1
290
     0
176
     1
290
     0
176
     1
290
     0
176
     1
290
     0
176
     1
 90
       50
176
     1
 40
0.0
176
     1
 40
1.0
176
     1
 90
        0
176
     1
 62
    18
420
        0
176
     1
 90
       50
176
     1
 90
        3
176
     1
 62
     5
420
      255
176
     1
290
     0
176
     1
 90
       50
176
     1
 90
       50
176
     1
 90
       50
176
     1
290
     0
176
     1
 90
       50
176
     1
 62
   256
176
     0
 40
1.0
176
     0
 90
        2
176
     1
  1
strokes_ogs.tif
176
     1
290
     0
176
     1
 40
1.0
176
     1
 40
1.0
176
     1
  0
VISUALSTYLE
  5
BDA
102
{ACAD_REACTORS
330
9E1
102
}
330
9E1
100
AcDbVisualStyle
  2
X-Ray
 70
    25
177
     3
291
     0
 70
    58
 90
        2
176
     1
 90
        2
176
     1
 90
        1
176
     1
 90
        1
176
     1
 40
0.5
176
     1
 40
30.0
176
     1
 62
     7
420
 16777215
176
     1
 90
        1
176
     1
 90
        0
176
     1
 62
     7
176
     1
 62
   257
176
     1
 90
        1
176
     1
 90
        1
176
     1
 40
1.0
176
     1
 90
        8
176
     1
 62
     7
176
     1
 40
1.0
176
     1
 90
        1
176
     1
 90
        6
176
     1
 90
        2
176
     1
 62
     7
176
     1
 90
        3
176
     1
 90
        0
176
     1
 90
        0
176
     1
290
     0
176
     1
 90
       13
176
     1
 40
0.0
176
     1
 90
        0
176
     1
290
     0
176
     1
290
     1
176
     1
290
     1
176
     1
290
     0
176
     1
290
     0
176
     1
290
     0
176
     1
290
     0
176
     1
290
     0
176
     1
290
     0
176
     1
 90
       50
176
     1
 40
0.0
176
     1
 40
1.0
176
     1
 90
        0
176
     1
 62
    18
420
        0
176
     1
 90
       50
176
     1
 90
        3
176
     1
 62
     5
420
      255
176
     1
290
     0
176
     1
 90
       50
176
     1
 90
       50
176
     1
 90
       50
176
     1
290
     0
176
     1
 90
       50
176
     1
 62
   256
176
     0
 40
1.0
176
     0
 90
        2
176
     1
  1
strokes_ogs.tif
176
     1
290
     0
176
     1
 40
1.0
176
     1
 40
1.0
176
     1
  0
DICTIONARYVAR
  5
C0D
102
{ACAD_REACTORS
330
261
102
}
330
261
100
DictionaryVariables
280
     0
  1
1:1
  0
DICTIONARYVAR
  5
C09
102
{ACAD_REACTORS
330
261
102
}
330
261
100
DictionaryVariables
280
     0
  1
STANDARD
  0
DICTIONARYVAR
  5
A50
102
{ACAD_REACTORS
330
261
102
}
330
261
100
DictionaryVariables
280
     0
  1
STANDARD
  0
DICTIONARYVAR
  5
C0A
102
{ACAD_REACTORS
330
261
102
}
330
261
100
DictionaryVariables
280
     0
  1
Imperial24
  0
DICTIONARYVAR
  5
C0B
102
{ACAD_REACTORS
330
261
102
}
330
261
100
DictionaryVariables
280
     0
  1
Imperial24
  0
DICTIONARYVAR
  5
263
102
{ACAD_REACTORS
330
261
102
}
330
261
100
DictionaryVariables
280
     0
  1
2
  0
DICTIONARYVAR
  5
262
102
{ACAD_REACTORS
330
261
102
}
330
261
100
DictionaryVariables
280
     0
  1
1
  0
DICTIONARYVAR
  5
A52
102
{ACAD_REACTORS
330
261
102
}
330
261
100
DictionaryVariables
280
     0
  1
0
  0
DICTIONARYVAR
  5
C0F
102
{ACAD_REACTORS
330
261
102
}
330
261
100
DictionaryVariables
280
     0
  1
1
  0
DICTIONARYVAR
  5
C10
102
{ACAD_REACTORS
330
261
102
}
330
261
100
DictionaryVariables
280
     0
  1
15
  0
DICTIONARYVAR
  5
C0E
102
{ACAD_REACTORS
330
261
102
}
330
261
100
DictionaryVariables
280
     0
  1
0
  0
DICTIONARYVAR
  5
C0C
102
{ACAD_REACTORS
330
261
102
}
330
261
100
DictionaryVariables
280
     0
  1
0
  0
DICTIONARYVAR
  5
A51
102
{ACAD_REACTORS
330
261
102
}
330
261
100
DictionaryVariables
280
     0
  1
127
  0
DICTIONARY
  5
C15
330
BF7
100
AcDbDictionary
280
     1
281
     1
  3
ACAD_XREC_ROUNDTRIP
360
C16
  0
DICTIONARY
  5
C13
330
BF5
100
AcDbDictionary
280
     1
281
     1
  3
ACAD_XREC_ROUNDTRIP
360
C14
  0
DICTIONARY
  5
C11
330
9F4
100
AcDbDictionary
280
     1
281
     1
  3
ACAD_ROUNDTRIP_2008_TABLESTYLE_CELLSTYLEMAP
360
C12
  0
XRECORD
  5
C16
102
{ACAD_REACTORS
330
C15
102
}
330
C15
100
AcDbXrecord
280
     1
102
DISPLAYNAME
  1
Imperial24
102
FLAGS
 90
        0
  0
XRECORD
  5
C14
102
{ACAD_REACTORS
330
C13
102
}
330
C13
100
AcDbXrecord
280
     1
102
DISPLAYNAME
  1
Imperial24
102
FLAGS
 90
        0
  0
CELLSTYLEMAP
  5
C12
102
{ACAD_REACTORS
330
C11
102
}
330
C11
100
AcDbCellStyleMap
 90
        3
300
CELLSTYLE
  1
TABLEFORMAT_BEGIN
 90
        5
170
     1
 91
        0
 92
    32768
 62
   257
 93
        1
300
CONTENTFORMAT
  1
CONTENTFORMAT_BEGIN
 90
        0
 91
        0
 92
      512
 93
        0
300

 40
0.0
140
1.0
 94
        5
 62
     0
340
11
144
0.25
309
CONTENTFORMAT_END
171
     0
 94
        6
 95
        1
302
GRIDFORMAT
  1
GRIDFORMAT_BEGIN
 90
        0
 91
        1
 62
     0
 92
       -2
340
0
 93
        0
 40
0.045
309
GRIDFORMAT_END
 95
        2
302
GRIDFORMAT
  1
GRIDFORMAT_BEGIN
 90
        0
 91
        1
 62
     0
 92
       -2
340
0
 93
        0
 40
0.045
309
GRIDFORMAT_END
 95
        4
302
GRIDFORMAT
  1
GRIDFORMAT_BEGIN
 90
        0
 91
        1
 62
     0
 92
       -2
340
0
 93
        0
 40
0.045
309
GRIDFORMAT_END
 95
        8
302
GRIDFORMAT
  1
GRIDFORMAT_BEGIN
 90
        0
 91
        1
 62
     0
 92
       -2
340
0
 93
        0
 40
0.045
309
GRIDFORMAT_END
 95
       16
302
GRIDFORMAT
  1
GRIDFORMAT_BEGIN
 90
        0
 91
        1
 62
     0
 92
       -2
340
0
 93
        0
 40
0.045
309
GRIDFORMAT_END
 95
       32
302
GRIDFORMAT
  1
GRIDFORMAT_BEGIN
 90
        0
 91
        1
 62
     0
 92
       -2
340
0
 93
        0
 40
0.045
309
GRIDFORMAT_END
309
TABLEFORMAT_END
  1
CELLSTYLE_BEGIN
 90
        1
 91
        1
300
_TITLE
309
CELLSTYLE_END
300
CELLSTYLE
  1
TABLEFORMAT_BEGIN
 90
        5
170
     1
 91
        0
 92
        0
 62
   257
 93
        1
300
CONTENTFORMAT
  1
CONTENTFORMAT_BEGIN
 90
        0
 91
        0
 92
      512
 93
        0
300

 40
0.0
140
1.0
 94
        5
 62
     0
340
11
144
0.18
309
CONTENTFORMAT_END
171
     0
 94
        6
 95
        1
302
GRIDFORMAT
  1
GRIDFORMAT_BEGIN
 90
        0
 91
        1
 62
     0
 92
       -2
340
0
 93
        0
 40
0.045
309
GRIDFORMAT_END
 95
        2
302
GRIDFORMAT
  1
GRIDFORMAT_BEGIN
 90
        0
 91
        1
 62
     0
 92
       -2
340
0
 93
        0
 40
0.045
309
GRIDFORMAT_END
 95
        4
302
GRIDFORMAT
  1
GRIDFORMAT_BEGIN
 90
        0
 91
        1
 62
     0
 92
       -2
340
0
 93
        0
 40
0.045
309
GRIDFORMAT_END
 95
        8
302
GRIDFORMAT
  1
GRIDFORMAT_BEGIN
 90
        0
 91
        1
 62
     0
 92
       -2
340
0
 93
        0
 40
0.045
309
GRIDFORMAT_END
 95
       16
302
GRIDFORMAT
  1
GRIDFORMAT_BEGIN
 90
        0
 91
        1
 62
     0
 92
       -2
340
0
 93
        0
 40
0.045
309
GRIDFORMAT_END
 95
       32
302
GRIDFORMAT
  1
GRIDFORMAT_BEGIN
 90
        0
 91
        1
 62
     0
 92
       -2
340
0
 93
        0
 40
0.045
309
GRIDFORMAT_END
309
TABLEFORMAT_END
  1
CELLSTYLE_BEGIN
 90
        2
 91
        1
300
_HEADER
309
CELLSTYLE_END
300
CELLSTYLE
  1
TABLEFORMAT_BEGIN
 90
        5
170
     1
 91
        0
 92
        0
 62
   257
 93
        1
300
CONTENTFORMAT
  1
CONTENTFORMAT_BEGIN
 90
        0
 91
        0
 92
      512
 93
        0
300

 40
0.0
140
1.0
 94
        2
 62
     0
340
11
144
0.18
309
CONTENTFORMAT_END
171
     0
 94
        6
 95
        1
302
GRIDFORMAT
  1
GRIDFORMAT_BEGIN
 90
        0
 91
        1
 62
     0
 92
       -2
340
0
 93
        0
 40
0.045
309
GRIDFORMAT_END
 95
        2
302
GRIDFORMAT
  1
GRIDFORMAT_BEGIN
 90
        0
 91
        1
 62
     0
 92
       -2
340
0
 93
        0
 40
0.045
309
GRIDFORMAT_END
 95
        4
302
GRIDFORMAT
  1
GRIDFORMAT_BEGIN
 90
        0
 91
        1
 62
     0
 92
       -2
340
0
 93
        0
 40
0.045
309
GRIDFORMAT_END
 95
        8
302
GRIDFORMAT
  1
GRIDFORMAT_BEGIN
 90
        0
 91
        1
 62
     0
 92
       -2
340
0
 93
        0
 40
0.045
309
GRIDFORMAT_END
 95
       16
302
GRIDFORMAT
  1
GRIDFORMAT_BEGIN
 90
        0
 91
        1
 62
     0
 92
       -2
340
0
 93
        0
 40
0.045
309
GRIDFORMAT_END
 95
       32
302
GRIDFORMAT
  1
GRIDFORMAT_BEGIN
 90
        0
 91
        1
 62
     0
 92
       -2
340
0
 93
        0
 40
0.045
309
GRIDFORMAT_END
309
TABLEFORMAT_END
  1
CELLSTYLE_BEGIN
 90
        3
 91
        2
300
_DATA
309
CELLSTYLE_END
  0
ENDSEC
  0
EOF
