  0
SECTION
  2
HEADER
  9
$ACADVER
  1
AC1027
  9
$ACADMAINTVER
 70
    55
  9
$DWGCODEPAGE
  3
ANSI_1252
  9
$LASTSAVEDBY
  1
bzakrzew
  9
$REQUIREDVERSIONS
160
                 0
  9
$INSBASE
 10
0.0
 20
0.0
 30
0.0
  9
$EXTMIN
 10
4.780940005779541
 20
1.62614838609851
 30
0.0
  9
$EXTMAX
 10
29.16903409314801
 20
22.52585019171823
 30
0.0
  9
$LIMMIN
 10
0.0
 20
0.0
  9
$LIMMAX
 10
12.0
 20
9.0
  9
$ORTHOMODE
 70
     1
  9
$REGENMODE
 70
     1
  9
$FILLMODE
 70
     1
  9
$QTEXTMODE
 70
     0
  9
$MIRRTEXT
 70
     1
  9
$LTSCALE
 40
1.0
  9
$ATTMODE
 70
     1
  9
$TEXTSIZE
 40
0.2
  9
$TRACEWID
 40
0.05
  9
$TEXTSTYLE
  7
Standard
  9
$CLAYER
  8
BORDER
  9
$CELTYPE
  6
ByLayer
  9
$CECOLOR
 62
     7
  9
$CELTSCALE
 40
1.0
  9
$DISPSILH
 70
     0
  9
$DIMSCALE
 40
2.0
  9
$DIMASZ
 40
0.18
  9
$DIMEXO
 40
0.0625
  9
$DIMDLI
 40
0.38
  9
$DIMRND
 40
0.0
  9
$DIMDLE
 40
0.0
  9
$DIMEXE
 40
0.18
  9
$DIMTP
 40
0.0
  9
$DIMTM
 40
0.0
  9
$DIMTXT
 40
0.18
  9
$DIMCEN
 40
0.09
  9
$DIMTSZ
 40
0.0
  9
$DIMTOL
 70
     0
  9
$DIMLIM
 70
     0
  9
$DIMTIH
 70
     1
  9
$DIMTOH
 70
     1
  9
$DIMSE1
 70
     0
  9
$DIMSE2
 70
     0
  9
$DIMTAD
 70
     0
  9
$DIMZIN
 70
     4
  9
$DIMBLK
  1

  9
$DIMASO
 70
     1
  9
$DIMSHO
 70
     1
  9
$DIMPOST
  1

  9
$DIMAPOST
  1

  9
$DIMALT
 70
     0
  9
$DIMALTD
 70
     2
  9
$DIMALTF
 40
25.4
  9
$DIMLFAC
 40
1.0
  9
$DIMTOFL
 70
     0
  9
$DIMTVP
 40
0.0
  9
$DIMTIX
 70
     0
  9
$DIMSOXD
 70
     0
  9
$DIMSAH
 70
     0
  9
$DIMBLK1
  1

  9
$DIMBLK2
  1

  9
$DIMSTYLE
  2
Standard
  9
$DIMCLRD
 70
     0
  9
$DIMCLRE
 70
     0
  9
$DIMCLRT
 70
     0
  9
$DIMTFAC
 40
1.0
  9
$DIMGAP
 40
0.09
  9
$DIMJUST
 70
     0
  9
$DIMSD1
 70
     0
  9
$DIMSD2
 70
     0
  9
$DIMTOLJ
 70
     1
  9
$DIMTZIN
 70
     0
  9
$DIMALTZ
 70
     0
  9
$DIMALTTZ
 70
     0
  9
$DIMUPT
 70
     0
  9
$DIMDEC
 70
     2
  9
$DIMTDEC
 70
     2
  9
$DIMALTU
 70
     2
  9
$DIMALTTD
 70
     2
  9
$DIMTXSTY
  7
Standard
  9
$DIMAUNIT
 70
     0
  9
$DIMADEC
 70
     0
  9
$DIMALTRND
 40
0.0
  9
$DIMAZIN
 70
     1
  9
$DIMDSEP
 70
    46
  9
$DIMATFIT
 70
     3
  9
$DIMFRAC
 70
     0
  9
$DIMLDRBLK
  1

  9
$DIMLUNIT
 70
     2
  9
$DIMLWD
 70
    -2
  9
$DIMLWE
 70
    -2
  9
$DIMTMOVE
 70
     0
  9
$DIMFXL
 40
1.0
  9
$DIMFXLON
 70
     0
  9
$DIMJOGANG
 40
0.7853981633974483
  9
$DIMTFILL
 70
     0
  9
$DIMTFILLCLR
 70
     0
  9
$DIMARCSYM
 70
     0
  9
$DIMLTYPE
  6

  9
$DIMLTEX1
  6

  9
$DIMLTEX2
  6

  9
$DIMTXTDIRECTION
 70
     0
  9
$LUNITS
 70
     2
  9
$LUPREC
 70
     4
  9
$SKETCHINC
 40
0.1
  9
$FILLETRAD
 40
0.5
  9
$AUNITS
 70
     0
  9
$AUPREC
 70
     0
  9
$MENU
  1
.
  9
$ELEVATION
 40
0.0
  9
$PELEVATION
 40
0.0
  9
$THICKNESS
 40
0.0
  9
$LIMCHECK
 70
     0
  9
$CHAMFERA
 40
0.5
  9
$CHAMFERB
 40
0.5
  9
$CHAMFERC
 40
1.0
  9
$CHAMFERD
 40
0.0
  9
$SKPOLY
 70
     0
  9
$TDCREATE
 40
2456244.451153125
  9
$TDUCREATE
 40
2456244.659486458
  9
$TDUPDATE
 40
2456797.540617061
  9
$TDUUPDATE
 40
2456797.748950394
  9
$TDINDWG
 40
0.0169524884
  9
$TDUSRTIMER
 40
0.0169523032
  9
$USRTIMER
 70
     1
  9
$ANGBASE
 50
0.0
  9
$ANGDIR
 70
     0
  9
$PDMODE
 70
     0
  9
$PDSIZE
 40
0.0
  9
$PLINEWID
 40
0.0
  9
$SPLFRAME
 70
     0
  9
$SPLINETYPE
 70
     6
  9
$SPLINESEGS
 70
     8
  9
$HANDSEED
  5
165A
  9
$SURFTAB1
 70
     6
  9
$SURFTAB2
 70
     6
  9
$SURFTYPE
 70
     6
  9
$SURFU
 70
     6
  9
$SURFV
 70
     6
  9
$UCSBASE
  2

  9
$UCSNAME
  2

  9
$UCSORG
 10
0.0
 20
0.0
 30
0.0
  9
$UCSXDIR
 10
1.0
 20
0.0
 30
0.0
  9
$UCSYDIR
 10
0.0
 20
1.0
 30
0.0
  9
$UCSORTHOREF
  2

  9
$UCSORTHOVIEW
 70
     0
  9
$UCSORGTOP
 10
0.0
 20
0.0
 30
0.0
  9
$UCSORGBOTTOM
 10
0.0
 20
0.0
 30
0.0
  9
$UCSORGLEFT
 10
0.0
 20
0.0
 30
0.0
  9
$UCSORGRIGHT
 10
0.0
 20
0.0
 30
0.0
  9
$UCSORGFRONT
 10
0.0
 20
0.0
 30
0.0
  9
$UCSORGBACK
 10
0.0
 20
0.0
 30
0.0
  9
$PUCSBASE
  2

  9
$PUCSNAME
  2

  9
$PUCSORG
 10
0.0
 20
0.0
 30
0.0
  9
$PUCSXDIR
 10
1.0
 20
0.0
 30
0.0
  9
$PUCSYDIR
 10
0.0
 20
1.0
 30
0.0
  9
$PUCSORTHOREF
  2

  9
$PUCSORTHOVIEW
 70
     0
  9
$PUCSORGTOP
 10
0.0
 20
0.0
 30
0.0
  9
$PUCSORGBOTTOM
 10
0.0
 20
0.0
 30
0.0
  9
$PUCSORGLEFT
 10
0.0
 20
0.0
 30
0.0
  9
$PUCSORGRIGHT
 10
0.0
 20
0.0
 30
0.0
  9
$PUCSORGFRONT
 10
0.0
 20
0.0
 30
0.0
  9
$PUCSORGBACK
 10
0.0
 20
0.0
 30
0.0
  9
$USERI1
 70
     0
  9
$USERI2
 70
     0
  9
$USERI3
 70
     0
  9
$USERI4
 70
     0
  9
$USERI5
 70
     0
  9
$USERR1
 40
0.0
  9
$USERR2
 40
0.0
  9
$USERR3
 40
0.0
  9
$USERR4
 40
0.0
  9
$USERR5
 40
0.0
  9
$WORLDVIEW
 70
     1
  9
$SHADEDGE
 70
     3
  9
$SHADEDIF
 70
    70
  9
$TILEMODE
 70
     0
  9
$MAXACTVP
 70
    64
  9
$PINSBASE
 10
0.0
 20
0.0
 30
0.0
  9
$PLIMCHECK
 70
     0
  9
$PEXTMIN
 10
-0.0198943027781198
 20
-0.0263761004692498
 30
-0.0015258207003583
  9
$PEXTMAX
 10
15.98112906941578
 20
9.974120379626974
 30
0.0000000349246037
  9
$PLIMMIN
 10
-0.2699182000122087
 20
-0.2769722290964413
  9
$PLIMMAX
 10
16.23115288981076
 20
12.47385534929694
  9
$UNITMODE
 70
     0
  9
$VISRETAIN
 70
     1
  9
$PLINEGEN
 70
     0
  9
$PSLTSCALE
 70
     1
  9
$TREEDEPTH
 70
  3020
  9
$CMLSTYLE
  2
Standard
  9
$CMLJUST
 70
     0
  9
$CMLSCALE
 40
1.0
  9
$PROXYGRAPHICS
 70
     1
  9
$MEASUREMENT
 70
     0
  9
$CELWEIGHT
370
    -1
  9
$ENDCAPS
280
     0
  9
$JOINSTYLE
280
     0
  9
$LWDISPLAY
290
     0
  9
$INSUNITS
 70
     1
  9
$HYPERLINKBASE
  1

  9
$STYLESHEET
  1

  9
$XEDIT
290
     1
  9
$CEPSNTYPE
380
     0
  9
$PSTYLEMODE
290
     1
  9
$FINGERPRINTGUID
  2
{B32B9B88-7A27-4EE4-B4F4-1B43ACA76859}
  9
$VERSIONGUID
  2
{F71D35C3-8ED1-48CF-A3B3-13B6995289E7}
  9
$EXTNAMES
290
     1
  9
$PSVPSCALE
 40
0.0
  9
$OLESTARTUP
290
     0
  9
$SORTENTS
280
   127
  9
$INDEXCTL
280
     0
  9
$HIDETEXT
280
     1
  9
$XCLIPFRAME
280
     0
  9
$HALOGAP
280
     0
  9
$OBSCOLOR
 70
   257
  9
$OBSLTYPE
280
     0
  9
$INTERSECTIONDISPLAY
280
     0
  9
$INTERSECTIONCOLOR
 70
   257
  9
$DIMASSOC
280
     2
  9
$PROJECTNAME
  1

  9
$CAMERADISPLAY
290
     0
  9
$LENSLENGTH
 40
50.0
  9
$CAMERAHEIGHT
 40
0.0
  9
$STEPSPERSEC
 40
2.0
  9
$STEPSIZE
 40
6.0
  9
$3DDWFPREC
 40
2.0
  9
$PSOLWIDTH
 40
0.25
  9
$PSOLHEIGHT
 40
4.0
  9
$LOFTANG1
 40
1.570796326794896
  9
$LOFTANG2
 40
1.570796326794896
  9
$LOFTMAG1
 40
0.0
  9
$LOFTMAG2
 40
0.0
  9
$LOFTPARAM
 70
     7
  9
$LOFTNORMALS
280
     1
  9
$LATITUDE
 40
37.795
  9
$LONGITUDE
 40
-122.394
  9
$NORTHDIRECTION
 40
0.0
  9
$TIMEZONE
 70
 -8000
  9
$LIGHTGLYPHDISPLAY
280
     1
  9
$TILEMODELIGHTSYNCH
280
     1
  9
$CMATERIAL
347
628
  9
$SOLIDHIST
280
     1
  9
$SHOWHIST
280
     1
  9
$DWFFRAME
280
     2
  9
$DGNFRAME
280
     0
  9
$REALWORLDSCALE
290
     1
  9
$INTERFERECOLOR
 62
     1
  9
$INTERFEREOBJVS
345
635
  9
$INTERFEREVPVS
346
632
  9
$CSHADOW
280
     0
  9
$SHADOWPLANELOCATION
 40
0.0
  0
ENDSEC
  0
SECTION
  2
CLASSES
  0
CLASS
  1
ACDBDICTIONARYWDFLT
  2
AcDbDictionaryWithDefault
  3
ObjectDBX Classes
 90
        0
 91
        1
280
     0
281
     0
  0
CLASS
  1
PLOTSETTINGS
  2
AcDbPlotSettings
  3
ObjectDBX Classes
 90
        0
 91
        1
280
     0
281
     0
  0
CLASS
  1
DICTIONARYVAR
  2
AcDbDictionaryVar
  3
ObjectDBX Classes
 90
        0
 91
       11
280
     0
281
     0
  0
CLASS
  1
DIMASSOC
  2
AcDbDimAssoc
  3
"AcDbDimAssoc|Product Desc:     AcDim ARX App For Dimension|Company:          Autodesk, Inc.|WEB Address:      www.autodesk.com"
 90
        0
 91
        4
280
     0
281
     0
  0
CLASS
  1
MATERIAL
  2
AcDbMaterial
  3
ObjectDBX Classes
 90
     1153
 91
        3
280
     0
281
     0
  0
CLASS
  1
VISUALSTYLE
  2
AcDbVisualStyle
  3
ObjectDBX Classes
 90
     4095
 91
       26
280
     0
281
     0
  0
CLASS
  1
TABLESTYLE
  2
AcDbTableStyle
  3
ObjectDBX Classes
 90
     4095
 91
        1
280
     0
281
     0
  0
CLASS
  1
SORTENTSTABLE
  2
AcDbSortentsTable
  3
ObjectDBX Classes
 90
        0
 91
        2
280
     0
281
     0
  0
CLASS
  1
SCALE
  2
AcDbScale
  3
ObjectDBX Classes
 90
     1153
 91
       17
280
     0
281
     0
  0
CLASS
  1
MLEADERSTYLE
  2
AcDbMLeaderStyle
  3
ACDB_MLEADERSTYLE_CLASS
 90
     4095
 91
        1
280
     0
281
     0
  0
CLASS
  1
EXACXREFPANELOBJECT
  2
ExAcXREFPanelObject
  3
EXAC_ESW
 90
     1025
 91
        1
280
     0
281
     0
  0
CLASS
  1
NPOCOLLECTION
  2
AcDbImpNonPersistentObjectsCollection
  3
ObjectDBX Classes
 90
     1153
 91
        1
280
     0
281
     0
  0
CLASS
  1
CELLSTYLEMAP
  2
AcDbCellStyleMap
  3
ObjectDBX Classes
 90
     1152
 91
        2
280
     0
281
     0
  0
CLASS
  1
ACDBSECTIONVIEWSTYLE
  2
AcDbSectionViewStyle
  3
ObjectDBX Classes
 90
     1025
 91
        1
280
     0
281
     0
  0
CLASS
  1
ACDBDETAILVIEWSTYLE
  2
AcDbDetailViewStyle
  3
ObjectDBX Classes
 90
     1025
 91
        1
280
     0
281
     0
  0
ENDSEC
  0
SECTION
  2
TABLES
  0
TABLE
  2
VPORT
  5
8
330
0
100
AcDbSymbolTable
 70
     1
  0
VPORT
  5
613
330
8
100
AcDbSymbolTableRecord
100
AcDbViewportTableRecord
  2
*Active
 70
     0
 10
0.0
 20
0.0
 11
1.0
 21
1.0
 12
10.24404849368558
 22
13.50203594329851
 13
0.0
 23
0.0
 14
0.5
 24
0.5
 15
0.5
 25
0.5
 16
0.0
 26
0.0
 36
1.0
 17
0.0
 27
0.0
 37
0.0
 40
33.6931657104884
 41
2.204314720812182
 42
50.0
 43
0.0
 44
0.0
 50
0.0
 51
0.0
 71
     0
 72
   100
 73
     1
 74
     2
 75
     0
 76
     0
 77
     0
 78
     0
281
     0
 65
     1
110
0.0
120
0.0
130
0.0
111
1.0
121
0.0
131
0.0
112
0.0
122
1.0
132
0.0
 79
     0
146
0.0
348
631
 60
     3
 61
     5
292
     1
282
     1
141
0.0
142
0.0
 63
   250
421
  3355443
1001
ACAD_NAV_VCDISPLAY
1070
     3
  0
ENDTAB
  0
TABLE
  2
LTYPE
  5
5
330
0
100
AcDbSymbolTable
 70
     1
  0
LTYPE
  5
14
330
5
100
AcDbSymbolTableRecord
100
AcDbLinetypeTableRecord
  2
ByBlock
 70
     0
  3

 72
    65
 73
     0
 40
0.0
  0
LTYPE
  5
15
330
5
100
AcDbSymbolTableRecord
100
AcDbLinetypeTableRecord
  2
ByLayer
 70
     0
  3

 72
    65
 73
     0
 40
0.0
  0
LTYPE
  5
16
330
5
100
AcDbSymbolTableRecord
100
AcDbLinetypeTableRecord
  2
Continuous
 70
     0
  3
Solid line
 72
    65
 73
     0
 40
0.0
  0
ENDTAB
  0
TABLE
  2
LAYER
  5
2
102
{ACAD_XDICTIONARY
360
65A
102
}
330
0
100
AcDbSymbolTable
 70
     7
  0
LAYER
  5
10
102
{ACAD_XDICTIONARY
360
11C3
102
}
330
2
100
AcDbSymbolTableRecord
100
AcDbLayerTableRecord
  2
0
 70
     0
 62
     7
  6
Continuous
370
    -3
390
F
347
62A
348
0
  0
LAYER
  5
274
102
{ACAD_XDICTIONARY
360
11C5
102
}
330
2
100
AcDbSymbolTableRecord
100
AcDbLayerTableRecord
  2
BORDER
 70
     0
 62
     4
  6
Continuous
370
    30
390
F
347
62A
348
0
  0
LAYER
  5
572
102
{ACAD_XDICTIONARY
360
11C7
102
}
330
2
100
AcDbSymbolTableRecord
100
AcDbLayerTableRecord
  2
DIM
 70
     0
 62
     3
  6
Continuous
370
    -3
390
F
347
62A
348
0
  0
LAYER
  5
573
102
{ACAD_XDICTIONARY
360
11C9
102
}
330
2
100
AcDbSymbolTableRecord
100
AcDbLayerTableRecord
  2
VIEWPORT
 70
     0
 62
    -8
  6
Continuous
290
     0
370
    -3
390
F
347
62A
348
0
  0
LAYER
  5
57D
330
2
100
AcDbSymbolTableRecord
100
AcDbLayerTableRecord
  2
Defpoints
 70
     0
 62
     7
  6
Continuous
290
     0
370
    -3
390
F
347
62A
348
0
  0
LAYER
  5
1278
330
2
100
AcDbSymbolTableRecord
100
AcDbLayerTableRecord
  2
RESISTOR
 70
     0
 62
    96
  6
Continuous
370
    -3
390
F
347
62A
348
0
  0
LAYER
  5
1279
330
2
100
AcDbSymbolTableRecord
100
AcDbLayerTableRecord
  2
DIMENSION
 70
     0
 62
     3
  6
Continuous
370
    -3
390
F
347
62A
348
0
  0
ENDTAB
  0
TABLE
  2
STYLE
  5
3
330
0
100
AcDbSymbolTable
 70
     1
  0
STYLE
  5
11
330
3
100
AcDbSymbolTableRecord
100
AcDbTextStyleTableRecord
  2
Standard
 70
     0
 40
0.0
 41
1.0
 50
0.0
 71
     0
 42
0.2
  3
txt
  4

  0
ENDTAB
  0
TABLE
  2
VIEW
  5
6
330
0
100
AcDbSymbolTable
 70
     0
  0
ENDTAB
  0
TABLE
  2
UCS
  5
7
330
0
100
AcDbSymbolTable
 70
     0
  0
ENDTAB
  0
TABLE
  2
APPID
  5
9
330
0
100
AcDbSymbolTable
 70
    12
  0
APPID
  5
12
330
9
100
AcDbSymbolTableRecord
100
AcDbRegAppTableRecord
  2
ACAD
 70
     0
  0
APPID
  5
277
330
9
100
AcDbSymbolTableRecord
100
AcDbRegAppTableRecord
  2
MASTER_SIZING
 70
     0
  0
APPID
  5
278
330
9
100
AcDbSymbolTableRecord
100
AcDbRegAppTableRecord
  2
PAPERSPACE
 70
     0
  0
APPID
  5
47E
330
9
100
AcDbSymbolTableRecord
100
AcDbRegAppTableRecord
  2
MASTER-TITLE
 70
     0
  0
APPID
  5
5A1
330
9
100
AcDbSymbolTableRecord
100
AcDbRegAppTableRecord
  2
ACAD_DIMASSOC_CALC_DIMLFAC
 70
     0
  0
APPID
  5
5A2
330
9
100
AcDbSymbolTableRecord
100
AcDbRegAppTableRecord
  2
ACAD_DIMASSOC_DIMLFAC
 70
     0
  0
APPID
  5
5A3
330
9
100
AcDbSymbolTableRecord
100
AcDbRegAppTableRecord
  2
ACAD_DIMASSOC_OVERRIDDEN_DIMLFAC
 70
     0
  0
APPID
  5
1182
330
9
100
AcDbSymbolTableRecord
100
AcDbRegAppTableRecord
  2
AcAecLayerStandard
 70
     0
  0
APPID
  5
121C
330
9
100
AcDbSymbolTableRecord
100
AcDbRegAppTableRecord
  2
ACAD_EXEMPT_FROM_CAD_STANDARDS
 70
     0
  0
APPID
  5
125E
330
9
100
AcDbSymbolTableRecord
100
AcDbRegAppTableRecord
  2
ACAD_MLEADERVER
 70
     0
  0
APPID
  5
127A
330
9
100
AcDbSymbolTableRecord
100
AcDbRegAppTableRecord
  2
ACAD_NAV_VCDISPLAY
 70
     0
  0
APPID
  5
15E8
330
9
100
AcDbSymbolTableRecord
100
AcDbRegAppTableRecord
  2
ACAD_DSTYLE_DIMRADIAL_EXTENSION
 70
     0
  0
ENDTAB
  0
TABLE
  2
DIMSTYLE
  5
A
330
0
100
AcDbSymbolTable
 70
     1
100
AcDbDimStyleTable
 71
     1
340
27
  0
DIMSTYLE
105
27
102
{ACAD_REACTORS
330
154F
330
1573
330
1597
330
15E9
102
}
330
A
100
AcDbSymbolTableRecord
100
AcDbDimStyleTableRecord
  2
Standard
 70
     0
 78
     4
 79
     1
271
     2
272
     2
340
11
  0
ENDTAB
  0
TABLE
  2
BLOCK_RECORD
  5
1
330
0
100
AcDbSymbolTable
 70
     6
  0
BLOCK_RECORD
  5
1F
102
{ACAD_XDICTIONARY
360
15B2
102
}
330
1
100
AcDbSymbolTableRecord
100
AcDbBlockTableRecord
  2
*Model_Space
340
22
 70
     0
280
     1
281
     0
  0
BLOCK_RECORD
  5
1B
102
{ACAD_XDICTIONARY
360
B46
102
}
330
1
100
AcDbSymbolTableRecord
100
AcDbBlockTableRecord
  2
*Paper_Space
340
1E
 70
     0
280
     1
281
     0
  0
BLOCK_RECORD
  5
52A
330
1
100
AcDbSymbolTableRecord
100
AcDbBlockTableRecord
  2
REVISE12
340
0
102
{BLKREFS
331
114B
331
1151
331
1157
331
115D
331
1163
331
1169
331
1042
331
1048
331
104E
331
1054
331
105A
331
1060
102
}
 70
     0
280
     1
281
     0
  0
BLOCK_RECORD
  5
1017
330
1
100
AcDbSymbolTableRecord
100
AcDbBlockTableRecord
  2
A$C04876F98
340
0
102
{BLKREFS
331
1128
102
}
 70
     1
280
     1
281
     0
  0
BLOCK_RECORD
  5
1550
330
1
100
AcDbSymbolTableRecord
100
AcDbBlockTableRecord
  2
*D2
340
0
 70
     0
280
     1
281
     0
  0
BLOCK_RECORD
  5
1574
330
1
100
AcDbSymbolTableRecord
100
AcDbBlockTableRecord
  2
*D3
340
0
 70
     0
280
     1
281
     0
  0
BLOCK_RECORD
  5
1598
330
1
100
AcDbSymbolTableRecord
100
AcDbBlockTableRecord
  2
*D4
340
0
 70
     0
280
     1
281
     0
  0
BLOCK_RECORD
  5
15EA
330
1
100
AcDbSymbolTableRecord
100
AcDbBlockTableRecord
  2
*D5
340
0
 70
     0
280
     1
281
     0
  0
ENDTAB
  0
ENDSEC
  0
SECTION
  2
BLOCKS
  0
BLOCK
  5
20
330
1F
100
AcDbEntity
  8
0
100
AcDbBlockBegin
  2
*Model_Space
 70
     0
 10
0.0
 20
0.0
 30
0.0
  3
*Model_Space
  1

  0
ENDBLK
  5
21
330
1F
100
AcDbEntity
  8
0
100
AcDbBlockEnd
  0
BLOCK
  5
1C
330
1B
100
AcDbEntity
 67
     1
  8
0
100
AcDbBlockBegin
  2
*Paper_Space
 70
     0
 10
0.0
 20
0.0
 30
0.0
  3
*Paper_Space
  1

  0
ENDBLK
  5
1D
330
1B
100
AcDbEntity
 67
     1
  8
0
100
AcDbBlockEnd
  0
BLOCK
  5
533
330
52A
100
AcDbEntity
  8
0
100
AcDbBlockBegin
  2
REVISE12
 70
     2
 10
0.0
 20
0.0
 30
0.0
  3
REVISE12
  1

  0
ATTDEF
  5
52B
330
52A
100
AcDbEntity
  8
0
100
AcDbText
 10
0.03125
 20
0.0625000000000009
 30
0.0
 40
0.125
  1

 41
0.9
 72
     5
 11
0.21875
 21
0.0625000000000009
 31
0.0
100
AcDbAttributeDefinition
280
     0
  3
REVISION NO.
  2
NO
 70
     8
280
     0
  0
ATTDEF
  5
52C
330
52A
100
AcDbEntity
  8
0
100
AcDbText
 10
0.3125
 20
0.0625000000000009
 30
0.0
 40
0.125
  1

100
AcDbAttributeDefinition
280
     0
  3
REVISION
  2
REV
 70
     8
280
     0
  0
ATTDEF
  5
52D
330
52A
100
AcDbEntity
  8
0
100
AcDbText
 10
2.8125
 20
0.0625000000000009
 30
0.0
 40
0.125
  1

 41
1.125
 72
     5
 11
3.46875
 21
0.0625000000000009
 31
0.0
100
AcDbAttributeDefinition
280
     0
  3
REVISION DATE
  2
RDATE
 70
     8
280
     0
  0
ATTDEF
  5
52E
330
52A
100
AcDbEntity
  8
0
100
AcDbText
 10
3.53125
 20
0.0625000000000009
 30
0.0
 40
0.125
  1

100
AcDbAttributeDefinition
280
     0
  3
REVISION BY
  2
BY
 70
     8
280
     0
  0
LINE
  5
52F
330
52A
100
AcDbEntity
  8
0
100
AcDbLine
 10
0.0
 20
0.0
 30
0.0
 11
0.0
 21
0.2500000000000009
 31
0.0
  0
LINE
  5
530
330
52A
100
AcDbEntity
  8
0
100
AcDbLine
 10
0.25
 20
0.2500000000000009
 30
0.0
 11
0.25
 21
0.0000000000000009
 31
0.0
  0
LINE
  5
531
330
52A
100
AcDbEntity
  8
0
100
AcDbLine
 10
2.75
 20
0.2500000000000009
 30
0.0
 11
2.75
 21
0.0000000000000009
 31
0.0
  0
LINE
  5
532
330
52A
100
AcDbEntity
  8
0
100
AcDbLine
 10
3.5
 20
0.2500000000000009
 30
0.0
 11
3.5
 21
0.0000000000000009
 31
0.0
  0
ENDBLK
  5
534
330
52A
100
AcDbEntity
  8
0
100
AcDbBlockEnd
  0
BLOCK
  5
107A
330
1017
100
AcDbEntity
  8
0
 62
     7
100
AcDbBlockBegin
  2
A$C04876F98
 70
     2
 10
0.0
 20
0.0
 30
0.0
  3
A$C04876F98
  1

  0
LINE
  5
1018
330
1017
100
AcDbEntity
  8
0
100
AcDbLine
 10
8.7499999810043
 20
1.749999994680436
 30
0.0
 11
-0.0000000189956992
 21
1.749999994680436
 31
0.0
  0
LINE
  5
1019
330
1017
100
AcDbEntity
  8
0
100
AcDbLine
 10
-0.0000000189956992
 20
-0.0000000053195635
 30
0.0
 11
-0.0000000189956992
 21
1.749999994680436
 31
0.0
  0
LINE
  5
101A
330
1017
100
AcDbEntity
  8
0
100
AcDbLine
 10
4.9999999810043
 20
-0.0000000053195635
 30
0.0
 11
4.9999999810043
 21
1.749999994680436
 31
0.0
  0
LINE
  5
101B
330
1017
100
AcDbEntity
  8
0
100
AcDbLine
 10
3.9999999810043
 20
-0.0000000053195635
 30
0.0
 11
3.9999999810043
 21
1.749999994680436
 31
0.0
  0
LINE
  5
101C
330
1017
100
AcDbEntity
  8
0
100
AcDbLine
 10
8.7499999810043
 20
1.249999994680436
 30
0.0
 11
4.9999999810043
 21
1.249999994680436
 31
0.0
  0
LINE
  5
101D
330
1017
100
AcDbEntity
  8
0
100
AcDbLine
 10
8.7499999810043
 20
0.4999999946804366
 30
0.0
 11
4.9999999810043
 21
0.4999999946804366
 31
0.0
  0
LINE
  5
101E
330
1017
100
AcDbEntity
  8
0
100
AcDbLine
 10
6.9999999810043
 20
0.2499999946804365
 30
0.0
 11
4.9999999810043
 21
0.2499999946804365
 31
0.0
  0
LINE
  5
101F
330
1017
100
AcDbEntity
  8
0
100
AcDbLine
 10
5.9999999810043
 20
-0.0000000053195635
 30
0.0
 11
5.9999999810043
 21
0.4999999946804366
 31
0.0
  0
LINE
  5
1020
330
1017
100
AcDbEntity
  8
0
100
AcDbLine
 10
6.9999999810043
 20
-0.0000000053195635
 30
0.0
 11
6.9999999810043
 21
0.4999999946804366
 31
0.0
  0
LINE
  5
1021
330
1017
100
AcDbEntity
  8
0
100
AcDbLine
 10
-0.0000000189956992
 20
0.2499999946804365
 30
0.0
 11
3.9999999810043
 21
0.2499999946804365
 31
0.0
  0
LINE
  5
1022
330
1017
100
AcDbEntity
  8
0
100
AcDbLine
 10
-0.0000000189956992
 20
0.4999999946804366
 30
0.0
 11
3.9999999810043
 21
0.4999999946804366
 31
0.0
  0
LINE
  5
1023
330
1017
100
AcDbEntity
  8
0
100
AcDbLine
 10
-0.0000000189956992
 20
0.7499999946804366
 30
0.0
 11
3.9999999810043
 21
0.7499999946804366
 31
0.0
  0
LINE
  5
1024
330
1017
100
AcDbEntity
  8
0
100
AcDbLine
 10
-0.0000000189956992
 20
0.9999999946804365
 30
0.0
 11
3.9999999810043
 21
0.9999999946804365
 31
0.0
  0
LINE
  5
1025
330
1017
100
AcDbEntity
  8
0
100
AcDbLine
 10
-0.0000000189956992
 20
1.249999994680436
 30
0.0
 11
3.9999999810043
 21
1.249999994680436
 31
0.0
  0
LINE
  5
1026
330
1017
100
AcDbEntity
  8
0
100
AcDbLine
 10
-0.0000000189956992
 20
1.499999994680436
 30
0.0
 11
3.9999999810043
 21
1.499999994680436
 31
0.0
  0
LINE
  5
1027
330
1017
100
AcDbEntity
  8
0
100
AcDbLine
 10
0.2499999810043008
 20
-0.0000000053195635
 30
0.0
 11
0.2499999810043008
 21
0.2499999946804365
 31
0.0
  0
LINE
  5
1028
330
1017
100
AcDbEntity
  8
0
100
AcDbLine
 10
3.4999999810043
 20
-0.0000000053195635
 30
0.0
 11
3.4999999810043
 21
0.2499999946804365
 31
0.0
  0
LINE
  5
1029
330
1017
100
AcDbEntity
  8
0
100
AcDbLine
 10
2.7499999810043
 20
-0.0000000053195635
 30
0.0
 11
2.7499999810043
 21
0.2499999946804365
 31
0.0
  0
TEXT
  5
102A
330
1017
100
AcDbEntity
  8
0
100
AcDbText
 10
6.6874999810043
 20
1.499999994680436
 30
0.0
 40
0.125
  1
7878 N. 86th STREET
 41
0.8
100
AcDbText
  0
TEXT
  5
102B
330
1017
100
AcDbEntity
  8
0
100
AcDbText
 10
6.6874999810043
 20
1.312499994680436
 30
0.0
 40
0.125
  1
MILWAUKEE, WI 53224
 41
0.8
100
AcDbText
  0
TEXT
  5
102C
330
1017
100
AcDbEntity
  8
0
100
AcDbText
 10
5.0312499810043
 20
0.4062499946804366
 30
0.0
 40
0.0625
  1
DRN. BY
 41
0.8
100
AcDbText
  0
TEXT
  5
102D
330
1017
100
AcDbEntity
  8
0
100
AcDbText
 10
6.0312499810043
 20
0.4062499946804366
 30
0.0
 40
0.0625
  1
DATE
 41
0.8
100
AcDbText
  0
TEXT
  5
102E
330
1017
100
AcDbEntity
  8
0
100
AcDbText
 10
7.0312499810043
 20
0.4062499946804366
 30
0.0
 40
0.0625
  1
DWG. NO.
 41
0.8
100
AcDbText
  0
TEXT
  5
102F
330
1017
100
AcDbEntity
  8
0
100
AcDbText
 10
6.0312499810043
 20
0.1562499946804365
 30
0.0
 40
0.0625
  1
APRVD.
 41
0.8
100
AcDbText
  0
TEXT
  5
1030
330
1017
100
AcDbEntity
  8
0
100
AcDbText
 10
5.0312499810043
 20
0.1562499946804365
 30
0.0
 40
0.0625
  1
SCALE
 41
0.8
100
AcDbText
  0
TEXT
  5
1031
330
1017
100
AcDbEntity
  8
0
100
AcDbText
 10
4.1562499810043
 20
1.624999994680436
 30
0.0
 40
0.09
  1
TOLERANCES
 41
0.8
100
AcDbText
  0
TEXT
  5
1032
330
1017
100
AcDbEntity
  8
0
100
AcDbText
 10
4.0312499810043
 20
1.374999994680436
 30
0.0
 40
0.0625
  1
DECIMAL
 41
0.8
100
AcDbText
  0
TEXT
  5
1033
330
1017
100
AcDbEntity
  8
0
100
AcDbText
 10
4.0312499810043
 20
0.6562499946804366
 30
0.0
 40
0.0625
  1
FRACTIONAL
 41
0.8
100
AcDbText
  0
TEXT
  5
1034
330
1017
100
AcDbEntity
  8
0
100
AcDbText
 10
4.0312499810043
 20
0.2812499946804365
 30
0.0
 40
0.0625
  1
ANGULAR
 41
0.8
100
AcDbText
  0
LINE
  5
1035
330
1017
100
AcDbEntity
  8
0
100
AcDbLine
 10
3.9999999810043
 20
1.468749994680436
 30
0.0
 11
4.9999999810043
 21
1.468749994680436
 31
0.0
  0
TEXT
  5
1036
330
1017
100
AcDbEntity
  8
0
100
AcDbText
 10
4.1249999810043
 20
1.499999994680436
 30
0.0
 40
0.0625
  1
(EXCEPT AS NOTED)
 41
0.8
100
AcDbText
  0
LINE
  5
1037
330
1017
100
AcDbEntity
  8
0
100
AcDbLine
 10
3.9999999810043
 20
0.3749999946804365
 30
0.0
 11
4.9999999810043
 21
0.3749999946804365
 31
0.0
  0
LINE
  5
1038
330
1017
100
AcDbEntity
  8
0
100
AcDbLine
 10
3.9999999810043
 20
0.7499999946804366
 30
0.0
 11
4.9999999810043
 21
0.7499999946804366
 31
0.0
  0
TEXT
  5
1039
330
1017
100
AcDbEntity
  8
0
100
AcDbText
 10
4.0624999810043
 20
1.093749994680436
 30
0.0
 40
0.125
  1
.XX %%p
 41
0.8
100
AcDbText
  0
TEXT
  5
103A
330
1017
100
AcDbEntity
  8
0
100
AcDbText
 10
4.0624999810043
 20
0.8437499946804365
 30
0.0
 40
0.125
  1
.XXX%%p
 41
0.8
100
AcDbText
  0
TEXT
  5
103B
330
1017
100
AcDbEntity
  8
0
100
AcDbText
 10
4.1249999810043
 20
0.4687499946804366
 30
0.0
 40
0.125
  1
%%p
 41
0.8
100
AcDbText
  0
TEXT
  5
103C
330
1017
100
AcDbEntity
  8
0
100
AcDbText
 10
4.1249999810043
 20
0.0937499946804366
 30
0.0
 40
0.125
  1
%%p
 41
0.8
100
AcDbText
  0
TEXT
  5
103D
330
1017
100
AcDbEntity
  8
0
100
AcDbText
 10
3.6562499810043
 20
0.0624999946804366
 30
0.0
 40
0.125
  1
BY
 41
0.8
100
AcDbText
  0
TEXT
  5
103E
330
1017
100
AcDbEntity
  8
0
100
AcDbText
 10
0.0312499810043008
 20
0.0624999946804366
 30
0.0
 40
0.125
  1
NO
 41
0.8
100
AcDbText
  0
TEXT
  5
103F
330
1017
100
AcDbEntity
  8
0
100
AcDbText
 10
1.2187499810043
 20
0.0624999946804366
 30
0.0
 40
0.125
  1
REVISION
 41
0.8
100
AcDbText
  0
TEXT
  5
1040
330
1017
100
AcDbEntity
  8
0
100
AcDbText
 10
2.9374999810043
 20
0.0624999946804366
 30
0.0
 40
0.125
  1
DATE
 41
0.8
100
AcDbText
  0
TEXT
  5
1041
330
1017
100
AcDbEntity
  8
0
100
AcDbText
 10
7.8124999810043
 20
0.0312499946804366
 30
0.0
 40
0.09
  1
SHT.    OF
 41
0.8
100
AcDbText
  0
INSERT
  5
1042
330
1017
100
AcDbEntity
  8
BORDER
100
AcDbBlockReference
 66
     1
  2
REVISE12
 10
-0.0000000189956992
 20
0.2499999946804365
 30
0.0
  0
ATTRIB
  5
1043
330
1042
100
AcDbEntity
  8
0
100
AcDbText
 10
0.0312499810043008
 20
0.3124999946804365
 30
0.0
 40
0.125
  1

 41
0.9
 72
     5
 11
0.2187499810043008
 21
0.3124999946804365
 31
0.0
100
AcDbAttribute
280
     0
  2
NO
 70
     8
280
     0
  0
ATTRIB
  5
1044
330
1042
100
AcDbEntity
  8
0
100
AcDbText
 10
0.3124999810043008
 20
0.3124999946804365
 30
0.0
 40
0.125
  1

100
AcDbAttribute
280
     0
  2
REV
 70
     8
280
     0
  0
ATTRIB
  5
1045
330
1042
100
AcDbEntity
  8
0
100
AcDbText
 10
2.8124999810043
 20
0.3124999946804365
 30
0.0
 40
0.125
  1

 41
1.125
 72
     5
 11
3.4687499810043
 21
0.3124999946804365
 31
0.0
100
AcDbAttribute
280
     0
  2
RDATE
 70
     8
280
     0
  0
ATTRIB
  5
1046
330
1042
100
AcDbEntity
  8
0
100
AcDbText
 10
3.5312499810043
 20
0.3124999946804365
 30
0.0
 40
0.125
  1

100
AcDbAttribute
280
     0
  2
BY
 70
     8
280
     0
  0
SEQEND
  5
1047
330
1042
100
AcDbEntity
  8
BORDER
  0
INSERT
  5
1048
330
1017
100
AcDbEntity
  8
BORDER
100
AcDbBlockReference
 66
     1
  2
REVISE12
 10
-0.0000000189956992
 20
0.4999999946804366
 30
0.0
  0
ATTRIB
  5
1049
330
1048
100
AcDbEntity
  8
0
100
AcDbText
 10
0.0312499810043008
 20
0.5624999946804366
 30
0.0
 40
0.125
  1

 41
0.9
 72
     5
 11
0.2187499810043008
 21
0.5624999946804366
 31
0.0
100
AcDbAttribute
280
     0
  2
NO
 70
     8
280
     0
  0
ATTRIB
  5
104A
330
1048
100
AcDbEntity
  8
0
100
AcDbText
 10
0.3124999810043008
 20
0.5624999946804366
 30
0.0
 40
0.125
  1

100
AcDbAttribute
280
     0
  2
REV
 70
     8
280
     0
  0
ATTRIB
  5
104B
330
1048
100
AcDbEntity
  8
0
100
AcDbText
 10
2.8124999810043
 20
0.5624999946804366
 30
0.0
 40
0.125
  1

 41
1.125
 72
     5
 11
3.4687499810043
 21
0.5624999946804366
 31
0.0
100
AcDbAttribute
280
     0
  2
RDATE
 70
     8
280
     0
  0
ATTRIB
  5
104C
330
1048
100
AcDbEntity
  8
0
100
AcDbText
 10
3.5312499810043
 20
0.5624999946804366
 30
0.0
 40
0.125
  1

100
AcDbAttribute
280
     0
  2
BY
 70
     8
280
     0
  0
SEQEND
  5
104D
330
1048
100
AcDbEntity
  8
BORDER
  0
INSERT
  5
104E
330
1017
100
AcDbEntity
  8
BORDER
100
AcDbBlockReference
 66
     1
  2
REVISE12
 10
-0.0000000189956992
 20
0.7499999946804366
 30
0.0
  0
ATTRIB
  5
104F
330
104E
100
AcDbEntity
  8
0
100
AcDbText
 10
0.0312499810043008
 20
0.8124999946804365
 30
0.0
 40
0.125
  1

 41
0.9
 72
     5
 11
0.2187499810043008
 21
0.8124999946804365
 31
0.0
100
AcDbAttribute
280
     0
  2
NO
 70
     8
280
     0
  0
ATTRIB
  5
1050
330
104E
100
AcDbEntity
  8
0
100
AcDbText
 10
0.3124999810043008
 20
0.8124999946804365
 30
0.0
 40
0.125
  1

100
AcDbAttribute
280
     0
  2
REV
 70
     8
280
     0
  0
ATTRIB
  5
1051
330
104E
100
AcDbEntity
  8
0
100
AcDbText
 10
2.8124999810043
 20
0.8124999946804365
 30
0.0
 40
0.125
  1

 41
1.125
 72
     5
 11
3.4687499810043
 21
0.8124999946804365
 31
0.0
100
AcDbAttribute
280
     0
  2
RDATE
 70
     8
280
     0
  0
ATTRIB
  5
1052
330
104E
100
AcDbEntity
  8
0
100
AcDbText
 10
3.5312499810043
 20
0.8124999946804365
 30
0.0
 40
0.125
  1

100
AcDbAttribute
280
     0
  2
BY
 70
     8
280
     0
  0
SEQEND
  5
1053
330
104E
100
AcDbEntity
  8
BORDER
  0
INSERT
  5
1054
330
1017
100
AcDbEntity
  8
BORDER
100
AcDbBlockReference
 66
     1
  2
REVISE12
 10
-0.0000000189956992
 20
0.9999999946804365
 30
0.0
  0
ATTRIB
  5
1055
330
1054
100
AcDbEntity
  8
0
100
AcDbText
 10
0.0312499810043008
 20
1.062499994680436
 30
0.0
 40
0.125
  1

 41
0.9
 72
     5
 11
0.2187499810043008
 21
1.062499994680436
 31
0.0
100
AcDbAttribute
280
     0
  2
NO
 70
     8
280
     0
  0
ATTRIB
  5
1056
330
1054
100
AcDbEntity
  8
0
100
AcDbText
 10
0.3124999810043008
 20
1.062499994680436
 30
0.0
 40
0.125
  1

100
AcDbAttribute
280
     0
  2
REV
 70
     8
280
     0
  0
ATTRIB
  5
1057
330
1054
100
AcDbEntity
  8
0
100
AcDbText
 10
2.8124999810043
 20
1.062499994680436
 30
0.0
 40
0.125
  1

 41
1.125
 72
     5
 11
3.4687499810043
 21
1.062499994680436
 31
0.0
100
AcDbAttribute
280
     0
  2
RDATE
 70
     8
280
     0
  0
ATTRIB
  5
1058
330
1054
100
AcDbEntity
  8
0
100
AcDbText
 10
3.5312499810043
 20
1.062499994680436
 30
0.0
 40
0.125
  1

100
AcDbAttribute
280
     0
  2
BY
 70
     8
280
     0
  0
SEQEND
  5
1059
330
1054
100
AcDbEntity
  8
BORDER
  0
INSERT
  5
105A
330
1017
100
AcDbEntity
  8
BORDER
100
AcDbBlockReference
 66
     1
  2
REVISE12
 10
-0.0000000189956992
 20
1.249999994680436
 30
0.0
  0
ATTRIB
  5
105B
330
105A
100
AcDbEntity
  8
0
100
AcDbText
 10
0.0312499810043008
 20
1.312499994680436
 30
0.0
 40
0.125
  1

 41
0.9
 72
     5
 11
0.2187499810043008
 21
1.312499994680436
 31
0.0
100
AcDbAttribute
280
     0
  2
NO
 70
     8
280
     0
  0
ATTRIB
  5
105C
330
105A
100
AcDbEntity
  8
0
100
AcDbText
 10
0.3124999810043008
 20
1.312499994680436
 30
0.0
 40
0.125
  1

100
AcDbAttribute
280
     0
  2
REV
 70
     8
280
     0
  0
ATTRIB
  5
105D
330
105A
100
AcDbEntity
  8
0
100
AcDbText
 10
2.8124999810043
 20
1.312499994680436
 30
0.0
 40
0.125
  1

 41
1.125
 72
     5
 11
3.4687499810043
 21
1.312499994680436
 31
0.0
100
AcDbAttribute
280
     0
  2
RDATE
 70
     8
280
     0
  0
ATTRIB
  5
105E
330
105A
100
AcDbEntity
  8
0
100
AcDbText
 10
3.5312499810043
 20
1.312499994680436
 30
0.0
 40
0.125
  1

100
AcDbAttribute
280
     0
  2
BY
 70
     8
280
     0
  0
SEQEND
  5
105F
330
105A
100
AcDbEntity
  8
BORDER
  0
INSERT
  5
1060
330
1017
100
AcDbEntity
  8
BORDER
100
AcDbBlockReference
 66
     1
  2
REVISE12
 10
-0.0000000189956992
 20
1.499999994680436
 30
0.0
  0
ATTRIB
  5
1061
330
1060
100
AcDbEntity
  8
0
100
AcDbText
 10
0.0312499810043008
 20
1.562499994680436
 30
0.0
 40
0.125
  1

 41
0.9
 72
     5
 11
0.2187499810043008
 21
1.562499994680436
 31
0.0
100
AcDbAttribute
280
     0
  2
NO
 70
     8
280
     0
  0
ATTRIB
  5
1062
330
1060
100
AcDbEntity
  8
0
100
AcDbText
 10
0.3124999810043008
 20
1.562499994680436
 30
0.0
 40
0.125
  1

100
AcDbAttribute
280
     0
  2
REV
 70
     8
280
     0
  0
ATTRIB
  5
1063
330
1060
100
AcDbEntity
  8
0
100
AcDbText
 10
2.8124999810043
 20
1.562499994680436
 30
0.0
 40
0.125
  1

 41
1.125
 72
     5
 11
3.4687499810043
 21
1.562499994680436
 31
0.0
100
AcDbAttribute
280
     0
  2
RDATE
 70
     8
280
     0
  0
ATTRIB
  5
1064
330
1060
100
AcDbEntity
  8
0
100
AcDbText
 10
3.5312499810043
 20
1.562499994680436
 30
0.0
 40
0.125
  1

100
AcDbAttribute
280
     0
  2
BY
 70
     8
280
     0
  0
SEQEND
  5
1065
330
1060
100
AcDbEntity
  8
BORDER
  0
LINE
  5
1066
330
1017
100
AcDbEntity
  8
BORDER
100
AcDbLine
 10
-0.0000000189956992
 20
0.4999999946804366
 30
0.0
 11
-0.0000000189956992
 21
1.749999994680436
 31
0.0
  0
LINE
  5
1067
330
1017
100
AcDbEntity
  8
BORDER
100
AcDbLine
 10
-0.0000000189956992
 20
0.4999999946804366
 30
0.0
 11
3.9999999810043
 21
0.4999999946804366
 31
0.0
  0
LINE
  5
1068
330
1017
100
AcDbEntity
  8
BORDER
100
AcDbLine
 10
-0.0000000189956992
 20
0.7499999946804366
 30
0.0
 11
3.9999999810043
 21
0.7499999946804366
 31
0.0
  0
LINE
  5
1069
330
1017
100
AcDbEntity
  8
BORDER
100
AcDbLine
 10
-0.0000000189956992
 20
0.9999999946804365
 30
0.0
 11
3.9999999810043
 21
0.9999999946804365
 31
0.0
  0
LINE
  5
106A
330
1017
100
AcDbEntity
  8
BORDER
100
AcDbLine
 10
-0.0000000189956992
 20
1.249999994680436
 30
0.0
 11
3.9999999810043
 21
1.249999994680436
 31
0.0
  0
LINE
  5
106B
330
1017
100
AcDbEntity
  8
BORDER
100
AcDbLine
 10
-0.0000000189956992
 20
1.499999994680436
 30
0.0
 11
3.9999999810043
 21
1.499999994680436
 31
0.0
  0
ATTDEF
  5
106C
330
1017
100
AcDbEntity
  8
0
100
AcDbText
 10
7.4687499810043
 20
0.2499999946804365
 30
0.0
 40
0.1875
  1

 41
0.8
100
AcDbAttributeDefinition
280
     0
  3
DRAWING NUMBER
  2
DWGNO
 70
     0
280
     0
  0
ATTDEF
  5
106D
330
1017
100
AcDbEntity
  8
0
100
AcDbText
 10
5.4062499810043
 20
0.2812499946804365
 30
0.0
 40
0.125
  1

 41
0.8
100
AcDbAttributeDefinition
280
     0
  3
DRAWN BY
  2
DRNBY
 70
     0
280
     0
  0
ATTDEF
  5
106E
330
1017
100
AcDbEntity
  8
0
100
AcDbText
 10
6.2499999810043
 20
0.2812499946804365
 30
0.0
 40
0.125
  1

 41
1.568181818181818
 72
     5
 11
6.9687499810043
 21
0.2812499946804365
 31
0.0
100
AcDbAttributeDefinition
280
     0
  3
DRAWING DATE
  2
DATE
 70
     0
280
     0
  0
ATTDEF
  5
106F
330
1017
100
AcDbEntity
  8
0
100
AcDbText
 10
5.3437499810043
 20
0.0312499946804366
 30
0.0
 40
0.125
  1

 41
0.8
100
AcDbAttributeDefinition
280
     0
  3
SCALE
  2
SCALE
 70
     0
280
     0
  0
ATTDEF
  5
1070
330
1017
100
AcDbEntity
  8
0
100
AcDbText
 10
6.3437499810043
 20
0.0312499946804366
 30
0.0
 40
0.125
  1

 41
0.8
100
AcDbAttributeDefinition
280
     0
  3
APPROVED BY
  2
APRVD
 70
     0
280
     0
  0
ATTDEF
  5
1071
330
1017
100
AcDbEntity
  8
0
100
AcDbText
 10
8.0937499810043
 20
0.0312499946804366
 30
0.0
 40
0.125
  1

 41
0.8
100
AcDbAttributeDefinition
280
     0
  3
SHEET
  2
SHT
 70
     0
280
     0
  0
ATTDEF
  5
1072
330
1017
100
AcDbEntity
  8
0
100
AcDbText
 10
8.4687499810043
 20
0.0312499946804366
 30
0.0
 40
0.125
  1

 41
0.8
100
AcDbAttributeDefinition
280
     0
  3
OF SHEET
  2
OFSHT
 70
     0
280
     0
  0
ATTDEF
  5
1073
330
1017
100
AcDbEntity
  8
0
100
AcDbText
 10
5.1562499810043
 20
0.8749999946804365
 30
0.0
 40
0.1875
  1

 41
0.8
100
AcDbAttributeDefinition
280
     0
  3
DESCRIPTION (LINE 1 OF 2)
  2
DESC1
 70
     0
280
     0
  0
ATTDEF
  5
1074
330
1017
100
AcDbEntity
  8
0
100
AcDbText
 10
5.1562499810043
 20
0.5937499946804366
 30
0.0
 40
0.1875
  1

 41
0.8
100
AcDbAttributeDefinition
280
     0
  3
DESCRIPTION (LINE 2 OF 2)
  2
DESC2
 70
     0
280
     0
  0
ATTDEF
  5
1075
330
1017
100
AcDbEntity
  8
0
100
AcDbText
 10
4.5312499810043
 20
1.093749994680436
 30
0.0
 40
0.125
  1
.01
 41
0.8
100
AcDbAttributeDefinition
280
     0
  3
TOLERANCE .XX
  2
TOLXX
 70
     0
280
     0
  0
ATTDEF
  5
1076
330
1017
100
AcDbEntity
  8
0
100
AcDbText
 10
4.5312499810043
 20
0.8437499946804365
 30
0.0
 40
0.125
  1
.005
 41
0.8
100
AcDbAttributeDefinition
280
     0
  3
TOLERANCE .XXX
  2
TOLXXX
 70
     0
280
     0
  0
ATTDEF
  5
1077
330
1017
100
AcDbEntity
  8
0
100
AcDbText
 10
4.2812499810043
 20
0.4687499946804366
 30
0.0
 40
0.125
  1
1/32
 41
0.8
100
AcDbAttributeDefinition
280
     0
  3
TOLERANCE - FRACTIONAL
  2
TOLFRAC
 70
     0
280
     0
  0
ATTDEF
  5
1078
330
1017
100
AcDbEntity
  8
0
100
AcDbText
 10
4.2812499810043
 20
0.0937499946804366
 30
0.0
 40
0.125
  1
1/2%%d
 41
0.8
100
AcDbAttributeDefinition
280
     0
  3
TOLERANCE - ANGULAR
  2
TOLANG
 70
     0
280
     0
  0
ATTDEF
  5
1079
330
1017
100
AcDbEntity
  8
0
100
AcDbText
 10
7.1562499810043
 20
0.0937499946804366
 30
0.0
 40
0.25
  1

 41
0.8
100
AcDbAttributeDefinition
280
     0
  3

  2
DWG.SIZE
 70
     0
280
     0
  0
ENDBLK
  5
107B
330
1017
100
AcDbEntity
  8
0
 62
     7
100
AcDbBlockEnd
  0
BLOCK
  5
1551
330
1550
100
AcDbEntity
  8
0
 62
     7
100
AcDbBlockBegin
  2
*D2
 70
     1
 10
0.0
 20
0.0
 30
0.0
  3
*D2
  1

  0
LINE
  5
15B4
330
1550
100
AcDbEntity
  8
BORDER
 62
     0
440
 16777216
370
    -2
100
AcDbLine
 10
13.91094000577951
 20
22.16216239717648
 30
0.0
 11
15.96107155980176
 21
22.16216239717648
 31
0.0
  0
LINE
  5
15B5
330
1550
100
AcDbEntity
  8
BORDER
 62
     0
440
 16777216
370
    -2
100
AcDbLine
 10
12.77844000577951
 20
13.16182038288444
 30
0.0
 11
15.96107155980176
 21
13.16182038288444
 31
0.0
  0
LINE
  5
15B6
330
1550
100
AcDbEntity
  8
BORDER
 62
     0
440
 16777216
370
    -2
100
AcDbLine
 10
15.60107155980176
 20
21.80216239717648
 30
0.0
 11
15.60107155980176
 21
18.02199139003046
 31
0.0
  0
LINE
  5
15B7
330
1550
100
AcDbEntity
  8
BORDER
 62
     0
440
 16777216
370
    -2
100
AcDbLine
 10
15.60107155980176
 20
13.52182038288444
 30
0.0
 11
15.60107155980176
 21
17.30199139003046
 31
0.0
  0
SOLID
  5
15B8
330
1550
100
AcDbEntity
  8
BORDER
 62
     0
440
 16777216
100
AcDbTrace
 10
15.54107155980176
 20
21.80216239717648
 30
0.0
 11
15.66107155980176
 21
21.80216239717648
 31
0.0
 12
15.60107155980176
 22
22.16216239717648
 32
0.0
 13
15.60107155980176
 23
22.16216239717648
 33
0.0
  0
SOLID
  5
15B9
330
1550
100
AcDbEntity
  8
BORDER
 62
     0
440
 16777216
100
AcDbTrace
 10
15.54107155980176
 20
13.52182038288444
 30
0.0
 11
15.66107155980176
 21
13.52182038288444
 31
0.0
 12
15.60107155980176
 22
13.16182038288444
 32
0.0
 13
15.60107155980176
 23
13.16182038288444
 33
0.0
  0
MTEXT
  5
15BA
330
1550
100
AcDbEntity
  8
BORDER
 62
     0
440
 16777216
100
AcDbMText
 10
15.60107155980175
 20
17.66199139003046
 30
0.0
 40
0.36
 41
0.0
 46
0.0
 71
     5
 72
     1
  1
\A1;9.00
 73
     1
 44
1.0
  0
POINT
  5
15BB
330
1550
100
AcDbEntity
  8
Defpoints
 62
     0
440
 16777216
100
AcDbPoint
 10
13.78594000577951
 20
22.16216239717648
 30
0.0
  0
POINT
  5
15BC
330
1550
100
AcDbEntity
  8
Defpoints
 62
     0
440
 16777216
100
AcDbPoint
 10
12.65344000577951
 20
13.16182038288444
 30
0.0
  0
POINT
  5
15BD
330
1550
100
AcDbEntity
  8
Defpoints
 62
     0
440
 16777216
100
AcDbPoint
 10
15.60107155980176
 20
13.16182038288444
 30
0.0
  0
ENDBLK
  5
1552
330
1550
100
AcDbEntity
  8
0
 62
     7
100
AcDbBlockEnd
  0
BLOCK
  5
1575
330
1574
100
AcDbEntity
  8
0
 62
     7
100
AcDbBlockBegin
  2
*D3
 70
     1
 10
0.0
 20
0.0
 30
0.0
  3
*D3
  1

  0
LINE
  5
15BE
330
1574
100
AcDbEntity
  8
BORDER
 62
     0
440
 16777216
370
    -2
100
AcDbLine
 10
13.78594000577951
 20
3.676148386098507
 30
0.0
 11
13.78594000577951
 21
9.046258513006296
 31
0.0
  0
LINE
  5
15BF
330
1574
100
AcDbEntity
  8
BORDER
 62
     0
440
 16777216
370
    -2
100
AcDbLine
 10
4.785940005779515
 20
3.6761483860985
 30
0.0
 11
4.785940005779515
 21
9.046258513006296
 31
0.0
  0
LINE
  5
15C0
330
1574
100
AcDbEntity
  8
BORDER
 62
     0
440
 16777216
370
    -2
100
AcDbLine
 10
13.42594000577951
 20
8.686258513006297
 30
0.0
 11
9.945940005779515
 21
8.686258513006297
 31
0.0
  0
LINE
  5
15C1
330
1574
100
AcDbEntity
  8
BORDER
 62
     0
440
 16777216
370
    -2
100
AcDbLine
 10
5.145940005779515
 20
8.686258513006297
 30
0.0
 11
8.625940005779515
 21
8.686258513006297
 31
0.0
  0
SOLID
  5
15C2
330
1574
100
AcDbEntity
  8
BORDER
 62
     0
440
 16777216
100
AcDbTrace
 10
13.42594000577951
 20
8.746258513006297
 30
0.0
 11
13.42594000577951
 21
8.626258513006296
 31
0.0
 12
13.78594000577951
 22
8.686258513006297
 32
0.0
 13
13.78594000577951
 23
8.686258513006297
 33
0.0
  0
SOLID
  5
15C3
330
1574
100
AcDbEntity
  8
BORDER
 62
     0
440
 16777216
100
AcDbTrace
 10
5.145940005779515
 20
8.746258513006297
 30
0.0
 11
5.145940005779515
 21
8.626258513006296
 31
0.0
 12
4.785940005779515
 22
8.686258513006297
 32
0.0
 13
4.785940005779515
 23
8.686258513006297
 33
0.0
  0
MTEXT
  5
15C4
330
1574
100
AcDbEntity
  8
BORDER
 62
     0
440
 16777216
100
AcDbMText
 10
9.285940005779515
 20
8.686258513006297
 30
0.0
 40
0.36
 41
0.0
 46
0.0
 71
     5
 72
     1
  1
\A1;9.00
 73
     1
 44
1.0
  0
POINT
  5
15C5
330
1574
100
AcDbEntity
  8
Defpoints
 62
     0
440
 16777216
100
AcDbPoint
 10
13.78594000577951
 20
3.551148386098507
 30
0.0
  0
POINT
  5
15C6
330
1574
100
AcDbEntity
  8
Defpoints
 62
     0
440
 16777216
100
AcDbPoint
 10
4.785940005779515
 20
3.5511483860985
 30
0.0
  0
POINT
  5
15C7
330
1574
100
AcDbEntity
  8
Defpoints
 62
     0
440
 16777216
100
AcDbPoint
 10
4.785940005779515
 20
8.686258513006297
 30
0.0
  0
ENDBLK
  5
1576
330
1574
100
AcDbEntity
  8
0
 62
     7
100
AcDbBlockEnd
  0
BLOCK
  5
1599
330
1598
100
AcDbEntity
  8
0
 62
     7
100
AcDbBlockBegin
  2
*D4
 70
     1
 10
0.0
 20
0.0
 30
0.0
  3
*D4
  1

  0
LINE
  5
15C8
330
1598
100
AcDbEntity
  8
BORDER
 62
     0
440
 16777216
370
    -2
100
AcDbLine
 10
13.28594000577951
 20
3.611148386098509
 30
0.0
 11
13.28594000577951
 21
6.884231545524425
 31
0.0
  0
LINE
  5
15C9
330
1598
100
AcDbEntity
  8
BORDER
 62
     0
440
 16777216
370
    -2
100
AcDbLine
 10
5.285940005779515
 20
3.611148386098516
 30
0.0
 11
5.285940005779515
 21
6.884231545524425
 31
0.0
  0
LINE
  5
15CA
330
1598
100
AcDbEntity
  8
BORDER
 62
     0
440
 16777216
370
    -2
100
AcDbLine
 10
12.92594000577951
 20
6.524231545524425
 30
0.0
 11
9.945940005779515
 21
6.524231545524425
 31
0.0
  0
LINE
  5
15CB
330
1598
100
AcDbEntity
  8
BORDER
 62
     0
440
 16777216
370
    -2
100
AcDbLine
 10
5.645940005779515
 20
6.524231545524425
 30
0.0
 11
8.625940005779515
 21
6.524231545524425
 31
0.0
  0
SOLID
  5
15CC
330
1598
100
AcDbEntity
  8
BORDER
 62
     0
440
 16777216
100
AcDbTrace
 10
12.92594000577951
 20
6.584231545524425
 30
0.0
 11
12.92594000577951
 21
6.464231545524426
 31
0.0
 12
13.28594000577951
 22
6.524231545524425
 32
0.0
 13
13.28594000577951
 23
6.524231545524425
 33
0.0
  0
SOLID
  5
15CD
330
1598
100
AcDbEntity
  8
BORDER
 62
     0
440
 16777216
100
AcDbTrace
 10
5.645940005779515
 20
6.584231545524425
 30
0.0
 11
5.645940005779515
 21
6.464231545524426
 31
0.0
 12
5.285940005779515
 22
6.524231545524425
 32
0.0
 13
5.285940005779515
 23
6.524231545524425
 33
0.0
  0
MTEXT
  5
15CE
330
1598
100
AcDbEntity
  8
BORDER
 62
     0
440
 16777216
100
AcDbMText
 10
9.285940005779515
 20
6.524231545524425
 30
0.0
 40
0.36
 41
0.0
 46
0.0
 71
     5
 72
     1
  1
\A1;8.00
 73
     1
 44
1.0
  0
POINT
  5
15CF
330
1598
100
AcDbEntity
  8
Defpoints
 62
     0
440
 16777216
100
AcDbPoint
 10
13.28594000577951
 20
3.486148386098509
 30
0.0
  0
POINT
  5
15D0
330
1598
100
AcDbEntity
  8
Defpoints
 62
     0
440
 16777216
100
AcDbPoint
 10
5.285940005779515
 20
3.486148386098516
 30
0.0
  0
POINT
  5
15D1
330
1598
100
AcDbEntity
  8
Defpoints
 62
     0
440
 16777216
100
AcDbPoint
 10
5.285940005779515
 20
6.524231545524425
 30
0.0
  0
ENDBLK
  5
159A
330
1598
100
AcDbEntity
  8
0
 62
     7
100
AcDbBlockEnd
  0
BLOCK
  5
15EB
330
15EA
100
AcDbEntity
  8
0
 62
     7
100
AcDbBlockBegin
  2
*D5
 70
     1
 10
0.0
 20
0.0
 30
0.0
  3
*D5
  1

  0
LINE
  5
15F6
330
15EA
100
AcDbEntity
  8
BORDER
 62
     0
440
 16777216
370
    -2
100
AcDbLine
 10
15.41153604516273
 20
6.285122102691809
 30
0.0
 11
15.05153604516273
 21
6.28512210269181
 31
0.0
  0
LINE
  5
15F7
330
15EA
100
AcDbEntity
  8
BORDER
 62
     0
440
 16777216
370
    -2
100
AcDbLine
 10
15.05153604516273
 20
6.28512210269181
 30
0.0
 11
13.56891146810442
 21
3.632436003475932
 31
0.0
  0
MTEXT
  5
15F8
330
15EA
100
AcDbEntity
  8
BORDER
 62
     0
440
 16777216
100
AcDbMText
 10
16.13153604516273
 20
6.28512210269181
 30
0.0
 40
0.36
 41
0.0
 46
0.0
 71
     5
 72
     1
  1
\A1;∅.44
 73
     1
 44
1.0
  0
SOLID
  5
15F9
330
15EA
100
AcDbEntity
  8
BORDER
 62
     0
440
 16777216
100
AcDbTrace
 10
13.51653688699641
 20
3.661708913371612
 30
0.0
 11
13.62128604921242
 21
3.603163093580252
 31
0.0
 12
13.39327400873034
 22
3.318188516827877
 32
0.0
 13
13.39327400873034
 23
3.318188516827877
 33
0.0
  0
LINE
  5
15FA
330
15EA
100
AcDbEntity
  8
BORDER
 62
     0
440
 16777216
370
    -2
100
AcDbLine
 10
13.10594000577951
 20
3.126148386098508
 30
0.0
 11
13.46594000577951
 21
3.126148386098507
 31
0.0
  0
LINE
  5
15FB
330
15EA
100
AcDbEntity
  8
BORDER
 62
     0
440
 16777216
370
    -2
100
AcDbLine
 10
13.28594000577951
 20
2.946148386098508
 30
0.0
 11
13.28594000577951
 21
3.306148386098509
 31
0.0
  0
POINT
  5
15FC
330
15EA
100
AcDbEntity
  8
Defpoints
 62
     0
440
 16777216
100
AcDbPoint
 10
13.39327400873034
 20
3.318188516827877
 30
0.0
  0
POINT
  5
15FD
330
15EA
100
AcDbEntity
  8
Defpoints
 62
     0
440
 16777216
100
AcDbPoint
 10
13.17860600282868
 20
2.934108255369143
 30
0.0
  0
ENDBLK
  5
15EC
330
15EA
100
AcDbEntity
  8
0
 62
     7
100
AcDbBlockEnd
  0
ENDSEC
  0
SECTION
  2
ENTITIES
  0
LINE
  5
13DE
330
1F
100
AcDbEntity
  8
RESISTOR
100
AcDbLine
 10
13.78594000577951
 20
22.08216239717644
 30
0.0
 11
12.73344000577951
 21
22.08216239717644
 31
0.0
  0
LINE
  5
13DF
330
1F
100
AcDbEntity
  8
RESISTOR
100
AcDbLine
 10
13.78594000577951
 20
22.16216239717648
 30
0.0
 11
12.65344000577951
 21
22.16216239717648
 31
0.0
  0
LINE
  5
13E0
330
1F
100
AcDbEntity
  8
RESISTOR
100
AcDbLine
 10
13.78594000577951
 20
3.551148386098507
 30
0.0
 11
12.66344000577951
 21
3.551148386098507
 31
0.0
  0
LINE
  5
13E1
330
1F
100
AcDbEntity
  8
RESISTOR
100
AcDbLine
 10
13.78594000577951
 20
2.701148386098498
 30
0.0
 11
12.66344000577951
 21
2.701148386098498
 31
0.0
  0
LINE
  5
13E2
330
1F
100
AcDbEntity
  8
DIMENSION
100
AcDbLine
 10
12.92594000577951
 20
3.12614838609851
 30
0.0
 11
13.64594000577951
 21
3.12614838609851
 31
0.0
  0
CIRCLE
  5
13E3
330
1F
100
AcDbEntity
  8
0
100
AcDbCircle
 10
13.28594000577951
 20
3.12614838609851
 30
0.0
 40
0.22
  0
CIRCLE
  5
13E4
102
{ACAD_REACTORS
330
15FE
102
}
330
1F
100
AcDbEntity
  8
RESISTOR
100
AcDbCircle
 10
13.28594000577951
 20
3.12614838609851
 30
0.0
 40
0.22
  0
LINE
  5
13E5
330
1F
100
AcDbEntity
  8
DIMENSION
100
AcDbLine
 10
4.925940005779516
 20
3.126148386098517
 30
0.0
 11
5.645940005779515
 21
3.126148386098517
 31
0.0
  0
LINE
  5
13E6
330
1F
100
AcDbEntity
  8
RESISTOR
100
AcDbLine
 10
5.908440005779517
 20
2.701148386098505
 30
0.0
 11
4.785940005779515
 21
2.701148386098505
 31
0.0
  0
LINE
  5
13E7
330
1F
100
AcDbEntity
  8
RESISTOR
100
AcDbLine
 10
5.908440005779517
 20
3.551148386098514
 30
0.0
 11
4.785940005779515
 21
3.5511483860985
 31
0.0
  0
LINE
  5
13E8
102
{ACAD_REACTORS
330
158C
102
}
330
1F
100
AcDbEntity
  8
RESISTOR
100
AcDbLine
 10
4.785940005779515
 20
3.5511483860985
 30
0.0
 11
4.785940005779515
 21
2.701148386098505
 31
0.0
  0
LINE
  5
13EA
330
1F
100
AcDbEntity
  8
RESISTOR
100
AcDbLine
 10
7.09328625741805
 20
2.346705281623673
 30
0.0
 11
6.959843903529453
 21
3.871958365973757
 31
0.0
  0
LINE
  5
13EB
330
1F
100
AcDbEntity
  8
RESISTOR
100
AcDbLine
 10
7.595196176189723
 20
2.346705281623673
 30
0.0
 11
7.461753822301126
 21
3.871958365973757
 31
0.0
  0
LINE
  5
13EC
330
1F
100
AcDbEntity
  8
RESISTOR
100
AcDbLine
 10
7.595196176189723
 20
2.346705281623673
 30
0.0
 11
7.461753822301126
 21
3.871958365973757
 31
0.0
  0
LINE
  5
13ED
330
1F
100
AcDbEntity
  8
RESISTOR
100
AcDbLine
 10
8.097106094961397
 20
2.346705281623673
 30
0.0
 11
7.963663741072799
 21
3.871958365973757
 31
0.0
  0
LINE
  5
13EE
330
1F
100
AcDbEntity
  8
RESISTOR
100
AcDbLine
 10
8.59901601373307
 20
2.346705281623673
 30
0.0
 11
8.465573659844473
 21
3.871958365973757
 31
0.0
  0
LINE
  5
13EF
330
1F
100
AcDbEntity
  8
RESISTOR
100
AcDbLine
 10
9.100925932504743
 20
2.346705281623673
 30
0.0
 11
8.967483578616146
 21
3.871958365973757
 31
0.0
  0
LINE
  5
13F0
330
1F
100
AcDbEntity
  8
RESISTOR
100
AcDbLine
 10
9.602835851276417
 20
2.346705281623673
 30
0.0
 11
9.469393497387819
 21
3.871958365973757
 31
0.0
  0
LINE
  5
13F1
102
{ACAD_REACTORS
330
15B0
102
}
330
1F
100
AcDbEntity
  8
DIMENSION
100
AcDbLine
 10
13.28594000577951
 20
2.76614838609851
 30
0.0
 11
13.28594000577951
 21
3.486148386098509
 31
0.0
  0
LINE
  5
13F2
330
1F
100
AcDbEntity
  8
RESISTOR
100
AcDbLine
 10
11.10856560759138
 20
2.346705281623787
 30
0.0
 11
10.97565558569486
 21
3.865873783462706
 31
0.0
  0
LINE
  5
13F3
330
1F
100
AcDbEntity
  8
RESISTOR
100
AcDbLine
 10
11.60666295663729
 20
2.390283152997501
 30
0.0
 11
11.47752659578689
 21
3.866318511705447
 31
0.0
  0
LINE
  5
13F4
330
1F
100
AcDbEntity
  8
RESISTOR
100
AcDbLine
 10
12.74594000577949
 20
3.551148386098507
 30
0.0
 11
12.74594000577949
 21
2.701148386098498
 31
0.0
  0
LINE
  5
13F5
330
1F
100
AcDbEntity
  8
RESISTOR
100
AcDbLine
 10
12.66344000577951
 20
4.12614838609851
 30
0.0
 11
12.66344000577951
 21
2.12614838609851
 31
0.0
  0
LINE
  5
13F6
330
1F
100
AcDbEntity
  8
RESISTOR
100
AcDbLine
 10
12.16344000577951
 20
1.62614838609851
 30
0.0
 11
12.16344000577951
 21
4.12614838609851
 31
0.0
  0
LINE
  5
13F7
330
1F
100
AcDbEntity
  8
RESISTOR
100
AcDbLine
 10
11.66344000577951
 20
1.62614838609851
 30
0.0
 11
11.66344000577951
 21
4.00114838609851
 31
0.0
  0
LINE
  5
13F8
330
1F
100
AcDbEntity
  8
RESISTOR
100
AcDbLine
 10
8.595646925887912
 20
2.306233398937916
 30
0.0
 11
8.458965828717772
 21
3.868505488391431
 31
0.0
  0
LINE
  5
13FB
330
1F
100
AcDbEntity
  8
RESISTOR
100
AcDbLine
 10
10.10474577004809
 20
2.346705281623673
 30
0.0
 11
9.971303416159493
 21
3.871958365973757
 31
0.0
  0
LINE
  5
13FC
330
1F
100
AcDbEntity
  8
RESISTOR
100
AcDbLine
 10
10.60665568881971
 20
2.346705281623787
 30
0.0
 11
10.46977453389818
 21
3.911264041639714
 31
0.0
  0
LINE
  5
13FD
330
1F
100
AcDbEntity
  8
RESISTOR
100
AcDbLine
 10
7.584482495331975
 20
2.390182481214463
 30
0.0
 11
7.455337326841835
 21
3.866318511705468
 31
0.0
  0
LINE
  5
13FE
330
1F
100
AcDbEntity
  8
RESISTOR
100
AcDbLine
 10
7.128958262686616
 20
2.244821537084416
 30
0.0
 11
6.977679298069837
 21
3.973948014961845
 31
0.0
  0
LINE
  5
13FF
330
1F
100
AcDbEntity
  8
RESISTOR
100
AcDbLine
 10
5.908440005779517
 20
4.126148386098517
 30
0.0
 11
5.908440005779517
 21
2.126148386098517
 31
0.0
  0
LINE
  5
1400
330
1F
100
AcDbEntity
  8
RESISTOR
100
AcDbLine
 10
5.825940005779536
 20
3.551148386098514
 30
0.0
 11
5.825940005779536
 21
2.701148386098505
 31
0.0
  0
LINE
  5
1401
102
{ACAD_REACTORS
330
15B0
102
}
330
1F
100
AcDbEntity
  8
DIMENSION
100
AcDbLine
 10
5.285940005779515
 20
2.766148386098517
 30
0.0
 11
5.285940005779515
 21
3.486148386098516
 31
0.0
  0
CIRCLE
  5
1402
330
1F
100
AcDbEntity
  8
0
100
AcDbCircle
 10
5.285940005779515
 20
3.126148386098517
 30
0.0
 40
0.22
  0
CIRCLE
  5
1403
330
1F
100
AcDbEntity
  8
0
100
AcDbCircle
 10
5.285940005779515
 20
3.126148386098517
 30
0.0
 40
0.22
  0
LINE
  5
1404
330
1F
100
AcDbEntity
  8
RESISTOR
100
AcDbLine
 10
8.093737007116239
 20
2.30623339893793
 30
0.0
 11
7.957238437973821
 21
3.866419183488343
 31
0.0
  0
LINE
  5
1405
330
1F
100
AcDbEntity
  8
RESISTOR
100
AcDbLine
 10
6.408440005779517
 20
1.626148386098517
 30
0.0
 11
6.408440005779517
 21
4.126148386098517
 31
0.0
  0
LINE
  5
1406
330
1F
100
AcDbEntity
  8
RESISTOR
100
AcDbLine
 10
6.908440005779517
 20
1.626148386098517
 30
0.0
 11
6.908440005779517
 21
4.001148386098517
 31
0.0
  0
ARC
  5
1407
330
1F
100
AcDbEntity
  8
RESISTOR
100
AcDbCircle
 10
7.842338565849708
 20
2.390283152997529
 30
0.0
 40
0.2509549593858367
100
AcDbArc
 50
180.0
 51
0.0
  0
ARC
  5
1408
330
1F
100
AcDbEntity
  8
RESISTOR
100
AcDbCircle
 10
7.842338565849708
 20
2.390283152997529
 30
0.0
 40
0.2509549593858367
100
AcDbArc
 50
180.0
 51
0.0
  0
ARC
  5
140A
330
1F
100
AcDbEntity
  8
RESISTOR
100
AcDbCircle
 10
7.340428647078034
 20
2.390283152997529
 30
0.0
 40
0.2509549593858367
100
AcDbArc
 50
180.0
 51
0.0
  0
ARC
  5
140C
330
1F
100
AcDbEntity
  8
RESISTOR
100
AcDbCircle
 10
8.337342671635305
 20
2.391718672983639
 30
0.0
 40
0.2509549593858367
100
AcDbArc
 50
180.3507316803042
 51
359.6722531988769
  0
ARC
  5
140E
330
1F
100
AcDbEntity
  8
RESISTOR
100
AcDbCircle
 10
7.33352753594611
 20
2.390182481214605
 30
0.0
 40
0.2509549593858367
100
AcDbArc
 50
215.3964880138742
 51
359.9999999999919
  0
LINE
  5
140F
330
1F
100
AcDbEntity
  8
RESISTOR
100
AcDbLine
 10
7.117468652181322
 20
2.376148386098517
 30
0.0
 11
6.908440005779517
 21
2.376148386098517
 31
0.0
  0
LINE
  5
1410
330
1F
100
AcDbEntity
  8
RESISTOR
100
AcDbLine
 10
5.908440005779517
 20
2.126148386098517
 30
0.0
 11
6.408440005779517
 21
2.126148386098517
 31
0.0
  0
LINE
  5
1411
330
1F
100
AcDbEntity
  8
RESISTOR
100
AcDbLine
 10
6.408440005779517
 20
2.251148386098517
 30
0.0
 11
6.908440005779517
 21
2.251148386098517
 31
0.0
  0
ARC
  5
1412
330
1F
100
AcDbEntity
  8
RESISTOR
100
AcDbCircle
 10
7.835432752863631
 20
2.391718672983639
 30
0.0
 40
0.2509549593858367
100
AcDbArc
 50
180.3507316803042
 51
359.6722531988703
  0
LINE
  5
1413
330
1F
100
AcDbEntity
  8
RESISTOR
100
AcDbLine
 10
6.408440005779517
 20
1.626148386098517
 30
0.0
 11
6.908440005779517
 21
1.626148386098517
 31
0.0
  0
CIRCLE
  5
1414
330
1F
100
AcDbEntity
  8
RESISTOR
100
AcDbCircle
 10
6.658440005779517
 20
1.938648386098517
 30
0.0
 40
0.2165063509461107
  0
ARC
  5
1415
330
1F
100
AcDbEntity
  8
RESISTOR
100
AcDbCircle
 10
8.344248484621381
 20
2.390283152997529
 30
0.0
 40
0.2509549593858367
100
AcDbArc
 50
180.0
 51
0.0
  0
ARC
  5
1416
330
1F
100
AcDbEntity
  8
RESISTOR
100
AcDbCircle
 10
8.846158403393054
 20
2.390283152997529
 30
0.0
 40
0.2509549593858367
100
AcDbArc
 50
180.0
 51
0.0
  0
ARC
  5
1417
330
1F
100
AcDbEntity
  8
RESISTOR
100
AcDbCircle
 10
9.348068322164728
 20
2.390283152997529
 30
0.0
 40
0.2509549593858367
100
AcDbArc
 50
180.0
 51
0.0
  0
ARC
  5
1418
330
1F
100
AcDbEntity
  8
RESISTOR
100
AcDbCircle
 10
9.849978240936401
 20
2.390283152997529
 30
0.0
 40
0.2509549593858367
100
AcDbArc
 50
180.0
 51
0.0
  0
LINE
  5
1419
330
1F
100
AcDbEntity
  8
RESISTOR
100
AcDbLine
 10
11.66344000577951
 20
2.25114838609851
 30
0.0
 11
12.16344000577951
 21
2.25114838609851
 31
0.0
  0
LINE
  5
141A
330
1F
100
AcDbEntity
  8
RESISTOR
100
AcDbLine
 10
11.60626457769795
 20
2.37614838609851
 30
0.0
 11
11.66344000577951
 21
2.37614838609851
 31
0.0
  0
ARC
  5
141B
330
1F
100
AcDbEntity
  8
RESISTOR
100
AcDbCircle
 10
11.35570799725142
 20
2.390283152997529
 30
0.0
 40
0.2509549593858367
100
AcDbArc
 50
180.0
 51
9.999999999996878
  0
LINE
  5
141C
330
1F
100
AcDbEntity
  8
RESISTOR
100
AcDbLine
 10
12.16344000577951
 20
2.12614838609851
 30
0.0
 11
12.66344000577951
 21
2.12614838609851
 31
0.0
  0
LINE
  5
141D
330
1F
100
AcDbEntity
  8
RESISTOR
100
AcDbLine
 10
11.66344000577951
 20
1.62614838609851
 30
0.0
 11
12.16344000577951
 21
1.62614838609851
 31
0.0
  0
CIRCLE
  5
141E
330
1F
100
AcDbEntity
  8
RESISTOR
100
AcDbCircle
 10
11.91344000577951
 20
1.93864838609851
 30
0.0
 40
0.2165063509461107
  0
ARC
  5
141F
330
1F
100
AcDbEntity
  8
RESISTOR
100
AcDbCircle
 10
10.35188815970807
 20
2.390283152997529
 30
0.0
 40
0.2509549593858367
100
AcDbArc
 50
180.0
 51
0.0
  0
ARC
  5
1420
330
1F
100
AcDbEntity
  8
RESISTOR
100
AcDbCircle
 10
10.85379807847975
 20
2.390283152997529
 30
0.0
 40
0.2509549593858367
100
AcDbArc
 50
179.9999999999992
 51
0.0000000000008142
  0
ARC
  5
1421
330
1F
100
AcDbEntity
  8
RESISTOR
100
AcDbCircle
 10
7.713082550379773
 20
3.867686170265887
 30
0.0
 40
0.2509549593858367
100
AcDbArc
 50
10.00000000000184
 51
180.0
  0
ARC
  5
1422
330
1F
100
AcDbEntity
  8
RESISTOR
100
AcDbCircle
 10
7.713082550379773
 20
3.867686170265887
 30
0.0
 40
0.2509549593858367
100
AcDbArc
 50
10.00000000000184
 51
180.0
  0
LINE
  5
1424
330
1F
100
AcDbEntity
  8
RESISTOR
100
AcDbLine
 10
6.454548788901639
 20
3.910651331664087
 30
0.0
 11
6.454336620425557
 21
3.913076428442895
 31
0.0
  0
ARC
  5
1425
330
1F
100
AcDbEntity
  8
RESISTOR
100
AcDbCircle
 10
7.2111726316081
 20
3.867686170265887
 30
0.0
 40
0.2509549593858367
100
AcDbArc
 50
10.00000000000184
 51
180.0
  0
LINE
  5
1426
330
1F
100
AcDbEntity
  8
RESISTOR
100
AcDbLine
 10
6.956458707673313
 20
3.910651331664087
 30
0.0
 11
6.956246539197231
 21
3.913076428442895
 31
0.0
  0
LINE
  5
1427
330
1F
100
AcDbEntity
  8
RESISTOR
100
AcDbLine
 10
7.458368626444986
 20
3.910651331664087
 30
0.0
 11
7.458156457968904
 21
3.913076428442895
 31
0.0
  0
LINE
  5
1428
330
1F
100
AcDbEntity
  8
RESISTOR
100
AcDbLine
 10
7.458368626444986
 20
3.910651331664087
 30
0.0
 11
7.458156457968904
 21
3.913076428442895
 31
0.0
  0
ARC
  5
142B
330
1F
100
AcDbEntity
  8
RESISTOR
100
AcDbCircle
 10
7.706287584373491
 20
3.867854703474474
 30
0.0
 40
0.2509549593858367
100
AcDbArc
 50
359.6722531988736
 51
180.3507316803107
  0
LINE
  5
142C
330
1F
100
AcDbEntity
  8
RESISTOR
100
AcDbLine
 10
6.987134568145258
 20
3.865873783462713
 30
0.0
 11
6.908440005779517
 21
3.865873783462713
 31
0.0
  0
ARC
  5
142D
330
1F
100
AcDbEntity
  8
RESISTOR
100
AcDbCircle
 10
7.204382367456027
 20
3.866318511705454
 30
0.0
 40
0.2509549593858367
100
AcDbArc
 50
0.0000000000056996
 51
154.6035119861276
  0
LINE
  5
142E
330
1F
100
AcDbEntity
  8
RESISTOR
100
AcDbLine
 10
5.908440005779517
 20
4.126148386098517
 30
0.0
 11
6.408440005779517
 21
4.126148386098517
 31
0.0
  0
LINE
  5
142F
330
1F
100
AcDbEntity
  8
RESISTOR
100
AcDbLine
 10
6.408440005779517
 20
4.001148386098517
 30
0.0
 11
6.908440005779517
 21
4.001148386098517
 31
0.0
  0
ARC
  5
1430
330
1F
100
AcDbEntity
  8
RESISTOR
100
AcDbCircle
 10
8.208193397359629
 20
3.866419183488343
 30
0.0
 40
0.2509549593858367
100
AcDbArc
 50
0.0000000000048853
 51
180.000000000013
  0
ARC
  5
1431
330
1F
100
AcDbEntity
  8
RESISTOR
100
AcDbCircle
 10
8.214992469151447
 20
3.867686170265887
 30
0.0
 40
0.2509549593858367
100
AcDbArc
 50
10.00000000000184
 51
180.0
  0
LINE
  5
1432
330
1F
100
AcDbEntity
  8
RESISTOR
100
AcDbLine
 10
7.96027854521666
 20
3.910651331664087
 30
0.0
 11
7.960066376740577
 21
3.913076428442895
 31
0.0
  0
ARC
  5
1433
330
1F
100
AcDbEntity
  8
RESISTOR
100
AcDbCircle
 10
8.71690238792312
 20
3.867686170265887
 30
0.0
 40
0.2509549593858367
100
AcDbArc
 50
10.00000000000184
 51
180.0
  0
LINE
  5
1434
330
1F
100
AcDbEntity
  8
RESISTOR
100
AcDbLine
 10
8.462188463988333
 20
3.910651331664087
 30
0.0
 11
8.461976295512251
 21
3.913076428442895
 31
0.0
  0
ARC
  5
1435
330
1F
100
AcDbEntity
  8
RESISTOR
100
AcDbCircle
 10
9.218812306694793
 20
3.867686170265887
 30
0.0
 40
0.2509549593858367
100
AcDbArc
 50
10.00000000000184
 51
180.0
  0
LINE
  5
1436
330
1F
100
AcDbEntity
  8
RESISTOR
100
AcDbLine
 10
8.964098382760006
 20
3.910651331664087
 30
0.0
 11
8.963886214283924
 21
3.913076428442895
 31
0.0
  0
ARC
  5
1437
330
1F
100
AcDbEntity
  8
RESISTOR
100
AcDbCircle
 10
9.720722225466467
 20
3.867686170265887
 30
0.0
 40
0.2509549593858367
100
AcDbArc
 50
10.00000000000184
 51
180.0
  0
LINE
  5
1438
330
1F
100
AcDbEntity
  8
RESISTOR
100
AcDbLine
 10
9.46600830153168
 20
3.910651331664087
 30
0.0
 11
9.465796133055597
 21
3.913076428442895
 31
0.0
  0
LINE
  5
1439
330
1F
100
AcDbEntity
  8
RESISTOR
100
AcDbLine
 10
11.66344000577951
 20
4.00114838609851
 30
0.0
 11
12.16344000577951
 21
4.00114838609851
 31
0.0
  0
ARC
  5
143A
330
1F
100
AcDbEntity
  8
RESISTOR
100
AcDbCircle
 10
11.22661054508067
 20
3.865873783462706
 30
0.0
 40
0.2509549593858367
100
AcDbArc
 50
0.0000000000008142
 51
180.0
  0
LINE
  5
143B
330
1F
100
AcDbEntity
  8
RESISTOR
100
AcDbLine
 10
11.47735508476402
 20
3.87614838609851
 30
0.0
 11
11.66344000577951
 21
3.87614838609851
 31
0.0
  0
LINE
  5
143C
330
1F
100
AcDbEntity
  8
RESISTOR
100
AcDbLine
 10
12.16344000577951
 20
4.12614838609851
 30
0.0
 11
12.66344000577951
 21
4.12614838609851
 31
0.0
  0
ARC
  5
143D
330
1F
100
AcDbEntity
  8
RESISTOR
100
AcDbCircle
 10
10.22263214423814
 20
3.867686170265887
 30
0.0
 40
0.2509549593858367
100
AcDbArc
 50
10.00000000000184
 51
180.0
  0
LINE
  5
143E
330
1F
100
AcDbEntity
  8
RESISTOR
100
AcDbLine
 10
9.967918220303353
 20
3.910651331664087
 30
0.0
 11
9.967706051827271
 21
3.913076428442895
 31
0.0
  0
ARC
  5
143F
330
1F
100
AcDbEntity
  8
RESISTOR
100
AcDbCircle
 10
10.72470062630899
 20
3.865873783462706
 30
0.0
 40
0.2509549593858367
100
AcDbArc
 50
0.0
 51
180.0000000000008
  0
LINE
  5
1440
102
{ACAD_REACTORS
330
158C
102
}
330
1F
100
AcDbEntity
  8
RESISTOR
100
AcDbLine
 10
13.78594000577951
 20
3.551148386098507
 30
0.0
 11
13.78594000577951
 21
2.701148386098498
 31
0.0
  0
CIRCLE
  5
1441
330
1F
100
AcDbEntity
  8
DIM
100
AcDbCircle
 10
26.76611240319981
 20
3.126148386098503
 30
0.0
 40
0.156
  0
LINE
  5
1442
330
1F
100
AcDbEntity
  8
RESISTOR
100
AcDbLine
 10
26.76611240319981
 20
2.603755733999118
 30
0.0
 11
26.76611240319981
 21
3.669461724205543
 31
0.0
  0
LINE
  5
1443
330
1F
100
AcDbEntity
  8
RESISTOR
100
AcDbLine
 10
28.68994047527151
 20
2.626148386098488
 30
0.0
 11
28.68994047527151
 21
3.626148386098488
 31
0.0
  0
LINE
  5
1444
330
1F
100
AcDbEntity
  8
RESISTOR
100
AcDbLine
 10
28.76994047527145
 20
2.626148386098488
 30
0.0
 11
28.76994047527143
 21
3.626148386098488
 31
0.0
  0
CIRCLE
  5
1445
330
1F
100
AcDbEntity
  8
RESISTOR
100
AcDbCircle
 10
26.76611240319981
 20
3.126148386098503
 30
0.0
 40
0.1875
  0
CIRCLE
  5
1446
330
1F
100
AcDbEntity
  8
RESISTOR
100
AcDbCircle
 10
26.76611240319981
 20
3.126148386098503
 30
0.0
 40
0.1875
  0
CIRCLE
  5
1447
330
1F
100
AcDbEntity
  8
RESISTOR
100
AcDbCircle
 10
26.76611240319981
 20
3.126148386098503
 30
0.0
 40
0.25
  0
CIRCLE
  5
1448
330
1F
100
AcDbEntity
  8
RESISTOR
100
AcDbCircle
 10
26.76611240319981
 20
3.126148386098503
 30
0.0
 40
0.4375
  0
LWPOLYLINE
  5
1449
330
1F
100
AcDbEntity
  8
RESISTOR
100
AcDbPolyline
 90
        6
 70
     1
 43
0.0
 10
27.01611240319981
 20
2.981810818801218
 10
26.76611240319981
 20
2.83747325150372
 10
26.51611240319981
 20
2.981810818801218
 10
26.51611240319981
 20
3.270485953395986
 10
26.76611240319981
 20
3.414823520693484
 10
27.01611240319981
 20
3.270485953395986
  0
CIRCLE
  5
144A
330
1F
100
AcDbEntity
  8
RESISTOR
100
AcDbCircle
 10
23.76209329003164
 20
3.126148386098503
 30
0.0
 40
0.4375
  0
LWPOLYLINE
  5
144B
330
1F
100
AcDbEntity
  8
RESISTOR
100
AcDbPolyline
 90
        6
 70
     1
 43
0.0
 10
24.01209329003164
 20
2.981810818801218
 10
23.76209329003164
 20
2.83747325150372
 10
23.51209329003164
 20
2.981810818801218
 10
23.51209329003164
 20
3.270485953395986
 10
23.76209329003164
 20
3.414823520693484
 10
24.01209329003164
 20
3.270485953395986
  0
LINE
  5
144C
330
1F
100
AcDbEntity
  8
RESISTOR
100
AcDbLine
 10
23.76209329003164
 20
2.603755733999118
 30
0.0
 11
23.76209329003164
 21
3.669461724205543
 31
0.0
  0
CIRCLE
  5
144D
330
1F
100
AcDbEntity
  8
RESISTOR
100
AcDbCircle
 10
23.76209329003164
 20
3.126148386098503
 30
0.0
 40
0.25
  0
CIRCLE
  5
144E
330
1F
100
AcDbEntity
  8
RESISTOR
100
AcDbCircle
 10
23.76209329003164
 20
3.126148386098503
 30
0.0
 40
0.1875
  0
CIRCLE
  5
144F
330
1F
100
AcDbEntity
  8
DIM
100
AcDbCircle
 10
23.76209329003164
 20
3.126148386098503
 30
0.0
 40
0.156
  0
CIRCLE
  5
1450
330
1F
100
AcDbEntity
  8
RESISTOR
100
AcDbCircle
 10
23.76209329003164
 20
3.126148386098503
 30
0.0
 40
0.1875
  0
LWPOLYLINE
  5
1451
330
1F
100
AcDbEntity
  8
RESISTOR
100
AcDbPolyline
 90
        6
 70
     1
 43
0.0
 10
21.01959846097939
 20
2.981810818801218
 10
20.7695984609794
 20
2.83747325150372
 10
20.5195984609794
 20
2.981810818801218
 10
20.5195984609794
 20
3.270485953395986
 10
20.7695984609794
 20
3.414823520693484
 10
21.01959846097939
 20
3.270485953395986
  0
CIRCLE
  5
1452
330
1F
100
AcDbEntity
  8
RESISTOR
100
AcDbCircle
 10
20.7695984609794
 20
3.126148386098503
 30
0.0
 40
0.1875
  0
CIRCLE
  5
1453
330
1F
100
AcDbEntity
  8
RESISTOR
100
AcDbCircle
 10
20.7695984609794
 20
3.126148386098503
 30
0.0
 40
0.25
  0
CIRCLE
  5
1454
330
1F
100
AcDbEntity
  8
RESISTOR
100
AcDbCircle
 10
20.7695984609794
 20
3.126148386098503
 30
0.0
 40
0.1875
  0
CIRCLE
  5
1455
330
1F
100
AcDbEntity
  8
DIM
100
AcDbCircle
 10
20.7695984609794
 20
3.126148386098503
 30
0.0
 40
0.156
  0
CIRCLE
  5
1456
330
1F
100
AcDbEntity
  8
RESISTOR
100
AcDbCircle
 10
20.7695984609794
 20
3.126148386098503
 30
0.0
 40
0.4375
  0
LINE
  5
1457
330
1F
100
AcDbEntity
  8
RESISTOR
100
AcDbLine
 10
20.7695984609794
 20
2.603755733999118
 30
0.0
 11
20.7695984609794
 21
3.669461724205543
 31
0.0
  0
LINE
  5
1458
330
1F
100
AcDbEntity
  8
RESISTOR
100
AcDbLine
 10
19.7661124031998
 20
3.626148386098474
 30
0.0
 11
19.7661124031998
 21
2.626148386098488
 31
0.0
  0
ARC
  5
1459
330
1F
100
AcDbEntity
  8
RESISTOR
100
AcDbCircle
 10
23.76209329003164
 20
3.126148386098503
 30
0.0
 40
1.0
100
AcDbArc
 50
210.0000000000005
 51
329.9999999999995
  0
LINE
  5
145A
330
1F
100
AcDbEntity
  8
RESISTOR
100
AcDbLine
 10
28.76994047527143
 20
2.626148386098488
 30
0.0
 11
19.7661124031998
 21
2.626148386098488
 31
0.0
  0
LINE
  5
145B
330
1F
100
AcDbEntity
  8
RESISTOR
100
AcDbLine
 10
19.86405882729677
 20
2.954433113630098
 30
0.0
 11
19.86405882729677
 21
2.626148386098488
 31
0.0
  0
LINE
  5
145C
330
1F
100
AcDbEntity
  8
RESISTOR
100
AcDbLine
 10
19.7661124031998
 20
2.626148386098488
 30
0.0
 11
20.90008699941539
 21
2.626148386098488
 31
0.0
  0
ARC
  5
145D
330
1F
100
AcDbEntity
  8
RESISTOR
100
AcDbCircle
 10
20.7695984609794
 20
3.126148386098503
 30
0.0
 40
1.0
100
AcDbArc
 50
210.0000000000005
 51
329.9999999999995
  0
ARC
  5
145E
330
1F
100
AcDbEntity
  8
RESISTOR
100
AcDbCircle
 10
26.76611240319981
 20
3.126148386098503
 30
0.0
 40
1.0
100
AcDbArc
 50
210.0000000000005
 51
329.9999999999995
  0
ARC
  5
145F
330
1F
100
AcDbEntity
  8
RESISTOR
100
AcDbCircle
 10
23.76209329003164
 20
3.126148386098503
 30
0.0
 40
1.0
100
AcDbArc
 50
30.00000000000013
 51
149.9999999999999
  0
LINE
  5
1460
330
1F
100
AcDbEntity
  8
RESISTOR
100
AcDbLine
 10
28.76994047527143
 20
3.626148386098488
 30
0.0
 11
19.7661124031998
 21
3.626148386098474
 31
0.0
  0
LINE
  5
1461
330
1F
100
AcDbEntity
  8
RESISTOR
100
AcDbLine
 10
24.28420462495198
 20
3.126148386098488
 30
0.0
 11
23.22945274800638
 21
3.126148386098488
 31
0.0
  0
LINE
  5
1462
330
1F
100
AcDbEntity
  8
RESISTOR
100
AcDbLine
 10
19.86405882729677
 20
3.626148386098474
 30
0.0
 11
19.86405882729677
 21
3.404711170709585
 31
0.0
  0
LINE
  5
1463
330
1F
100
AcDbEntity
  8
RESISTOR
100
AcDbLine
 10
19.7661124031998
 20
3.626148386098261
 30
0.0
 11
20.9000869994153
 21
3.626148386098488
 31
0.0
  0
ARC
  5
1464
330
1F
100
AcDbEntity
  8
RESISTOR
100
AcDbCircle
 10
20.7695984609794
 20
3.126148386098503
 30
0.0
 40
1.0
100
AcDbArc
 50
29.99999999999835
 51
150.0000000000009
  0
LINE
  5
1465
102
{ACAD_REACTORS
330
1568
102
}
330
1F
100
AcDbEntity
  8
RESISTOR
100
AcDbLine
 10
13.78594000577951
 20
22.08216239717644
 30
0.0
 11
13.78594000577951
 21
22.16216239717648
 31
0.0
  0
LINE
  5
1466
330
1F
100
AcDbEntity
  8
RESISTOR
100
AcDbLine
 10
27.28822373812015
 20
3.126148386098488
 30
0.0
 11
26.23347186117455
 21
3.126148386098488
 31
0.0
  0
ARC
  5
1467
330
1F
100
AcDbEntity
  8
RESISTOR
100
AcDbCircle
 10
26.76611240319981
 20
3.126148386098503
 30
0.0
 40
1.0
100
AcDbArc
 50
30.00000000000013
 51
149.9999999999999
  0
ARC
  5
146E
330
1F
100
AcDbEntity
  8
RESISTOR
100
AcDbCircle
 10
9.218434536631171
 20
17.90984725523396
 30
0.0
 40
0.2509549593858367
100
AcDbArc
 50
359.6722531988737
 51
180.3507316803107
  0
ARC
  5
146F
330
1F
100
AcDbEntity
  8
RESISTOR
100
AcDbCircle
 10
8.71652931971365
 20
17.90831106346491
 30
0.0
 40
0.2509549593858367
100
AcDbArc
 50
359.6722531988737
 51
180.3507316803107
  0
ARC
  5
1470
330
1F
100
AcDbEntity
  8
RESISTOR
100
AcDbCircle
 10
8.214624102796129
 20
17.90677487169589
 30
0.0
 40
0.2509549593858367
100
AcDbArc
 50
359.6722531988737
 51
180.3507316803107
  0
ARC
  5
1471
330
1F
100
AcDbEntity
  8
RESISTOR
100
AcDbCircle
 10
7.712718885878608
 20
17.90523867992684
 30
0.0
 40
0.2509549593858367
100
AcDbArc
 50
359.6722531988737
 51
180.3507316803107
  0
ARC
  5
1472
330
1F
100
AcDbEntity
  8
RESISTOR
100
AcDbCircle
 10
7.210813668961087
 20
17.90370248815782
 30
0.0
 40
0.2509549593858367
100
AcDbArc
 50
359.6722531988737
 51
180.3507316803107
  0
ARC
  5
1474
330
1F
100
AcDbEntity
  8
RESISTOR
100
AcDbCircle
 10
9.710360515119212
 20
17.89766509875438
 30
0.0
 40
0.2509549593858367
100
AcDbArc
 50
0.5616753196848903
 51
178.2290483823631
  0
ARC
  5
1475
330
1F
100
AcDbEntity
  8
RESISTOR
100
AcDbCircle
 10
10.21263214423813
 20
17.89585299610406
 30
0.0
 40
0.2509549593858367
100
AcDbArc
 50
10.00000000000184
 51
180.0
  0
ARC
  5
1476
330
1F
100
AcDbEntity
  8
RESISTOR
100
AcDbCircle
 10
10.71470062630899
 20
17.89404060930088
 30
0.0
 40
0.2509549593858367
100
AcDbArc
 50
0.0
 51
180.0000000000008
  0
LINE
  5
1477
330
1F
100
AcDbEntity
  8
RESISTOR
100
AcDbLine
 10
12.65344000577951
 20
18.15431521193668
 30
0.0
 11
12.65344000577951
 21
16.15431521193668
 31
0.0
  0
LINE
  5
1478
330
1F
100
AcDbEntity
  8
RESISTOR
100
AcDbLine
 10
12.15344000577951
 20
16.15431521193668
 30
0.0
 11
12.15344000577951
 21
18.15431521193668
 31
0.0
  0
LINE
  5
1479
330
1F
100
AcDbEntity
  8
RESISTOR
100
AcDbLine
 10
11.65344000577951
 20
16.27931521193668
 30
0.0
 11
11.65344000577951
 21
18.02931521193668
 31
0.0
  0
ARC
  5
147A
330
1F
100
AcDbEntity
  8
RESISTOR
100
AcDbCircle
 10
11.21661054508066
 20
17.89404060930088
 30
0.0
 40
0.2509549593858367
100
AcDbArc
 50
0.0000000000008142
 51
180.0
  0
LINE
  5
147B
330
1F
100
AcDbEntity
  8
RESISTOR
100
AcDbLine
 10
12.65344000577951
 20
22.16216239717648
 30
0.0
 11
12.65344000577952
 21
13.61566454029643
 31
0.0
  0
LINE
  5
147C
330
1F
100
AcDbEntity
  8
RESISTOR
100
AcDbLine
 10
12.73344000577951
 20
22.08216239717644
 30
0.0
 11
12.73344000577951
 21
13.61566454029643
 31
0.0
  0
ARC
  5
147D
330
1F
100
AcDbEntity
  8
RESISTOR
100
AcDbCircle
 10
9.218434536631171
 20
14.91735242618171
 30
0.0
 40
0.2509549593858367
100
AcDbArc
 50
359.6722531988737
 51
180.3507316803107
  0
ARC
  5
147E
330
1F
100
AcDbEntity
  8
RESISTOR
100
AcDbCircle
 10
9.347579705121312
 20
13.44121639569087
 30
0.0
 40
0.2509549593858367
100
AcDbArc
 50
180.3507316803042
 51
359.6722531988705
  0
LINE
  5
147F
330
1F
100
AcDbEntity
  8
RESISTOR
100
AcDbLine
 10
9.605883959373919
 20
13.35573112164516
 30
0.0
 11
9.469385390231501
 21
14.91591690619558
 31
0.0
  0
LINE
  5
1480
330
1F
100
AcDbEntity
  8
RESISTOR
100
AcDbLine
 10
9.605883959373919
 20
16.34822595069741
 30
0.0
 11
9.469385390231501
 21
17.90841173524783
 31
0.0
  0
ARC
  5
1481
330
1F
100
AcDbEntity
  8
RESISTOR
100
AcDbCircle
 10
9.347579705121312
 20
16.43371122474312
 30
0.0
 40
0.2509549593858367
100
AcDbArc
 50
180.3507316803042
 51
359.6722531988705
  0
ARC
  5
1482
330
1F
100
AcDbEntity
  8
RESISTOR
100
AcDbCircle
 10
8.71652931971365
 20
14.91581623441266
 30
0.0
 40
0.2509549593858367
100
AcDbArc
 50
359.6722531988737
 51
180.3507316803107
  0
ARC
  5
1483
330
1F
100
AcDbEntity
  8
RESISTOR
100
AcDbCircle
 10
8.84567448820379
 20
16.43217503297407
 30
0.0
 40
0.2509549593858367
100
AcDbArc
 50
180.3507316803042
 51
359.6722531988705
  0
LINE
  5
1484
330
1F
100
AcDbEntity
  8
RESISTOR
100
AcDbLine
 10
9.103978742456398
 20
16.34668975892837
 30
0.0
 11
8.96748017331398
 21
17.90687554347878
 31
0.0
  0
ARC
  5
1485
330
1F
100
AcDbEntity
  8
RESISTOR
100
AcDbCircle
 10
8.84567448820379
 20
13.43968020392183
 30
0.0
 40
0.2509549593858367
100
AcDbArc
 50
180.3507316803042
 51
359.6722531988705
  0
LINE
  5
1486
330
1F
100
AcDbEntity
  8
RESISTOR
100
AcDbLine
 10
9.103978742456398
 20
13.35419492987612
 30
0.0
 11
8.96748017331398
 21
14.91438071442653
 31
0.0
  0
ARC
  5
1487
330
1F
100
AcDbEntity
  8
RESISTOR
100
AcDbCircle
 10
8.214624102796129
 20
14.91428004264364
 30
0.0
 40
0.2509549593858367
100
AcDbArc
 50
359.6722531988737
 51
180.3507316803107
  0
ARC
  5
1488
330
1F
100
AcDbEntity
  8
RESISTOR
100
AcDbCircle
 10
8.343769271286269
 20
16.43063884120505
 30
0.0
 40
0.2509549593858367
100
AcDbArc
 50
180.3507316803042
 51
359.6722531988705
  0
LINE
  5
1489
330
1F
100
AcDbEntity
  8
RESISTOR
100
AcDbLine
 10
8.602073525538877
 20
16.34515356715934
 30
0.0
 11
8.465574956396459
 21
17.90533935170976
 31
0.0
  0
ARC
  5
148A
330
1F
100
AcDbEntity
  8
RESISTOR
100
AcDbCircle
 10
8.343769271286269
 20
13.4381440121528
 30
0.0
 40
0.2509549593858367
100
AcDbArc
 50
180.3507316803042
 51
359.6722531988705
  0
LINE
  5
148B
330
1F
100
AcDbEntity
  8
RESISTOR
100
AcDbLine
 10
8.602073525538877
 20
13.35265873810709
 30
0.0
 11
8.465574956396459
 21
14.91284452265751
 31
0.0
  0
ARC
  5
148C
330
1F
100
AcDbEntity
  8
RESISTOR
100
AcDbCircle
 10
7.712718885878608
 20
14.91274385087459
 30
0.0
 40
0.2509549593858367
100
AcDbArc
 50
359.6722531988737
 51
180.3507316803107
  0
ARC
  5
148D
330
1F
100
AcDbEntity
  8
RESISTOR
100
AcDbCircle
 10
7.841864054368748
 20
16.42910264943601
 30
0.0
 40
0.2509549593858367
100
AcDbArc
 50
180.3507316803042
 51
359.6722531988705
  0
LINE
  5
148E
330
1F
100
AcDbEntity
  8
RESISTOR
100
AcDbLine
 10
8.100168308621356
 20
16.3436173753903
 30
0.0
 11
7.963669739478937
 21
17.90380315994071
 31
0.0
  0
ARC
  5
148F
330
1F
100
AcDbEntity
  8
RESISTOR
100
AcDbCircle
 10
7.841864054368748
 20
13.43660782038377
 30
0.0
 40
0.2509549593858367
100
AcDbArc
 50
180.3507316803042
 51
359.6722531988705
  0
LINE
  5
1490
330
1F
100
AcDbEntity
  8
RESISTOR
100
AcDbLine
 10
8.100168308621356
 20
13.35112254633806
 30
0.0
 11
7.963669739478937
 21
14.91130833088846
 31
0.0
  0
ARC
  5
1491
330
1F
100
AcDbEntity
  8
RESISTOR
100
AcDbCircle
 10
7.210813668961087
 20
14.91120765910557
 30
0.0
 40
0.2509549593858367
100
AcDbArc
 50
359.6722531988737
 51
180.3507316803107
  0
ARC
  5
1492
330
1F
100
AcDbEntity
  8
RESISTOR
100
AcDbCircle
 10
7.339958837451227
 20
16.42756645766699
 30
0.0
 40
0.2509549593858367
100
AcDbArc
 50
180.3507316803042
 51
359.6722531988705
  0
LINE
  5
1493
330
1F
100
AcDbEntity
  8
RESISTOR
100
AcDbLine
 10
7.598263091703834
 20
16.34208118362128
 30
0.0
 11
7.461764522561416
 21
17.90226696817169
 31
0.0
  0
ARC
  5
1494
330
1F
100
AcDbEntity
  8
RESISTOR
100
AcDbCircle
 10
7.339958837451227
 20
13.43507162861473
 30
0.0
 40
0.2509549593858367
100
AcDbArc
 50
180.3507316803042
 51
359.6722531988705
  0
LINE
  5
1495
330
1F
100
AcDbEntity
  8
RESISTOR
100
AcDbLine
 10
7.598263091703834
 20
13.34958635456902
 30
0.0
 11
7.461764522561416
 21
14.90977213911944
 31
0.0
  0
LINE
  5
1498
330
1F
100
AcDbEntity
  8
RESISTOR
100
AcDbLine
 10
7.096357874786313
 20
16.34054499185223
 30
0.0
 11
6.959859305643895
 21
17.90073077640264
 31
0.0
  0
LINE
  5
149A
330
1F
100
AcDbEntity
  8
RESISTOR
100
AcDbLine
 10
7.096357874786313
 20
13.34805016279999
 30
0.0
 11
6.959859305643895
 21
14.90823594735039
 31
0.0
  0
LINE
  5
149D
330
1F
100
AcDbEntity
  8
RESISTOR
100
AcDbLine
 10
9.455646591184425
 20
14.94813543110033
 30
0.0
 11
9.455434422708343
 21
14.95056052787913
 31
0.0
  0
LINE
  5
149E
330
1F
100
AcDbEntity
  8
RESISTOR
100
AcDbLine
 10
9.957918220303348
 20
14.94632332845001
 30
0.0
 11
9.957706051827265
 21
14.94874842522882
 31
0.0
  0
ARC
  5
149F
330
1F
100
AcDbEntity
  8
RESISTOR
100
AcDbCircle
 10
10.21263214423813
 20
14.90335816705181
 30
0.0
 40
0.2509549593858367
100
AcDbArc
 50
10.00000000000184
 51
180.0
  0
ARC
  5
14A0
330
1F
100
AcDbEntity
  8
RESISTOR
100
AcDbCircle
 10
9.710360515119212
 20
14.90517026970213
 30
0.0
 40
0.2509549593858367
100
AcDbArc
 50
0.5616753196848903
 51
178.2290483823631
  0
LINE
  5
14A1
330
1F
100
AcDbEntity
  8
RESISTOR
100
AcDbLine
 10
9.957918220303348
 20
17.93881815750226
 30
0.0
 11
9.957706051827265
 21
17.94124325428106
 31
0.0
  0
ARC
  5
14A2
330
1F
100
AcDbEntity
  8
RESISTOR
100
AcDbCircle
 10
9.839978240936396
 20
16.41844997883567
 30
0.0
 40
0.2509549593858367
100
AcDbArc
 50
180.0
 51
0.0000000000040711
  0
ARC
  5
14A3
330
1F
100
AcDbEntity
  8
RESISTOR
100
AcDbCircle
 10
10.84379807847974
 20
16.4184499788357
 30
0.0
 40
0.2509549593858367
100
AcDbArc
 50
179.9999999999992
 51
0.0000000000008142
  0
ARC
  5
14A4
330
1F
100
AcDbEntity
  8
RESISTOR
100
AcDbCircle
 10
10.34188815970807
 20
16.4184499788357
 30
0.0
 40
0.2509549593858367
100
AcDbArc
 50
180.0
 51
0.0
  0
LINE
  5
14A5
330
1F
100
AcDbEntity
  8
RESISTOR
100
AcDbLine
 10
9.592835851276412
 20
16.37487210746179
 30
0.0
 11
9.459608702781416
 21
17.89766538290724
 31
0.0
  0
LINE
  5
14A6
330
1F
100
AcDbEntity
  8
RESISTOR
100
AcDbLine
 10
10.09474577004808
 20
16.37487210746184
 30
0.0
 11
9.961303416159488
 21
17.90012519181193
 31
0.0
  0
LINE
  5
14A7
330
1F
100
AcDbEntity
  8
RESISTOR
100
AcDbLine
 10
11.09856560759137
 20
16.37487210746195
 30
0.0
 11
10.96565558569485
 21
17.89404060930088
 31
0.0
  0
LINE
  5
14A8
330
1F
100
AcDbEntity
  8
RESISTOR
100
AcDbLine
 10
10.5966556888197
 20
16.37487210746195
 30
0.0
 11
10.45977453389817
 21
17.93943086747788
 31
0.0
  0
LINE
  5
14A9
330
1F
100
AcDbEntity
  8
RESISTOR
100
AcDbLine
 10
11.46735508476401
 20
14.91182038288443
 30
0.0
 11
11.65344000577951
 21
14.91182038288443
 31
0.0
  0
LINE
  5
14AA
330
1F
100
AcDbEntity
  8
RESISTOR
100
AcDbLine
 10
11.65344000577951
 20
15.03682038288443
 30
0.0
 11
12.15344000577951
 21
15.03682038288443
 31
0.0
  0
LINE
  5
14AB
330
1F
100
AcDbEntity
  8
RESISTOR
100
AcDbLine
 10
12.15344000577951
 20
15.16182038288443
 30
0.0
 11
12.65344000577951
 21
15.16182038288443
 31
0.0
  0
LINE
  5
14AC
330
1F
100
AcDbEntity
  8
RESISTOR
100
AcDbLine
 10
11.46735508476401
 20
17.90431521193668
 30
0.0
 11
11.65344000577951
 21
17.90431521193668
 31
0.0
  0
LINE
  5
14AD
330
1F
100
AcDbEntity
  8
RESISTOR
100
AcDbLine
 10
12.15344000577951
 20
16.15431521193668
 30
0.0
 11
12.65344000577951
 21
16.15431521193668
 31
0.0
  0
LINE
  5
14AE
330
1F
100
AcDbEntity
  8
RESISTOR
100
AcDbLine
 10
11.59626457769794
 20
16.40431521193668
 30
0.0
 11
11.65344000577951
 21
16.40431521193668
 31
0.0
  0
LINE
  5
14AF
330
1F
100
AcDbEntity
  8
RESISTOR
100
AcDbLine
 10
11.65344000577951
 20
16.27931521193668
 30
0.0
 11
12.15344000577951
 21
16.27931521193668
 31
0.0
  0
LINE
  5
14B0
330
1F
100
AcDbEntity
  8
RESISTOR
100
AcDbLine
 10
11.59666295663728
 20
16.41844997883567
 30
0.0
 11
11.46752659578688
 21
17.89448533754361
 31
0.0
  0
ARC
  5
14B1
330
1F
100
AcDbEntity
  8
RESISTOR
100
AcDbCircle
 10
11.21661054508066
 20
14.90154578024863
 30
0.0
 40
0.2509549593858367
100
AcDbArc
 50
0.0000000000008142
 51
180.0
  0
ARC
  5
14B2
330
1F
100
AcDbEntity
  8
RESISTOR
100
AcDbCircle
 10
11.34570799725141
 20
16.4184499788357
 30
0.0
 40
0.2509549593858367
100
AcDbArc
 50
180.0
 51
9.999999999996779
  0
ARC
  5
14B3
330
1F
100
AcDbEntity
  8
RESISTOR
100
AcDbCircle
 10
10.34188815970807
 20
13.42595514978346
 30
0.0
 40
0.2509549593858367
100
AcDbArc
 50
180.0
 51
0.0
  0
ARC
  5
14B4
330
1F
100
AcDbEntity
  8
RESISTOR
100
AcDbCircle
 10
10.84379807847974
 20
13.42595514978346
 30
0.0
 40
0.2509549593858367
100
AcDbArc
 50
179.9999999999992
 51
0.0000000000008142
  0
ARC
  5
14B5
330
1F
100
AcDbEntity
  8
RESISTOR
100
AcDbCircle
 10
9.839978240936396
 20
13.42595514978343
 30
0.0
 40
0.2509549593858367
100
AcDbArc
 50
180.0
 51
0.0000000000040711
  0
LINE
  5
14B6
330
1F
100
AcDbEntity
  8
RESISTOR
100
AcDbLine
 10
12.73594000577949
 20
14.58682038288444
 30
0.0
 11
12.73594000577949
 21
13.73682038288443
 31
0.0
  0
LINE
  5
14B7
330
1F
100
AcDbEntity
  8
RESISTOR
100
AcDbLine
 10
11.59626457769794
 20
13.41182038288444
 30
0.0
 11
11.65344000577951
 21
13.41182038288444
 31
0.0
  0
LINE
  5
14B8
330
1F
100
AcDbEntity
  8
RESISTOR
100
AcDbLine
 10
11.65344000577951
 20
13.28682038288444
 30
0.0
 11
12.15344000577951
 21
13.28682038288444
 31
0.0
  0
LINE
  5
14B9
330
1F
100
AcDbEntity
  8
RESISTOR
100
AcDbLine
 10
12.73344000577951
 20
13.61566454029643
 30
0.0
 11
12.65344000577951
 21
13.61566454029643
 31
0.0
  0
LINE
  5
14BA
330
1F
100
AcDbEntity
  8
RESISTOR
100
AcDbLine
 10
12.15344000577951
 20
13.16182038288444
 30
0.0
 11
12.65344000577951
 21
13.16182038288444
 31
0.0
  0
ARC
  5
14BB
330
1F
100
AcDbEntity
  8
RESISTOR
100
AcDbCircle
 10
11.34570799725141
 20
13.42595514978346
 30
0.0
 40
0.2509549593858367
100
AcDbArc
 50
180.0
 51
9.999999999996779
  0
LINE
  5
14BC
330
1F
100
AcDbEntity
  8
RESISTOR
100
AcDbLine
 10
10.5966556888197
 20
13.38237727840972
 30
0.0
 11
10.45977453389817
 21
14.94693603842564
 31
0.0
  0
LINE
  5
14BD
330
1F
100
AcDbEntity
  8
RESISTOR
100
AcDbLine
 10
11.09856560759137
 20
13.38237727840972
 30
0.0
 11
10.96565558569485
 21
14.90154578024863
 31
0.0
  0
LINE
  5
14BE
330
1F
100
AcDbEntity
  8
RESISTOR
100
AcDbLine
 10
10.09474577004808
 20
13.3823772784096
 30
0.0
 11
9.961303416159488
 21
14.90763036275968
 31
0.0
  0
LINE
  5
14BF
330
1F
100
AcDbEntity
  8
RESISTOR
100
AcDbLine
 10
9.592835851276412
 20
13.38237727840954
 30
0.0
 11
9.459608702781416
 21
14.90517055385499
 31
0.0
  0
ARC
  5
14C0
330
1F
100
AcDbEntity
  8
RESISTOR
100
AcDbCircle
 10
10.71470062630899
 20
14.90154578024863
 30
0.0
 40
0.2509549593858367
100
AcDbArc
 50
0.0
 51
180.0000000000008
  0
LINE
  5
14C1
330
1F
100
AcDbEntity
  8
RESISTOR
100
AcDbLine
 10
12.15344000577951
 20
13.16182038288444
 30
0.0
 11
12.15344000577951
 21
15.16182038288443
 31
0.0
  0
LINE
  5
14C2
330
1F
100
AcDbEntity
  8
RESISTOR
100
AcDbLine
 10
11.65344000577951
 20
13.28682038288444
 30
0.0
 11
11.65344000577951
 21
15.03682038288443
 31
0.0
  0
LINE
  5
14C3
330
1F
100
AcDbEntity
  8
RESISTOR
100
AcDbLine
 10
11.59666295663728
 20
13.42595514978343
 30
0.0
 11
11.46752659578688
 21
14.90199050849137
 31
0.0
  0
LINE
  5
14C4
102
{ACAD_REACTORS
330
1568
102
}
330
1F
100
AcDbEntity
  8
RESISTOR
100
AcDbLine
 10
12.65344000577951
 20
15.16182038288443
 30
0.0
 11
12.65344000577951
 21
13.16182038288444
 31
0.0
  0
ARC
  5
14C5
330
1F
100
AcDbEntity
  8
RESISTOR
100
AcDbCircle
 10
9.347579705121312
 20
19.48155840998291
 30
0.0
 40
0.2509549593858367
100
AcDbArc
 50
180.3507316803042
 51
359.6722531988705
  0
ARC
  5
14C6
330
1F
100
AcDbEntity
  8
RESISTOR
100
AcDbCircle
 10
9.218434536631171
 20
20.95769444047375
 30
0.0
 40
0.2509549593858367
100
AcDbArc
 50
359.6722531988737
 51
180.3507316803107
  0
LINE
  5
14C7
330
1F
100
AcDbEntity
  8
RESISTOR
100
AcDbLine
 10
9.605883959373919
 20
19.3960731359372
 30
0.0
 11
9.469385390231501
 21
20.95625892048762
 31
0.0
  0
LINE
  5
14C8
330
1F
100
AcDbEntity
  8
RESISTOR
100
AcDbLine
 10
9.103978742456398
 20
19.39453694416815
 30
0.0
 11
8.96748017331398
 21
20.95472272871857
 31
0.0
  0
ARC
  5
14C9
330
1F
100
AcDbEntity
  8
RESISTOR
100
AcDbCircle
 10
8.71652931971365
 20
20.9561582487047
 30
0.0
 40
0.2509549593858367
100
AcDbArc
 50
359.6722531988737
 51
180.3507316803107
  0
ARC
  5
14CA
330
1F
100
AcDbEntity
  8
RESISTOR
100
AcDbCircle
 10
8.84567448820379
 20
19.48002221821386
 30
0.0
 40
0.2509549593858367
100
AcDbArc
 50
180.3507316803042
 51
359.6722531988705
  0
LINE
  5
14CB
330
1F
100
AcDbEntity
  8
RESISTOR
100
AcDbLine
 10
8.602073525538877
 20
19.39300075239913
 30
0.0
 11
8.465574956396459
 21
20.95318653694955
 31
0.0
  0
ARC
  5
14CC
330
1F
100
AcDbEntity
  8
RESISTOR
100
AcDbCircle
 10
8.214624102796129
 20
20.95462205693568
 30
0.0
 40
0.2509549593858367
100
AcDbArc
 50
359.6722531988737
 51
180.3507316803107
  0
ARC
  5
14CD
330
1F
100
AcDbEntity
  8
RESISTOR
100
AcDbCircle
 10
8.343769271286269
 20
19.47848602644484
 30
0.0
 40
0.2509549593858367
100
AcDbArc
 50
180.3507316803042
 51
359.6722531988705
  0
LINE
  5
14CE
330
1F
100
AcDbEntity
  8
RESISTOR
100
AcDbLine
 10
8.100168308621356
 20
19.39146456063008
 30
0.0
 11
7.963669739478937
 21
20.9516503451805
 31
0.0
  0
ARC
  5
14CF
330
1F
100
AcDbEntity
  8
RESISTOR
100
AcDbCircle
 10
7.712718885878608
 20
20.95308586516663
 30
0.0
 40
0.2509549593858367
100
AcDbArc
 50
359.6722531988737
 51
180.3507316803107
  0
ARC
  5
14D0
330
1F
100
AcDbEntity
  8
RESISTOR
100
AcDbCircle
 10
7.841864054368748
 20
19.47694983467579
 30
0.0
 40
0.2509549593858367
100
AcDbArc
 50
180.3507316803042
 51
359.6722531988705
  0
LINE
  5
14D1
330
1F
100
AcDbEntity
  8
RESISTOR
100
AcDbLine
 10
7.598263091703834
 20
19.38992836886107
 30
0.0
 11
7.461764522561416
 21
20.95011415341148
 31
0.0
  0
ARC
  5
14D2
330
1F
100
AcDbEntity
  8
RESISTOR
100
AcDbCircle
 10
7.210813668961087
 20
20.95154967339761
 30
0.0
 40
0.2509549593858367
100
AcDbArc
 50
359.6722531988737
 51
180.3507316803107
  0
ARC
  5
14D3
330
1F
100
AcDbEntity
  8
RESISTOR
100
AcDbCircle
 10
7.339958837451227
 20
19.47541364290677
 30
0.0
 40
0.2509549593858367
100
AcDbArc
 50
180.3507316803042
 51
359.6722531988705
  0
LINE
  5
14D4
330
1F
100
AcDbEntity
  8
RESISTOR
100
AcDbLine
 10
7.096357874786313
 20
19.38839217709202
 30
0.0
 11
6.959859305643895
 21
20.94857796164243
 31
0.0
  0
LINE
  5
14D8
330
1F
100
AcDbEntity
  8
RESISTOR
100
AcDbLine
 10
9.957918220303348
 20
20.98666534274205
 30
0.0
 11
9.957706051827265
 21
20.98909043952085
 31
0.0
  0
ARC
  5
14D9
330
1F
100
AcDbEntity
  8
RESISTOR
100
AcDbCircle
 10
10.21263214423813
 20
20.94370018134385
 30
0.0
 40
0.2509549593858367
100
AcDbArc
 50
10.00000000000184
 51
180.0
  0
ARC
  5
14DA
330
1F
100
AcDbEntity
  8
RESISTOR
100
AcDbCircle
 10
9.710360515119212
 20
20.94551228399417
 30
0.0
 40
0.2509549593858367
100
AcDbArc
 50
0.5616753196848903
 51
178.2290483823631
  0
ARC
  5
14DB
330
1F
100
AcDbEntity
  8
RESISTOR
100
AcDbCircle
 10
10.71470062630899
 20
20.94188779454067
 30
0.0
 40
0.2509549593858367
100
AcDbArc
 50
0.0
 51
180.0000000000008
  0
LINE
  5
14DC
330
1F
100
AcDbEntity
  8
RESISTOR
100
AcDbLine
 10
10.09474577004808
 20
19.42271929270163
 30
0.0
 11
9.961303416159488
 21
20.94797237705172
 31
0.0
  0
LINE
  5
14DD
330
1F
100
AcDbEntity
  8
RESISTOR
100
AcDbLine
 10
11.09856560759137
 20
19.42271929270174
 30
0.0
 11
10.96565558569485
 21
20.94188779454067
 31
0.0
  0
LINE
  5
14DE
330
1F
100
AcDbEntity
  8
RESISTOR
100
AcDbLine
 10
10.5966556888197
 20
19.42271929270174
 30
0.0
 11
10.45977453389817
 21
20.98727805271767
 31
0.0
  0
LINE
  5
14DF
330
1F
100
AcDbEntity
  8
RESISTOR
100
AcDbLine
 10
9.592835851276412
 20
19.42271929270157
 30
0.0
 11
9.459608702781416
 21
20.94551256814703
 31
0.0
  0
ARC
  5
14E0
330
1F
100
AcDbEntity
  8
RESISTOR
100
AcDbCircle
 10
10.34188815970807
 20
19.46629716407549
 30
0.0
 40
0.2509549593858367
100
AcDbArc
 50
180.0
 51
0.0
  0
ARC
  5
14E1
330
1F
100
AcDbEntity
  8
RESISTOR
100
AcDbCircle
 10
10.84379807847974
 20
19.46629716407549
 30
0.0
 40
0.2509549593858367
100
AcDbArc
 50
179.9999999999992
 51
0.0000000000008142
  0
ARC
  5
14E2
330
1F
100
AcDbEntity
  8
RESISTOR
100
AcDbCircle
 10
9.839978240936396
 20
19.46629716407546
 30
0.0
 40
0.2509549593858367
100
AcDbArc
 50
180.0
 51
0.0000000000040711
  0
LINE
  5
14E3
330
1F
100
AcDbEntity
  8
DIMENSION
100
AcDbLine
 10
13.28594000577951
 20
21.80585019171823
 30
0.0
 11
13.28594000577951
 21
22.52585019171823
 31
0.0
  0
LINE
  5
14E4
330
1F
100
AcDbEntity
  8
RESISTOR
100
AcDbLine
 10
11.65344000577951
 20
21.07716239717647
 30
0.0
 11
12.15344000577951
 21
21.07716239717647
 31
0.0
  0
LINE
  5
14E5
330
1F
100
AcDbEntity
  8
RESISTOR
100
AcDbLine
 10
11.46735508476401
 20
20.95216239717647
 30
0.0
 11
11.65344000577951
 21
20.95216239717647
 31
0.0
  0
LINE
  5
14E6
330
1F
100
AcDbEntity
  8
RESISTOR
100
AcDbLine
 10
12.15344000577951
 20
21.20216239717647
 30
0.0
 11
12.65344000577951
 21
21.20216239717647
 31
0.0
  0
LINE
  5
14E7
330
1F
100
AcDbEntity
  8
RESISTOR
100
AcDbLine
 10
11.59626457769794
 20
19.45216239717647
 30
0.0
 11
11.65344000577951
 21
19.45216239717647
 31
0.0
  0
LINE
  5
14E8
330
1F
100
AcDbEntity
  8
RESISTOR
100
AcDbLine
 10
11.59666295663728
 20
19.46629716407546
 30
0.0
 11
11.46752659578688
 21
20.94233252278341
 31
0.0
  0
LINE
  5
14E9
330
1F
100
AcDbEntity
  8
RESISTOR
100
AcDbLine
 10
12.15344000577951
 20
18.15431521193668
 30
0.0
 11
12.65344000577951
 21
18.15431521193668
 31
0.0
  0
LINE
  5
14EA
330
1F
100
AcDbEntity
  8
RESISTOR
100
AcDbLine
 10
11.65344000577951
 20
18.02931521193668
 30
0.0
 11
12.15344000577951
 21
18.02931521193668
 31
0.0
  0
LINE
  5
14EB
330
1F
100
AcDbEntity
  8
RESISTOR
100
AcDbLine
 10
11.65344000577951
 20
19.32716239717647
 30
0.0
 11
12.15344000577951
 21
19.32716239717647
 31
0.0
  0
LINE
  5
14EC
330
1F
100
AcDbEntity
  8
RESISTOR
100
AcDbLine
 10
12.15344000577951
 20
19.20216239717647
 30
0.0
 11
12.65344000577951
 21
19.20216239717647
 31
0.0
  0
LINE
  5
14ED
330
1F
100
AcDbEntity
  8
RESISTOR
100
AcDbLine
 10
11.65344000577951
 20
19.32716239717647
 30
0.0
 11
11.65344000577951
 21
21.07716239717647
 31
0.0
  0
LINE
  5
14EE
330
1F
100
AcDbEntity
  8
RESISTOR
100
AcDbLine
 10
12.65344000577951
 20
21.20216239717647
 30
0.0
 11
12.65344000577951
 21
19.20216239717647
 31
0.0
  0
LINE
  5
14EF
330
1F
100
AcDbEntity
  8
RESISTOR
100
AcDbLine
 10
12.15344000577951
 20
19.20216239717647
 30
0.0
 11
12.15344000577951
 21
21.20216239717647
 31
0.0
  0
ARC
  5
14F0
330
1F
100
AcDbEntity
  8
RESISTOR
100
AcDbCircle
 10
11.34570799725141
 20
19.46629716407549
 30
0.0
 40
0.2509549593858367
100
AcDbArc
 50
180.0
 51
9.999999999996779
  0
ARC
  5
14F1
330
1F
100
AcDbEntity
  8
RESISTOR
100
AcDbCircle
 10
11.21661054508066
 20
20.94188779454067
 30
0.0
 40
0.2509549593858367
100
AcDbArc
 50
0.0000000000008142
 51
180.0
  0
ARC
  5
14F3
330
1F
100
AcDbEntity
  8
RESISTOR
100
AcDbCircle
 10
8.198192801291007
 20
17.89755772108169
 30
0.0
 40
0.2509549593858367
100
AcDbArc
 50
359.6722531988737
 51
180.3507316803107
  0
LINE
  5
14F4
330
1F
100
AcDbEntity
  8
RESISTOR
100
AcDbLine
 10
6.398440005779516
 20
16.15431521193668
 30
0.0
 11
6.398440005779516
 21
18.15431521193669
 31
0.0
  0
LINE
  5
14F5
330
1F
100
AcDbEntity
  8
RESISTOR
100
AcDbLine
 10
6.898440005779516
 20
16.27931521193669
 30
0.0
 11
6.898440005779516
 21
18.02931521193668
 31
0.0
  0
LINE
  5
14F6
330
1F
100
AcDbEntity
  8
RESISTOR
100
AcDbLine
 10
7.118958262686614
 20
16.27298836292258
 30
0.0
 11
6.967679298069835
 21
18.00211484080001
 31
0.0
  0
LINE
  5
14F7
330
1F
100
AcDbEntity
  8
RESISTOR
100
AcDbLine
 10
5.898440005779516
 20
18.15431521193669
 30
0.0
 11
5.898440005779516
 21
16.15431521193668
 31
0.0
  0
ARC
  5
14F8
330
1F
100
AcDbEntity
  8
RESISTOR
100
AcDbCircle
 10
7.696287584373486
 20
17.89602152931264
 30
0.0
 40
0.2509549593858367
100
AcDbArc
 50
359.6722531988737
 51
180.3507316803107
  0
ARC
  5
14F9
330
1F
100
AcDbEntity
  8
RESISTOR
100
AcDbCircle
 10
7.194382367456022
 20
17.89448533754362
 30
0.0
 40
0.2509549593858367
100
AcDbArc
 50
0.0000000000056996
 51
154.6035119861276
  0
LINE
  5
14FA
330
1F
100
AcDbEntity
  8
RESISTOR
100
AcDbLine
 10
5.818440005779546
 20
22.08216239717645
 30
0.0
 11
5.818440005779542
 21
13.61566454029644
 31
0.0
  0
LINE
  5
14FB
330
1F
100
AcDbEntity
  8
RESISTOR
100
AcDbLine
 10
5.898440005779544
 20
22.16216239717649
 30
0.0
 11
5.898440005779526
 21
13.61566454029644
 31
0.0
  0
ARC
  5
1501
330
1F
100
AcDbEntity
  8
RESISTOR
100
AcDbCircle
 10
8.198192801291007
 20
14.90506289202944
 30
0.0
 40
0.2509549593858367
100
AcDbArc
 50
359.6722531988737
 51
180.3507316803107
  0
ARC
  5
1502
330
1F
100
AcDbEntity
  8
RESISTOR
100
AcDbCircle
 10
8.327337969781147
 20
16.42142169059086
 30
0.0
 40
0.2509549593858367
100
AcDbArc
 50
180.3507316803042
 51
359.6722531988705
  0
LINE
  5
1503
330
1F
100
AcDbEntity
  8
RESISTOR
100
AcDbLine
 10
8.585642224033755
 20
16.33593641654515
 30
0.0
 11
8.449143654891337
 21
17.89612220109556
 31
0.0
  0
ARC
  5
1504
330
1F
100
AcDbEntity
  8
RESISTOR
100
AcDbCircle
 10
8.327337969781147
 20
13.4289268615386
 30
0.0
 40
0.2509549593858367
100
AcDbArc
 50
180.3507316803042
 51
359.6722531988705
  0
LINE
  5
1505
330
1F
100
AcDbEntity
  8
RESISTOR
100
AcDbLine
 10
8.585642224033755
 20
13.34344158749289
 30
0.0
 11
8.449143654891337
 21
14.90362737204331
 31
0.0
  0
LINE
  5
1506
330
1F
100
AcDbEntity
  8
RESISTOR
100
AcDbLine
 10
5.898440005779516
 20
15.16182038288444
 30
0.0
 11
6.398440005779516
 21
15.16182038288444
 31
0.0
  0
LINE
  5
1507
330
1F
100
AcDbEntity
  8
RESISTOR
100
AcDbLine
 10
6.977134568145256
 20
14.90154578024863
 30
0.0
 11
6.898440005779516
 21
14.90154578024863
 31
0.0
  0
LINE
  5
1508
330
1F
100
AcDbEntity
  8
RESISTOR
100
AcDbLine
 10
6.398440005779516
 20
15.03682038288444
 30
0.0
 11
6.898440005779516
 21
15.03682038288444
 31
0.0
  0
LINE
  5
1509
330
1F
100
AcDbEntity
  8
RESISTOR
100
AcDbLine
 10
6.977134568145256
 20
17.89404060930088
 30
0.0
 11
6.898440005779516
 21
17.89404060930088
 31
0.0
  0
LINE
  5
150A
330
1F
100
AcDbEntity
  8
RESISTOR
100
AcDbLine
 10
7.107468652181321
 20
16.40431521193669
 30
0.0
 11
6.898440005779516
 21
16.40431521193669
 31
0.0
  0
LINE
  5
150B
330
1F
100
AcDbEntity
  8
RESISTOR
100
AcDbLine
 10
6.398440005779516
 20
16.27931521193669
 30
0.0
 11
6.898440005779516
 21
16.27931521193669
 31
0.0
  0
LINE
  5
150C
330
1F
100
AcDbEntity
  8
RESISTOR
100
AcDbLine
 10
5.898440005779516
 20
16.15431521193668
 30
0.0
 11
6.398440005779516
 21
16.15431521193668
 31
0.0
  0
ARC
  5
150D
330
1F
100
AcDbEntity
  8
RESISTOR
100
AcDbCircle
 10
7.825432752863626
 20
16.41988549882181
 30
0.0
 40
0.2509549593858367
100
AcDbArc
 50
180.3507316803042
 51
359.6722531988705
  0
LINE
  5
150E
330
1F
100
AcDbEntity
  8
RESISTOR
100
AcDbLine
 10
8.083737007116233
 20
16.3344002247761
 30
0.0
 11
7.947238437973815
 21
17.89458600932651
 31
0.0
  0
LINE
  5
150F
330
1F
100
AcDbEntity
  8
RESISTOR
100
AcDbLine
 10
7.574482495331974
 20
16.41834930705265
 30
0.0
 11
7.445337326841833
 21
17.89448533754365
 31
0.0
  0
ARC
  5
1510
330
1F
100
AcDbEntity
  8
RESISTOR
100
AcDbCircle
 10
7.194382367456022
 20
14.90199050849138
 30
0.0
 40
0.2509549593858367
100
AcDbArc
 50
0.0000000000056996
 51
154.6035119861276
  0
ARC
  5
1511
330
1F
100
AcDbEntity
  8
RESISTOR
100
AcDbCircle
 10
7.323527535946105
 20
16.41834930705279
 30
0.0
 40
0.2509549593858367
100
AcDbArc
 50
215.3964880138742
 51
359.9999999999919
  0
LINE
  5
1512
330
1F
100
AcDbEntity
  8
RESISTOR
100
AcDbLine
 10
5.815940005779534
 20
14.58682038288445
 30
0.0
 11
5.815940005779534
 21
13.73682038288444
 31
0.0
  0
LINE
  5
1513
330
1F
100
AcDbEntity
  8
RESISTOR
100
AcDbLine
 10
5.818440005779542
 20
13.61566454029644
 30
0.0
 11
5.898440005779541
 21
13.61566454029644
 31
0.0
  0
LINE
  5
1514
330
1F
100
AcDbEntity
  8
RESISTOR
100
AcDbLine
 10
7.107468652181317
 20
13.41182038288444
 30
0.0
 11
6.898440005779512
 21
13.41182038288444
 31
0.0
  0
LINE
  5
1515
330
1F
100
AcDbEntity
  8
RESISTOR
100
AcDbLine
 10
6.398440005779512
 20
13.28682038288444
 30
0.0
 11
6.898440005779512
 21
13.28682038288444
 31
0.0
  0
LINE
  5
1516
330
1F
100
AcDbEntity
  8
RESISTOR
100
AcDbLine
 10
5.898440005779512
 20
13.16182038288445
 30
0.0
 11
6.398440005779512
 21
13.16182038288445
 31
0.0
  0
ARC
  5
1517
330
1F
100
AcDbEntity
  8
RESISTOR
100
AcDbCircle
 10
7.825432752863626
 20
13.42739066976957
 30
0.0
 40
0.2509549593858367
100
AcDbArc
 50
180.3507316803042
 51
359.6722531988705
  0
ARC
  5
1518
330
1F
100
AcDbEntity
  8
RESISTOR
100
AcDbCircle
 10
7.323527535946105
 20
13.42585447800053
 30
0.0
 40
0.2509549593858367
100
AcDbArc
 50
215.3964880138742
 51
359.9999999999919
  0
LINE
  5
1519
330
1F
100
AcDbEntity
  8
RESISTOR
100
AcDbLine
 10
6.398440005779512
 20
13.16182038288445
 30
0.0
 11
6.398440005779516
 21
15.16182038288444
 31
0.0
  0
LINE
  5
151A
330
1F
100
AcDbEntity
  8
RESISTOR
100
AcDbLine
 10
6.898440005779512
 20
13.28682038288444
 30
0.0
 11
6.898440005779516
 21
15.03682038288444
 31
0.0
  0
LINE
  5
151B
330
1F
100
AcDbEntity
  8
RESISTOR
100
AcDbLine
 10
7.118958262686611
 20
13.28049353387034
 30
0.0
 11
6.967679298069835
 21
15.00962001174777
 31
0.0
  0
LINE
  5
151C
330
1F
100
AcDbEntity
  8
RESISTOR
100
AcDbLine
 10
5.898440005779516
 20
15.16182038288444
 30
0.0
 11
5.898440005779512
 21
13.16182038288445
 31
0.0
  0
LINE
  5
151D
330
1F
100
AcDbEntity
  8
RESISTOR
100
AcDbLine
 10
7.57448249533197
 20
13.42585447800039
 30
0.0
 11
7.445337326841833
 21
14.9019905084914
 31
0.0
  0
LINE
  5
151E
330
1F
100
AcDbEntity
  8
RESISTOR
100
AcDbLine
 10
8.083737007116233
 20
13.34190539572386
 30
0.0
 11
7.947238437973815
 21
14.90209118027426
 31
0.0
  0
ARC
  5
151F
330
1F
100
AcDbEntity
  8
RESISTOR
100
AcDbCircle
 10
7.696287584373486
 20
14.90352670026039
 30
0.0
 40
0.2509549593858367
100
AcDbArc
 50
359.6722531988737
 51
180.3507316803107
  0
LINE
  5
1523
330
1F
100
AcDbEntity
  8
RESISTOR
100
AcDbLine
 10
8.585642224033755
 20
19.38378360178494
 30
0.0
 11
8.449143654891337
 21
20.94396938633535
 31
0.0
  0
ARC
  5
1524
330
1F
100
AcDbEntity
  8
RESISTOR
100
AcDbCircle
 10
8.198192801291007
 20
20.94540490632148
 30
0.0
 40
0.2509549593858367
100
AcDbArc
 50
359.6722531988737
 51
180.3507316803107
  0
ARC
  5
1525
330
1F
100
AcDbEntity
  8
RESISTOR
100
AcDbCircle
 10
8.327337969781147
 20
19.46926887583065
 30
0.0
 40
0.2509549593858367
100
AcDbArc
 50
180.3507316803042
 51
359.6722531988705
  0
LINE
  5
1526
330
1F
100
AcDbEntity
  8
DIMENSION
100
AcDbLine
 10
5.275940005779542
 20
21.80585019171823
 30
0.0
 11
5.275940005779542
 21
22.52585019171823
 31
0.0
  0
LINE
  5
1527
330
1F
100
AcDbEntity
  8
RESISTOR
100
AcDbLine
 10
4.780940005779541
 20
22.08216239717645
 30
0.0
 11
4.780940005779541
 21
22.16216239717649
 31
0.0
  0
LINE
  5
1528
330
1F
100
AcDbEntity
  8
RESISTOR
100
AcDbLine
 10
4.780940005779541
 20
22.08216239717645
 30
0.0
 11
5.818440005779546
 21
22.08216239717645
 31
0.0
  0
LINE
  5
1529
330
1F
100
AcDbEntity
  8
RESISTOR
100
AcDbLine
 10
4.780940005779541
 20
22.16216239717649
 30
0.0
 11
5.898440005779544
 21
22.16216239717649
 31
0.0
  0
LINE
  5
152A
330
1F
100
AcDbEntity
  8
RESISTOR
100
AcDbLine
 10
6.398440005779516
 20
21.07716239717648
 30
0.0
 11
6.898440005779516
 21
21.07716239717648
 31
0.0
  0
LINE
  5
152B
330
1F
100
AcDbEntity
  8
RESISTOR
100
AcDbLine
 10
6.977134568145256
 20
20.94188779454067
 30
0.0
 11
6.898440005779516
 21
20.94188779454067
 31
0.0
  0
LINE
  5
152C
330
1F
100
AcDbEntity
  8
RESISTOR
100
AcDbLine
 10
5.898440005779516
 20
21.20216239717648
 30
0.0
 11
6.398440005779516
 21
21.20216239717648
 31
0.0
  0
LINE
  5
152D
330
1F
100
AcDbEntity
  8
RESISTOR
100
AcDbLine
 10
7.107468652181321
 20
19.45216239717647
 30
0.0
 11
6.898440005779516
 21
19.45216239717647
 31
0.0
  0
LINE
  5
152E
330
1F
100
AcDbEntity
  8
RESISTOR
100
AcDbLine
 10
5.898440005779516
 20
18.15431521193669
 30
0.0
 11
6.398440005779516
 21
18.15431521193669
 31
0.0
  0
LINE
  5
152F
330
1F
100
AcDbEntity
  8
RESISTOR
100
AcDbLine
 10
6.398440005779516
 20
18.02931521193668
 30
0.0
 11
6.898440005779516
 21
18.02931521193668
 31
0.0
  0
LINE
  5
1530
330
1F
100
AcDbEntity
  8
RESISTOR
100
AcDbLine
 10
6.398440005779516
 20
19.32716239717647
 30
0.0
 11
6.898440005779516
 21
19.32716239717647
 31
0.0
  0
LINE
  5
1531
330
1F
100
AcDbEntity
  8
RESISTOR
100
AcDbLine
 10
5.898440005779516
 20
19.20216239717647
 30
0.0
 11
6.398440005779516
 21
19.20216239717647
 31
0.0
  0
LINE
  5
1532
330
1F
100
AcDbEntity
  8
RESISTOR
100
AcDbLine
 10
6.898440005779516
 20
19.32716239717647
 30
0.0
 11
6.898440005779516
 21
21.07716239717648
 31
0.0
  0
LINE
  5
1533
330
1F
100
AcDbEntity
  8
RESISTOR
100
AcDbLine
 10
5.898440005779516
 20
21.20216239717648
 30
0.0
 11
5.898440005779516
 21
19.20216239717647
 31
0.0
  0
LINE
  5
1534
330
1F
100
AcDbEntity
  8
RESISTOR
100
AcDbLine
 10
7.118958262686614
 20
19.32083554816237
 30
0.0
 11
6.967679298069835
 21
21.04996202603981
 31
0.0
  0
LINE
  5
1535
330
1F
100
AcDbEntity
  8
RESISTOR
100
AcDbLine
 10
6.398440005779516
 20
19.20216239717647
 30
0.0
 11
6.398440005779516
 21
21.20216239717648
 31
0.0
  0
LINE
  5
1536
330
1F
100
AcDbEntity
  8
RESISTOR
100
AcDbLine
 10
8.083737007116233
 20
19.38224741001589
 30
0.0
 11
7.947238437973815
 21
20.9424331945663
 31
0.0
  0
ARC
  5
1537
330
1F
100
AcDbEntity
  8
RESISTOR
100
AcDbCircle
 10
7.696287584373489
 20
20.94386871455244
 30
0.0
 40
0.2509549593858367
100
AcDbArc
 50
359.6722531988737
 51
180.3507316803107
  0
LINE
  5
1538
330
1F
100
AcDbEntity
  8
RESISTOR
100
AcDbLine
 10
7.574482495331974
 20
19.46619649229243
 30
0.0
 11
7.445337326841833
 21
20.94233252278344
 31
0.0
  0
ARC
  5
1539
330
1F
100
AcDbEntity
  8
RESISTOR
100
AcDbCircle
 10
7.825432752863626
 20
19.4677326840616
 30
0.0
 40
0.2509549593858367
100
AcDbArc
 50
180.3507316803042
 51
359.6722531988705
  0
ARC
  5
153A
330
1F
100
AcDbEntity
  8
RESISTOR
100
AcDbCircle
 10
7.194382367456025
 20
20.94233252278341
 30
0.0
 40
0.2509549593858367
100
AcDbArc
 50
0.0000000000056996
 51
154.6035119861276
  0
ARC
  5
153B
330
1F
100
AcDbEntity
  8
RESISTOR
100
AcDbCircle
 10
7.323527535946109
 20
19.46619649229258
 30
0.0
 40
0.2509549593858367
100
AcDbArc
 50
215.3964880138742
 51
359.9999999999919
  0
LINE
  5
153C
330
1F
100
AcDbEntity
  8
DIMENSION
100
AcDbLine
 10
28.44903409314801
 20
3.126148386098517
 30
0.0
 11
29.16903409314801
 21
3.126148386098517
 31
0.0
  0
DIMENSION
  5
154F
102
{ACAD_XDICTIONARY
360
155D
102
}
102
{ACAD_REACTORS
330
1568
102
}
330
1F
100
AcDbEntity
  8
BORDER
 62
     7
100
AcDbDimension
280
     0
  2
*D2
 10
15.60107155980176
 20
13.16182038288444
 30
0.0
 11
15.60107155980175
 21
17.66199139003046
 31
0.0
 70
    32
 71
     5
 42
9.000342014292037
 73
     0
 74
     0
 75
     0
  3
Standard
100
AcDbAlignedDimension
 13
13.78594000577951
 23
22.16216239717648
 33
0.0
 14
12.65344000577951
 24
13.16182038288444
 34
0.0
 50
90.0
100
AcDbRotatedDimension
1001
ACAD
1000
DSTYLE
1002
{
1070
    40
1040
2.0
1002
}
  0
DIMENSION
  5
1573
102
{ACAD_XDICTIONARY
360
1581
102
}
102
{ACAD_REACTORS
330
158C
102
}
330
1F
100
AcDbEntity
  8
BORDER
 62
     7
100
AcDbDimension
280
     0
  2
*D3
 10
4.785940005779515
 20
8.686258513006297
 30
0.0
 11
9.285940005779515
 21
8.686258513006297
 31
0.0
 70
    32
 71
     5
 42
9.0
 73
     0
 74
     0
 75
     0
  3
Standard
100
AcDbAlignedDimension
 13
13.78594000577951
 23
3.551148386098507
 33
0.0
 14
4.785940005779515
 24
3.5511483860985
 34
0.0
100
AcDbRotatedDimension
1001
ACAD
1000
DSTYLE
1002
{
1070
    40
1040
2.0
1002
}
  0
DIMENSION
  5
1597
102
{ACAD_XDICTIONARY
360
15A5
102
}
102
{ACAD_REACTORS
330
15B0
102
}
330
1F
100
AcDbEntity
  8
BORDER
 62
     7
100
AcDbDimension
280
     0
  2
*D4
 10
5.285940005779515
 20
6.524231545524425
 30
0.0
 11
9.285940005779515
 21
6.524231545524425
 31
0.0
 70
    32
 71
     5
 42
8.0
 73
     0
 74
     0
 75
     0
  3
Standard
100
AcDbAlignedDimension
 13
13.28594000577951
 23
3.486148386098509
 33
0.0
 14
5.285940005779515
 24
3.486148386098516
 34
0.0
100
AcDbRotatedDimension
1001
ACAD
1000
DSTYLE
1002
{
1070
    40
1040
2.0
1002
}
  0
DIMENSION
  5
15E9
102
{ACAD_XDICTIONARY
360
15F5
102
}
102
{ACAD_REACTORS
330
15FE
102
}
330
1F
100
AcDbEntity
  8
BORDER
 62
     7
100
AcDbDimension
280
     0
  2
*D5
 10
13.17860600282868
 20
2.934108255369143
 30
0.0
 11
16.13153604516273
 21
6.28512210269181
 31
0.0
 70
   163
 71
     5
 42
0.4400000000000013
 73
     0
 74
     0
 75
     0
  3
Standard
100
AcDbDiametricDimension
 15
13.39327400873034
 25
3.318188516827877
 35
0.0
 40
0.0
1001
ACAD
1000
DSTYLE
1002
{
1070
    40
1040
2.0
1070
   288
1070
     1
1002
}
1001
ACAD_DSTYLE_DIMRADIAL_EXTENSION
1070
   387
1070
     1
1070
   388
1040
0.0
1070
   390
1040
0.0
  0
VIEWPORT
  5
2E
330
1B
100
AcDbEntity
 67
     1
  8
0
100
AcDbViewport
 10
7.980617383318832
 20
4.973872139578862
 30
0.0
 40
22.37134289803407
 41
10.07002484496363
 68
     1
 69
     1
 12
7.980617383318832
 22
4.973872139578862
 13
0.0
 23
0.0
 14
0.5
 24
0.5
 15
0.5
 25
0.5
 16
0.0
 26
0.0
 36
1.0
 17
0.0
 27
0.0
 37
0.0
 42
50.0
 43
0.0
 44
0.0
 45
10.07002484496363
 50
0.0
 51
0.0
 72
   100
 90
    32832
  1

281
     0
 71
     1
 74
     0
110
0.0
120
0.0
130
0.0
111
1.0
121
0.0
131
0.0
112
0.0
122
1.0
132
0.0
 79
     0
146
0.0
170
     0
 61
     5
348
631
292
     1
282
     1
141
0.0
142
0.0
 63
   250
421
  3355443
  0
LINE
  5
4A6
330
1B
100
AcDbEntity
 67
     1
  8
BORDER
100
AcDbLine
 10
-0.018910355572956
 20
-0.0263756575647953
 30
0.0
 11
15.98108964442704
 21
-0.0263756575647953
 31
0.0
  0
LINE
  5
4A7
330
1B
100
AcDbEntity
 67
     1
  8
BORDER
100
AcDbLine
 10
15.98108964442704
 20
-0.0263756575647953
 30
0.0
 11
15.98108964442704
 21
9.973624342435204
 31
0.0
  0
LINE
  5
4A8
330
1B
100
AcDbEntity
 67
     1
  8
BORDER
100
AcDbLine
 10
15.98108964442704
 20
9.973624342435204
 30
0.0
 11
-0.018910355572956
 21
9.973624342435204
 31
0.0
  0
LINE
  5
4A9
330
1B
100
AcDbEntity
 67
     1
  8
BORDER
100
AcDbLine
 10
-0.018910355572956
 20
9.973624342435204
 30
0.0
 11
-0.018910355572956
 21
-0.0263756575647953
 31
0.0
  0
LWPOLYLINE
  5
4BA
330
1B
100
AcDbEntity
 67
     1
  8
BORDER
100
AcDbPolyline
 90
        3
 70
     0
 43
0.0
 10
7.231089644427044
 20
-0.0263756575647953
 10
15.98108964442704
 20
-0.0263756575647953
 10
15.98108964442704
 20
1.723624342435205
  0
INSERT
  5
1128
330
1B
100
AcDbEntity
 67
     1
  8
BORDER
 62
     7
100
AcDbBlockReference
 66
     1
  2
A$C04876F98
 10
7.231089663422742
 20
-0.0263756522452321
 30
0.0
  0
ATTRIB
  5
1129
330
1128
100
AcDbEntity
 67
     1
  8
0
100
AcDbText
 10
14.69983964442704
 20
0.2236243424352045
 30
0.0
 40
0.1875
  1
22945
 41
0.8000000000000001
100
AcDbAttribute
280
     0
  2
DWGNO
 70
     0
280
     0
  0
ATTRIB
  5
112A
330
1128
100
AcDbEntity
 67
     1
  8
0
100
AcDbText
 10
12.63733964442704
 20
0.2548743424352045
 30
0.0
 40
0.125
  1
DSW
 41
0.8
100
AcDbAttribute
280
     0
  2
DRNBY
 70
     0
280
     0
  0
ATTRIB
  5
112B
330
1128
100
AcDbEntity
 67
     1
  8
0
100
AcDbText
 10
13.48108964442704
 20
0.2548743424352045
 30
0.0
 40
0.125
  1
11/12/12
 41
0.9078947368421053
 72
     5
 11
14.19983964442704
 21
0.2548743424352045
 31
0.0
100
AcDbAttribute
280
     0
  2
DATE
 70
     0
280
     0
  0
ATTRIB
  5
112C
330
1128
100
AcDbEntity
 67
     1
  8
0
100
AcDbText
 10
12.57483964442704
 20
0.0048743424352045
 30
0.0
 40
0.125
  1
TO FIT
 41
0.8
100
AcDbAttribute
280
     0
  2
SCALE
 70
     0
280
     0
  0
ATTRIB
  5
112D
330
1128
100
AcDbEntity
 67
     1
  8
0
100
AcDbText
 10
13.57483964442704
 20
0.0048743424352045
 30
0.0
 40
0.125
  1

 41
0.8
100
AcDbAttribute
280
     0
  2
APRVD
 70
     0
280
     0
  0
ATTRIB
  5
112E
330
1128
100
AcDbEntity
 67
     1
  8
0
100
AcDbText
 10
15.32483964442704
 20
0.0048743424352045
 30
0.0
 40
0.125
  1
1
 41
0.8
100
AcDbAttribute
280
     0
  2
SHT
 70
     0
280
     0
  0
ATTRIB
  5
112F
330
1128
100
AcDbEntity
 67
     1
  8
0
100
AcDbText
 10
15.69983964442704
 20
0.0048743424352045
 30
0.0
 40
0.125
  1
1
 41
0.8
100
AcDbAttribute
280
     0
  2
OFSHT
 70
     0
280
     0
  0
ATTRIB
  5
1130
330
1128
100
AcDbEntity
 67
     1
  8
0
100
AcDbText
 10
12.38733964442704
 20
0.8486243424352045
 30
0.0
 40
0.1875
  1

 41
0.8000000000000001
100
AcDbAttribute
280
     0
  2
DESC1
 70
     0
280
     0
  0
ATTRIB
  5
1131
330
1128
100
AcDbEntity
 67
     1
  8
0
100
AcDbText
 10
12.38733964442704
 20
0.5673743424352045
 30
0.0
 40
0.1875
  1

 41
0.8000000000000001
100
AcDbAttribute
280
     0
  2
DESC2
 70
     0
280
     0
  0
ATTRIB
  5
1132
330
1128
100
AcDbEntity
 67
     1
  8
0
100
AcDbText
 10
11.76233964442704
 20
1.067374342435204
 30
0.0
 40
0.125
  1
.02
 41
0.8
100
AcDbAttribute
280
     0
  2
TOLXX
 70
     0
280
     0
  0
ATTRIB
  5
1133
330
1128
100
AcDbEntity
 67
     1
  8
0
100
AcDbText
 10
11.76233964442704
 20
0.8173743424352045
 30
0.0
 40
0.125
  1
.01
 41
0.8
100
AcDbAttribute
280
     0
  2
TOLXXX
 70
     0
280
     0
  0
ATTRIB
  5
1134
330
1128
100
AcDbEntity
 67
     1
  8
0
100
AcDbText
 10
11.51233964442704
 20
0.4423743424352045
 30
0.0
 40
0.125
  1
1/32
 41
0.8
100
AcDbAttribute
280
     0
  2
TOLFRAC
 70
     0
280
     0
  0
ATTRIB
  5
1135
330
1128
100
AcDbEntity
 67
     1
  8
0
100
AcDbText
 10
11.51233964442704
 20
0.0673743424352045
 30
0.0
 40
0.125
  1
1/2%%d
 41
0.8
100
AcDbAttribute
280
     0
  2
TOLANG
 70
     0
280
     0
  0
ATTRIB
  5
1136
330
1128
100
AcDbEntity
 67
     1
  8
0
100
AcDbText
 10
14.38733964442704
 20
0.0673743424352045
 30
0.0
 40
0.25
  1
B
 41
0.8
100
AcDbAttribute
280
     0
  2
DWG.SIZE
 70
     0
280
     0
  0
SEQEND
  5
1137
330
1128
100
AcDbEntity
 67
     1
  8
BORDER
 62
     7
  0
SPLINE
  5
1138
330
1B
100
AcDbEntity
 67
     1
  8
BORDER
 62
     4
100
AcDbSpline
210
0.0
220
0.0
230
1.0
 70
    24
 71
     3
 72
     8
 73
     4
 74
     0
 42
0.000000001
 43
0.0000000001
 40
2.0
 40
2.0
 40
2.0
 40
2.0
 40
3.0
 40
3.0
 40
3.0
 40
3.0
 10
13.12119120329752
 20
1.376877802685146
 30
0.0
 10
13.12119120329752
 20
1.376877802685146
 30
0.0
 10
13.12118500753788
 20
1.376877802685146
 30
0.0
 10
13.12118500753788
 20
1.376877802685146
 30
0.0
  0
SPLINE
  5
1139
330
1B
100
AcDbEntity
 67
     1
  8
BORDER
 62
     4
100
AcDbSpline
210
0.0
220
0.0
230
1.0
 70
     8
 71
     3
 72
     8
 73
     4
 74
     0
 42
0.000000001
 43
0.0000000001
 40
3.0
 40
3.0
 40
3.0
 40
3.0
 40
4.0
 40
4.0
 40
4.0
 40
4.0
 10
13.12118500753788
 20
1.376877802685146
 30
0.0
 10
13.12016270719636
 20
1.378451525635124
 30
0.0
 10
13.11925812628811
 20
1.380124380739425
 30
0.0
 10
13.11842169873595
 20
1.381846801920895
 30
0.0
  0
SPLINE
  5
113A
330
1B
100
AcDbEntity
 67
     1
  8
BORDER
 62
     4
100
AcDbSpline
210
0.0
220
0.0
230
1.0
 70
     8
 71
     3
 72
     8
 73
     4
 74
     0
 42
0.000000001
 43
0.0000000001
 40
4.0
 40
4.0
 40
4.0
 40
4.0
 40
5.0
 40
5.0
 40
5.0
 40
5.0
 10
13.11842169873595
 20
1.381846801920895
 30
0.0
 10
13.11819245562907
 20
1.38231767965396
 30
0.0
 10
13.1180065828397
 20
1.382825731944896
 30
0.0
 10
13.1177897312521
 20
1.38330900119725
 30
0.0
  0
SPLINE
  5
113B
330
1B
100
AcDbEntity
 67
     1
  8
BORDER
 62
     4
100
AcDbSpline
210
0.0
220
0.0
230
1.0
 70
     8
 71
     3
 72
     8
 73
     4
 74
     0
 42
0.000000001
 43
0.0000000001
 40
5.0
 40
5.0
 40
5.0
 40
5.0
 40
6.0
 40
6.0
 40
6.0
 40
6.0
 10
13.1177897312521
 20
1.38330900119725
 30
0.0
 10
13.11722591712436
 20
1.384597719203529
 30
0.0
 10
13.11668069027555
 20
1.385898828729099
 30
0.0
 10
13.11620981254248
 20
1.387249504331833
 30
0.0
  0
SPLINE
  5
113C
330
1B
100
AcDbEntity
 67
     1
  8
BORDER
 62
     4
100
AcDbSpline
210
0.0
220
0.0
230
1.0
 70
     8
 71
     3
 72
     8
 73
     4
 74
     0
 42
0.000000001
 43
0.0000000001
 40
6.0
 40
6.0
 40
6.0
 40
6.0
 40
7.0
 40
7.0
 40
7.0
 40
7.0
 10
13.11620981254248
 20
1.387249504331833
 30
0.0
 10
13.11599915671453
 20
1.387831905738517
 30
0.0
 10
13.11582567544446
 20
1.388439090183782
 30
0.0
 10
13.11563980265509
 20
1.389046274629048
 30
0.0
  0
SPLINE
  5
113D
330
1B
100
AcDbEntity
 67
     1
  8
BORDER
 62
     4
100
AcDbSpline
210
0.0
220
0.0
230
1.0
 70
     8
 71
     3
 72
     8
 73
     4
 74
     0
 42
0.000000001
 43
0.0000000001
 40
7.0
 40
7.0
 40
7.0
 40
7.0
 40
8.0
 40
8.0
 40
8.0
 40
8.0
 10
13.11563980265509
 20
1.389046274629048
 30
0.0
 10
13.11521849099919
 20
1.3903721671932
 30
0.0
 10
13.11482815814152
 20
1.391729038555579
 30
0.0
 10
13.11449978288031
 20
1.393116888716189
 30
0.0
  0
SPLINE
  5
113E
330
1B
100
AcDbEntity
 67
     1
  8
BORDER
 62
     4
100
AcDbSpline
210
0.0
220
0.0
230
1.0
 70
     8
 71
     3
 72
     8
 73
     4
 74
     0
 42
0.000000001
 43
0.0000000001
 40
8.0
 40
8.0
 40
8.0
 40
8.0
 40
9.0
 40
9.0
 40
9.0
 40
9.0
 10
13.11449978288031
 20
1.393116888716189
 30
0.0
 10
13.11435108464882
 20
1.393711681642162
 30
0.0
 10
13.11422097369626
 20
1.394306474568139
 30
0.0
 10
13.1140908627437
 20
1.394901267494114
 30
0.0
  0
SPLINE
  5
113F
330
1B
100
AcDbEntity
 67
     1
  8
BORDER
 62
     4
100
AcDbSpline
210
0.0
220
0.0
230
1.0
 70
     8
 71
     3
 72
     8
 73
     4
 74
     0
 42
0.000000001
 43
0.0000000001
 40
9.0
 40
9.0
 40
9.0
 40
9.0
 40
10.0
 40
10.0
 40
10.0
 40
10.0
 10
13.1140908627437
 20
1.394901267494114
 30
0.0
 10
13.11376868324213
 20
1.396400641328342
 30
0.0
 10
13.11348367829843
 20
1.397924798201152
 30
0.0
 10
13.11326063095119
 20
1.399473738112545
 30
0.0
  0
SPLINE
  5
1140
330
1B
100
AcDbEntity
 67
     1
  8
BORDER
 62
     4
100
AcDbSpline
210
0.0
220
0.0
230
1.0
 70
     8
 71
     3
 72
     8
 73
     4
 74
     0
 42
0.000000001
 43
0.0000000001
 40
10.0
 40
10.0
 40
10.0
 40
10.0
 40
11.0
 40
11.0
 40
11.0
 40
11.0
 10
13.11326063095119
 20
1.399473738112545
 30
0.0
 10
13.11318628183545
 20
1.399969398884189
 30
0.0
 10
13.11309954120041
 20
1.400465059655837
 30
0.0
 10
13.11303758360395
 20
1.40096072042748
 30
0.0
  0
SPLINE
  5
1141
330
1B
100
AcDbEntity
 67
     1
  8
BORDER
 62
     4
100
AcDbSpline
210
0.0
220
0.0
230
1.0
 70
     8
 71
     3
 72
     8
 73
     4
 74
     0
 42
0.000000001
 43
0.0000000001
 40
11.0
 40
11.0
 40
11.0
 40
11.0
 40
12.0
 40
12.0
 40
12.0
 40
12.0
 10
13.11303758360395
 20
1.40096072042748
 30
0.0
 10
13.11278975321813
 20
1.402807056801861
 30
0.0
 10
13.11260388042876
 20
1.404678176214824
 30
0.0
 10
13.1124737694762
 20
1.40657407866637
 30
0.0
  0
SPLINE
  5
1142
330
1B
100
AcDbEntity
 67
     1
  8
BORDER
 62
     4
100
AcDbSpline
210
0.0
220
0.0
230
1.0
 70
     8
 71
     3
 72
     8
 73
     4
 74
     0
 42
0.000000001
 43
0.0000000001
 40
12.0
 40
12.0
 40
12.0
 40
12.0
 40
13.0
 40
13.0
 40
13.0
 40
13.0
 10
13.1124737694762
 20
1.40657407866637
 30
0.0
 10
13.11246137795691
 20
1.40679712601361
 30
0.0
 10
13.11244279067798
 20
1.407007781841559
 30
0.0
 10
13.11242420339904
 20
1.407230829188801
 30
0.0
  0
SPLINE
  5
1143
330
1B
100
AcDbEntity
 67
     1
  8
BORDER
 62
     4
100
AcDbSpline
210
0.0
220
0.0
230
1.0
 70
     8
 71
     3
 72
     8
 73
     4
 74
     0
 42
0.000000001
 43
0.0000000001
 40
13.0
 40
13.0
 40
13.0
 40
13.0
 40
14.0
 40
14.0
 40
14.0
 40
14.0
 10
13.11242420339904
 20
1.407230829188801
 30
0.0
 10
13.11200908750279
 20
1.413996598721764
 30
0.0
 10
13.11226311364826
 20
1.421084547756295
 30
0.0
 10
13.1130437793636
 20
1.428197279829411
 30
0.0
  0
SPLINE
  5
1144
330
1B
100
AcDbEntity
 67
     1
  8
BORDER
 62
     4
100
AcDbSpline
210
0.0
220
0.0
230
1.0
 70
     8
 71
     3
 72
     8
 73
     4
 74
     0
 42
0.000000001
 43
0.0000000001
 40
14.0
 40
14.0
 40
14.0
 40
14.0
 40
15.0
 40
15.0
 40
15.0
 40
15.0
 10
13.1130437793636
 20
1.428197279829411
 30
0.0
 10
13.11681699698775
 20
1.423885031116095
 30
0.0
 10
13.11949356515464
 20
1.420824325851182
 30
0.0
 10
13.11949356515464
 20
1.420824325851182
 30
0.0
  0
SPLINE
  5
1145
330
1B
100
AcDbEntity
 67
     1
  8
BORDER
 62
     4
100
AcDbSpline
210
0.0
220
0.0
230
1.0
 70
     8
 71
     3
 72
     8
 73
     4
 74
     0
 42
0.000000001
 43
0.0000000001
 40
15.0
 40
15.0
 40
15.0
 40
15.0
 40
16.0
 40
16.0
 40
16.0
 40
16.0
 10
13.11949356515464
 20
1.420824325851182
 30
0.0
 10
13.13896683772067
 20
1.398507199607837
 30
0.0
 10
13.15816749686229
 20
1.376506057106414
 30
0.0
 10
13.17737435176356
 20
1.356022875718156
 30
0.0
  0
SPLINE
  5
1146
330
1B
100
AcDbEntity
 67
     1
  8
BORDER
 62
     4
100
AcDbSpline
210
0.0
220
0.0
230
1.0
 70
     8
 71
     3
 72
     8
 73
     4
 74
     0
 42
0.000000001
 43
0.0000000001
 40
16.0
 40
16.0
 40
16.0
 40
16.0
 40
17.0
 40
17.0
 40
17.0
 40
17.0
 10
13.17737435176356
 20
1.356022875718156
 30
0.0
 10
13.17566432210138
 20
1.355985701160282
 30
0.0
 10
13.17405342459354
 20
1.355886569005953
 30
0.0
 10
13.17230622037348
 20
1.355886569005953
 30
0.0
  0
HATCH
  5
1147
330
1B
100
AcDbEntity
 67
     1
  8
BORDER
 62
     4
100
AcDbHatch
 10
0.0
 20
0.0
 30
0.0
210
0.0
220
0.0
230
1.0
  2
SOLID
 70
     1
 71
     0
 91
        1
 92
        1
 93
        1
 72
     4
 94
        3
 73
     0
 74
     0
 95
       26
 96
       22
 40
0.0
 40
0.0
 40
0.0
 40
0.0
 40
1.0
 40
1.0
 40
1.0
 40
2.0
 40
2.0
 40
2.0
 40
3.0
 40
3.0
 40
3.0
 40
4.0
 40
4.0
 40
4.0
 40
5.0
 40
5.0
 40
5.0
 40
6.0
 40
6.0
 40
6.0
 40
7.0
 40
7.0
 40
7.0
 40
7.0
 10
12.59738309558203
 20
1.468308627774834
 10
12.65378309563566
 20
1.525978758555808
 10
12.78695475345756
 20
1.651201256752441
 10
12.88016995732517
 20
1.651201256752441
 10
12.92094425155267
 20
1.651201256752441
 10
12.95940752743238
 20
1.6305569856134
 10
12.99725122734752
 20
1.598971002940281
 10
12.99725122734752
 20
1.598971002940281
 10
13.02566498108211
 20
1.681337431668497
 10
13.02566498108211
 20
1.681337431668497
 10
13.02566498108211
 20
1.681337431668497
 10
12.48914937033355
 20
1.681337431668497
 10
12.48914937033355
 20
1.681337431668497
 10
12.48914937033355
 20
1.681337431668497
 10
12.45389549795025
 20
1.57909500599729
 10
12.45389549795025
 20
1.57909500599729
 10
12.45389549795025
 20
1.57909500599729
 10
12.59562969560233
 20
1.57909500599729
 10
12.63560473683555
 20
1.57909500599729
 10
12.63016485986674
 20
1.563308210420375
 10
12.61484274626324
 20
1.518903201040569
 10
12.59738309558203
 20
1.468308627774834
 97
        0
 97
        0
 75
     2
 76
     1
 98
        1
 10
12.12639383884502
 20
0.2113996515164602
450
        0
451
        0
460
0.0
461
0.0
452
        0
462
0.0
453
        0
470

  0
HATCH
  5
1148
330
1B
100
AcDbEntity
 67
     1
  8
BORDER
 62
     4
100
AcDbHatch
 10
0.0
 20
0.0
 30
0.0
210
0.0
220
0.0
230
1.0
  2
SOLID
 70
     1
 71
     0
 91
        1
 92
        1
 93
        1
 72
     4
 94
        3
 73
     0
 74
     0
 95
       38
 96
       34
 40
0.0
 40
0.0
 40
0.0
 40
0.0
 40
1.0
 40
1.0
 40
1.0
 40
2.0
 40
2.0
 40
2.0
 40
3.0
 40
3.0
 40
3.0
 40
4.0
 40
4.0
 40
4.0
 40
5.0
 40
5.0
 40
5.0
 40
6.0
 40
6.0
 40
6.0
 40
7.0
 40
7.0
 40
7.0
 40
8.0
 40
8.0
 40
8.0
 40
9.0
 40
9.0
 40
9.0
 40
10.0
 40
10.0
 40
10.0
 40
11.0
 40
11.0
 40
11.0
 40
11.0
 10
13.11143288185575
 20
1.479993830466382
 10
13.11143288185575
 20
1.479993830466382
 10
13.12213295876365
 20
1.467751009406734
 10
13.12213295876365
 20
1.467751009406734
 10
13.12758522725175
 20
1.483228017001372
 10
13.16911540415601
 20
1.591077605151822
 10
13.26716330054717
 20
1.591077605151822
 10
13.31934398828217
 20
1.591077605151822
 10
13.3351060008205
 20
1.576567136061896
 10
13.33947401137063
 20
1.570321810339161
 10
13.3410601258399
 20
1.56805416230888
 10
13.34589281836344
 20
1.561139694544422
 10
13.34050870323144
 20
1.546449548424776
 10
13.34050870323144
 20
1.546449548424776
 10
13.33071940299144
 20
1.519721041313784
 10
13.33071940299144
 20
1.519721041313784
 10
13.33071940299144
 20
1.519721041313784
 10
13.51370496836373
 20
1.519721041313784
 10
13.51370496836373
 20
1.519721041313784
 10
13.51370496836373
 20
1.519721041313784
 10
13.51778177821051
 20
1.534219118884417
 10
13.51778177821051
 20
1.534219118884417
 10
13.52774455972059
 20
1.569541144623818
 10
13.52327122125649
 20
1.60003667359932
 10
13.50448567801112
 20
1.624844495220184
 10
13.47218098721911
 20
1.667520887658877
 10
13.39909580643996
 20
1.689156480341209
 10
13.28728093211634
 20
1.689156480341209
 10
13.17129631155126
 20
1.689156480341209
 10
13.07479115931184
 20
1.652341276527227
 10
13.01093146464494
 20
1.587062752901493
 10
13.04436997945209
 20
1.556815054311816
 10
13.07748631475767
 20
1.518890809521277
 10
13.11143288185575
 20
1.479993830466382
 97
        0
 97
        0
 75
     2
 76
     1
 98
        1
 10
12.12639383884502
 20
0.2113996515164602
450
        0
451
        0
460
0.0
461
0.0
452
        0
462
0.0
453
        0
470

  0
HATCH
  5
1149
330
1B
100
AcDbEntity
 67
     1
  8
BORDER
 62
     4
100
AcDbHatch
 10
0.0
 20
0.0
 30
0.0
210
0.0
220
0.0
230
1.0
  2
SOLID
 70
     1
 71
     0
 91
        1
 92
        1
 93
        1
 72
     4
 94
        3
 73
     0
 74
     0
 95
       17
 96
       13
 40
0.0
 40
0.0
 40
0.0
 40
0.0
 40
1.0
 40
1.0
 40
1.0
 40
2.0
 40
2.0
 40
2.0
 40
3.0
 40
3.0
 40
3.0
 40
4.0
 40
4.0
 40
4.0
 40
4.0
 10
13.58241594283311
 20
1.670011583036395
 10
13.58241594283311
 20
1.670011583036395
 10
13.45152432456078
 20
1.314052799879059
 10
13.45152432456078
 20
1.314052799879059
 10
13.54281264717862
 20
1.370099641632893
 10
13.64822110602872
 20
1.477094214952255
 10
13.68263855085986
 20
1.513203102166643
 10
13.68263855085986
 20
1.513203102166643
 10
13.74029629012154
 20
1.670011583036395
 10
13.74029629012154
 20
1.670011583036395
 10
13.74029629012154
 20
1.670011583036395
 10
13.58241594283311
 20
1.670011583036395
 10
13.58241594283311
 20
1.670011583036395
 97
        0
 97
        0
 75
     2
 76
     1
 98
        1
 10
12.12639383884502
 20
0.2113996515164602
450
        0
451
        0
460
0.0
461
0.0
452
        0
462
0.0
453
        0
470

  0
HATCH
  5
114A
330
1B
100
AcDbEntity
 67
     1
  8
BORDER
 62
     4
100
AcDbHatch
 10
0.0
 20
0.0
 30
0.0
210
0.0
220
0.0
230
1.0
  2
SOLID
 70
     1
 71
     0
 91
        2
 92
        1
 93
      248
 72
     1
 10
13.43867431905586
 20
1.279121106997329
 11
13.43865801257705
 21
1.279116280630286
 72
     1
 10
13.43865801257704
 20
1.279116280630286
 11
13.43863883660364
 21
1.279109453514724
 72
     1
 10
13.43863883660364
 20
1.279109453514724
 11
13.43577673644782
 21
1.277705933513995
 72
     1
 10
13.43577673644782
 20
1.277705933513995
 11
13.43140411947673
 21
1.275630271404953
 72
     1
 10
13.43140411947673
 20
1.275630271404953
 11
13.42834594197092
 21
1.274230378835387
 72
     1
 10
13.42834594197092
 20
1.274230378835386
 11
13.4279561167476
 21
1.274053185552059
 72
     1
 10
13.4279561167476
 20
1.274053185552059
 11
13.41979465331961
 21
1.270531718245089
 72
     1
 10
13.41979465331961
 20
1.270531718245089
 11
13.41131529765835
 21
1.26721075819959
 72
     1
 10
13.41131529765835
 20
1.26721075819959
 11
13.40778524332778
 21
1.265941532577728
 72
     1
 10
13.40778524332778
 20
1.265941532577728
 11
13.40745000834105
 21
1.265819580225096
 72
     1
 10
13.40745000834105
 20
1.265819580225096
 11
13.40616797758721
 21
1.265371182530263
 72
     1
 10
13.40616797758721
 20
1.265371182530263
 11
13.40216612784837
 21
1.264049710835749
 72
     1
 10
13.40216612784837
 20
1.264049710835749
 11
13.39818402233834
 21
1.262822590229327
 72
     1
 10
13.39818402233834
 20
1.262822590229327
 11
13.39737794709434
 21
1.262585350568885
 72
     1
 10
13.39737794709434
 20
1.262585350568885
 11
13.39689439374253
 21
1.262442896501409
 72
     1
 10
13.39689439374253
 20
1.262442896501408
 11
13.39227637132826
 21
1.261175351168462
 72
     1
 10
13.39227637132827
 20
1.261175351168462
 11
13.38449580578814
 21
1.259339951165796
 72
     1
 10
13.38449580578814
 20
1.259339951165796
 11
13.37830860551956
 21
1.258171509408096
 72
     1
 10
13.37830860551956
 20
1.258171509408096
 11
13.37768510056555
 21
1.258070336034832
 72
     1
 10
13.37768510056555
 20
1.258070336034833
 11
13.37706201682175
 21
1.257969583871783
 72
     1
 10
13.37706201682175
 20
1.257969583871783
 11
13.37387506796266
 21
1.257508873028928
 72
     1
 10
13.37387506796266
 20
1.257508873028928
 11
13.37030574061365
 21
1.257093195384632
 72
     1
 10
13.37030574061365
 20
1.257093195384632
 11
13.36824421490233
 21
1.256897017360845
 72
     1
 10
13.36824421490233
 20
1.256897017360845
 11
13.36758734336896
 21
1.256844180516433
 72
     1
 10
13.36758734336896
 20
1.256844180516433
 11
13.36643926735647
 21
1.256758235431508
 72
     1
 10
13.36643926735648
 20
1.256758235431508
 11
13.36282017968021
 21
1.256542118202409
 72
     1
 10
13.36282017968021
 20
1.256542118202409
 11
13.35923463086729
 21
1.256447098910037
 72
     1
 10
13.35923463086729
 20
1.256447098910036
 11
13.35583591173265
 21
1.256476078380796
 72
     1
 10
13.35583591173265
 20
1.256476078380796
 11
13.35247762547416
 21
1.25660029288668
 72
     1
 10
13.35247762547416
 20
1.25660029288668
 11
13.35030330047233
 21
1.256738310389436
 72
     1
 10
13.35030330047233
 20
1.256738310389436
 11
13.34947159562434
 21
1.25682319728976
 72
     1
 10
13.34947159562434
 20
1.25682319728976
 11
13.34843462956938
 21
1.256915366382525
 72
     1
 10
13.34843462956938
 20
1.256915366382525
 11
13.34590278258841
 21
1.257136178028449
 72
     1
 10
13.34590278258841
 20
1.257136178028449
 11
13.34337414733532
 21
1.257402585680116
 72
     1
 10
13.34337414733533
 20
1.257402585680116
 11
13.34217716216463
 21
1.257567888818936
 72
     1
 10
13.34217716216463
 20
1.257567888818937
 11
13.34137170925133
 21
1.257700834259032
 72
     1
 10
13.34137170925133
 20
1.257700834259032
 11
13.33982321154057
 21
1.257932394274697
 72
     1
 10
13.33982321154056
 20
1.257932394274697
 11
13.33726305612561
 21
1.258338092086835
 72
     1
 10
13.33726305612561
 20
1.258338092086835
 11
13.33485160540261
 21
1.258771241460493
 72
     1
 10
13.33485160540262
 20
1.258771241460494
 11
13.33417426455829
 21
1.258915140378835
 72
     1
 10
13.33417426455829
 20
1.258915140378835
 11
13.33350058297771
 21
1.259068674480838
 72
     1
 10
13.33350058297771
 20
1.259068674480837
 11
13.33136124827612
 21
1.259513734630833
 72
     1
 10
13.33136124827612
 20
1.259513734630833
 11
13.32867078928342
 21
1.260127014932299
 72
     1
 10
13.32867078928342
 20
1.260127014932299
 11
13.32680775739234
 21
1.260595552920793
 72
     1
 10
13.32680775739234
 20
1.260595552920793
 11
13.32630448440646
 21
1.260736030069685
 72
     1
 10
13.32630448440646
 20
1.260736030069685
 11
13.32573351064972
 21
1.260889325165498
 72
     1
 10
13.32573351064972
 20
1.260889325165498
 11
13.32286963871927
 21
1.261674561799894
 72
     1
 10
13.32286963871927
 20
1.261674561799894
 11
13.32001166373183
 21
1.262523822386926
 72
     1
 10
13.32001166373183
 20
1.262523822386926
 11
13.31887049671301
 21
1.262883656746906
 72
     1
 10
13.31887049671301
 20
1.262883656746905
 11
13.3185381038889
 21
1.262997724772096
 72
     1
 10
13.3185381038889
 20
1.262997724772096
 11
13.31731669090955
 21
1.26340121467688
 72
     1
 10
13.31731669090955
 20
1.26340121467688
 11
13.3142912293525
 21
1.264431763592877
 72
     1
 10
13.3142912293525
 20
1.264431763592877
 11
13.31127048008473
 21
1.265531496286639
 72
     1
 10
13.31127048008474
 20
1.265531496286639
 11
13.31104423578884
 21
1.265619229289599
 72
     1
 10
13.31104423578883
 20
1.265619229289598
 11
13.31087012526192
 21
1.265689435983455
 72
     1
 10
13.31087012526192
 20
1.265689435983455
 11
13.30879985993423
 21
1.266496288176122
 72
     1
 10
13.30879985993423
 20
1.266496288176122
 11
13.30563961022291
 21
1.267783994622902
 72
     1
 10
13.30563961022291
 20
1.267783994622902
 11
13.3033776981196
 21
1.268751910898801
 72
     1
 10
13.3033776981196
 20
1.268751910898801
 11
13.30323534065997
 21
1.268811226506981
 72
     1
 10
13.30323534065997
 20
1.268811226506981
 11
13.30020155770954
 21
1.27016856708363
 72
     1
 10
13.30020155770954
 20
1.270168567083631
 11
13.29696644685903
 21
1.271694283466344
 72
     1
 10
13.29696644685904
 20
1.271694283466344
 11
13.29562913738628
 21
1.272344882119965
 72
     1
 10
13.29562913738628
 20
1.272344882119964
 11
13.29562491940716
 21
1.272352274391436
 72
     1
 10
13.29562491940716
 20
1.272352274391437
 11
13.30782575229811
 21
1.275369082824584
 72
     1
 10
13.30782575229811
 20
1.275369082824583
 11
13.35478625907091
 21
1.291044202067537
 72
     1
 10
13.35478625907091
 20
1.291044202067537
 11
13.39484673703716
 21
1.311573611081131
 72
     1
 10
13.39484673703716
 20
1.311573611081131
 11
13.4033179725123
 21
1.317141248955308
 72
     1
 10
13.40331797251231
 20
1.317141248955308
 11
13.40822945211595
 21
1.320625096433074
 72
     1
 10
13.40822945211595
 20
1.320625096433075
 11
13.41043825453264
 21
1.322257656825222
 72
     1
 10
13.41043825453265
 20
1.322257656825222
 11
13.41044449342718
 21
1.322264991131985
 72
     1
 10
13.41044449342718
 20
1.322264991131985
 11
13.41118242363162
 21
1.322821576146951
 72
     1
 10
13.41118242363162
 20
1.322821576146951
 11
13.41494139745827
 21
1.325731550791301
 72
     1
 10
13.41494139745827
 20
1.325731550791301
 11
13.41860623080193
 21
1.328702074404016
 72
     1
 10
13.41860623080193
 20
1.328702074404016
 11
13.41936988665984
 21
1.329339902325956
 72
     1
 10
13.41936988665984
 20
1.329339902325955
 11
13.41960188742665
 21
1.329532976087744
 72
     1
 10
13.41960188742665
 20
1.329532976087745
 11
13.42145308314695
 21
1.331103455719509
 72
     1
 10
13.42145308314695
 20
1.331103455719509
 11
13.42489248618451
 21
1.334127336812427
 72
     1
 10
13.42489248618451
 20
1.334127336812427
 11
13.42776992275487
 21
1.336772650499366
 72
     1
 10
13.42776992275487
 20
1.336772650499367
 11
13.42790310717863
 21
1.336899276337124
 72
     1
 10
13.42790310717862
 20
1.336899276337124
 11
13.42803989821484
 21
1.33702590217488
 72
     1
 10
13.42803989821485
 20
1.33702590217488
 11
13.43344550704665
 21
1.342313273090995
 72
     1
 10
13.43344550704665
 20
1.342313273090995
 11
13.43982733188299
 21
1.349140376819872
 72
     1
 10
13.43982733188299
 20
1.349140376819873
 11
13.44327475193459
 21
1.353141002650294
 72
     1
 10
13.44327475193459
 20
1.353141002650293
 11
13.44350937061305
 21
1.353433056706705
 72
     1
 10
13.44350937061305
 20
1.353433056706705
 11
13.4439782625744
 21
1.354001697759133
 72
     1
 10
13.4439782625744
 20
1.354001697759134
 11
13.44645895505611
 21
1.357076571211136
 72
     1
 10
13.44645895505611
 20
1.357076571211135
 11
13.44886867361665
 21
1.360197356576539
 72
     1
 10
13.44886867361665
 20
1.360197356576539
 11
13.45003625092283
 21
1.361771783340534
 72
     1
 10
13.45003625092283
 20
1.361771783340534
 11
13.45079413711081
 21
1.362835987612841
 72
     1
 10
13.45079413711081
 20
1.362835987612841
 11
13.45195460494652
 21
1.3644573744972
 72
     1
 10
13.45195460494652
 20
1.3644573744972
 11
13.45368162040391
 21
1.366928880417946
 72
     1
 10
13.45368162040391
 20
1.366928880417946
 11
13.45532109477338
 21
1.369366549533198
 72
     1
 10
13.45532109477338
 20
1.369366549533198
 11
13.45619264178448
 21
1.370693008929863
 72
     1
 10
13.45619264178448
 20
1.370693008929863
 11
13.45705373751713
 21
1.372034315986595
 72
     1
 10
13.45705373751713
 20
1.372034315986595
 11
13.4583279834666
 21
1.374079303652751
 72
     1
 10
13.4583279834666
 20
1.374079303652751
 11
13.45974180441385
 21
1.376434159945103
 72
     1
 10
13.45974180441385
 20
1.376434159945103
 11
13.46093782243843
 21
1.378482596650268
 72
     1
 10
13.46093782243843
 20
1.378482596650267
 11
13.46178784574442
 21
1.379956972563618
 72
     1
 10
13.46178784574442
 20
1.379956972563618
 11
13.46262692939528
 21
1.381447709005587
 72
     1
 10
13.46262692939528
 20
1.381447709005587
 11
13.46392660937842
 21
1.383882171130284
 72
     1
 10
13.46392660937842
 20
1.383882171130284
 11
13.46518495810923
 21
1.38633779906827
 72
     1
 10
13.46518495810923
 20
1.38633779906827
 11
13.4660936537455
 21
1.388132544159965
 72
     1
 10
13.4660936537455
 20
1.388132544159965
 11
13.46683213129618
 21
1.389577975718181
 72
     1
 10
13.46683213129618
 20
1.389577975718181
 11
13.46779859175164
 21
1.391599051872622
 72
     1
 10
13.46779859175164
 20
1.391599051872622
 11
13.46927572529574
 21
1.394878047039083
 72
     1
 10
13.46927572529575
 20
1.394878047039083
 11
13.47069833844268
 21
1.398186974456429
 72
     1
 10
13.47069833844268
 20
1.398186974456429
 11
13.47103022718802
 21
1.398941092593072
 72
     1
 10
13.47103022718802
 20
1.398941092593073
 11
13.47132809091835
 21
1.399598348545159
 72
     1
 10
13.47132809091835
 20
1.399598348545159
 11
13.47333249624242
 21
1.404503410872828
 72
     1
 10
13.47333249624242
 20
1.404503410872828
 11
13.48001753104711
 21
1.420891571625303
 72
     1
 10
13.48001753104711
 20
1.420891571625304
 11
13.47607671314894
 21
1.427243132843994
 72
     1
 10
13.47607671314894
 20
1.427243132843993
 11
13.29974839353272
 21
1.427243132843993
 72
     1
 10
13.29974839353272
 20
1.427243132843993
 11
13.29757567870525
 21
1.422582262133598
 72
     1
 10
13.29757567870525
 20
1.422582262133598
 11
13.29502443250624
 21
1.414697882364192
 72
     1
 10
13.29502443250624
 20
1.414697882364192
 11
13.29425337780414
 21
1.412375582431162
 72
     1
 10
13.29425337780413
 20
1.412375582431163
 11
13.29350361400143
 21
1.410430132243173
 72
     1
 10
13.29350361400143
 20
1.410430132243172
 11
13.29279468852722
 21
1.408778526469198
 72
     1
 10
13.29279468852722
 20
1.408778526469199
 11
13.29253033097459
 21
1.408214962498166
 72
     1
 10
13.29253033097459
 20
1.408214962498165
 11
13.29225976057128
 21
1.407650872014363
 72
     1
 10
13.29225976057128
 20
1.407650872014363
 11
13.29163472794733
 21
1.40639076731516
 72
     1
 10
13.29163472794734
 20
1.406390767315161
 11
13.2909131523421
 21
1.405023902410878
 72
     1
 10
13.29091315234209
 20
1.405023902410878
 11
13.29033260684122
 21
1.403972791321842
 72
     1
 10
13.29033260684122
 20
1.403972791321842
 11
13.28990505436159
 21
1.403223582410459
 72
     1
 10
13.28990505436159
 20
1.40322358241046
 11
13.28941231254767
 21
1.402404822558312
 72
     1
 10
13.28941231254767
 20
1.402404822558312
 11
13.28866645886708
 21
1.401241078551444
 72
     1
 10
13.28866645886708
 20
1.401241078551444
 11
13.2878835386876
 21
1.400084073908009
 72
     1
 10
13.2878835386876
 20
1.400084073908009
 11
13.28535718386201
 21
1.396635449889234
 72
     1
 10
13.28535718386201
 20
1.396635449889233
 11
13.28207226015373
 21
1.392735858792059
 72
     1
 10
13.28207226015373
 20
1.392735858792059
 11
13.280032966334
 21
1.390576985283687
 72
     1
 10
13.280032966334
 20
1.390576985283687
 11
13.27974453809086
 21
1.39028346149989
 72
     1
 10
13.27974453809086
 20
1.390283461499891
 11
13.27897236774353
 21
1.38951367913569
 72
     1
 10
13.27897236774353
 20
1.38951367913569
 11
13.27463652748805
 21
1.385589748858707
 72
     1
 10
13.27463652748805
 20
1.385589748858707
 11
13.26979226017777
 21
1.381786074098023
 72
     1
 10
13.26979226017777
 20
1.381786074098023
 11
13.25504196991099
 21
1.37281701869465
 72
     1
 10
13.25504196991099
 20
1.372817018694649
 11
13.2332910192734
 21
1.36420050778558
 72
     1
 10
13.2332910192734
 20
1.364200507785581
 11
13.21869427506827
 21
1.360477224674925
 72
     1
 10
13.21869427506827
 20
1.360477224674924
 11
13.21873685497702
 21
1.360434644766178
 72
     1
 10
13.21873685497702
 20
1.360434644766178
 11
13.21786720568453
 21
1.360225640913954
 72
     1
 10
13.21786720568453
 20
1.360225640913954
 11
13.206576990683
 21
1.358284910099816
 72
     1
 10
13.206576990683
 20
1.358284910099816
 11
13.19444798819017
 21
1.356899860861428
 72
     1
 10
13.19444798819017
 20
1.356899860861428
 11
13.19106500205156
 21
1.356647304221029
 72
     1
 10
13.19106500205156
 20
1.356647304221029
 11
13.19102792476479
 21
1.356691796965153
 72
     1
 10
13.19102792476479
 20
1.356691796965153
 11
13.18848724104666
 21
1.35936645840334
 72
     1
 10
13.18848724104666
 20
1.359366458403341
 11
13.18192548228312
 21
1.36635913534315
 72
     1
 10
13.18192548228312
 20
1.36635913534315
 11
13.17560159660549
 21
1.373210748234011
 72
     1
 10
13.17560159660549
 20
1.37321074823401
 11
13.17459399028211
 21
1.374306741076985
 72
     1
 10
13.17459399028211
 20
1.374306741076986
 11
13.17025409678123
 21
1.379075482573526
 72
     1
 10
13.17025409678123
 20
1.379075482573526
 11
13.16400967466981
 21
1.385993531883369
 72
     1
 10
13.16400967466981
 20
1.385993531883369
 11
13.15969449756066
 21
1.390814831713425
 72
     1
 10
13.15969449756066
 20
1.390814831713425
 11
13.15915294158182
 21
1.391428745319583
 72
     1
 10
13.15915294158182
 20
1.391428745319583
 11
13.15861233332597
 21
1.392045554745969
 72
     1
 10
13.15861233332597
 20
1.392045554745968
 11
13.15237200107749
 21
1.399067066841179
 72
     1
 10
13.15237200107749
 20
1.399067066841179
 11
13.14607035463601
 21
1.406211345404017
 72
     1
 10
13.146070354636
 20
1.406211345404017
 11
13.14355145328385
 21
1.409082443849619
 72
     1
 10
13.14355145328385
 20
1.40908244384962
 11
13.14314212708223
 21
1.409549860792675
 72
     1
 10
13.14314212708222
 20
1.409549860792675
 11
13.14091529521936
 21
1.412092128696334
 72
     1
 10
13.14091529521936
 20
1.412092128696334
 11
13.13430576979251
 21
1.419649231027148
 72
     1
 10
13.13430576979252
 20
1.419649231027148
 11
13.12767231436035
 21
1.427245400605378
 72
     1
 10
13.12767231436035
 20
1.427245400605378
 11
13.11564328035369
 21
1.441003181194529
 72
     1
 10
13.11564328035369
 20
1.441003181194528
 11
13.09706272631065
 21
1.462253133316995
 72
     1
 10
13.09706272631065
 20
1.462253133316995
 11
13.06908228890478
 21
1.494176869199241
 72
     1
 10
13.06908228890478
 20
1.494176869199241
 11
13.02705466097762
 21
1.539983489266374
 72
     1
 10
13.02705466097762
 20
1.539983489266374
 11
12.99576309170772
 21
1.570444572207206
 72
     1
 10
12.99576309170772
 20
1.570444572207206
 11
12.99572727048398
 21
1.570408750983463
 72
     1
 10
12.99572727048398
 20
1.570408750983463
 11
12.99199654976707
 21
1.573775596071646
 72
     1
 10
12.99199654976707
 20
1.573775596071646
 11
12.98784598061982
 21
1.577452048924157
 72
     1
 10
12.98784598061982
 20
1.577452048924157
 11
12.9612405692434
 21
1.598341879496921
 72
     1
 10
12.9612405692434
 20
1.598341879496921
 11
12.91627865361645
 21
1.622275032464511
 72
     1
 10
12.91627865361645
 20
1.622275032464511
 11
12.85803359983931
 21
1.625946786088267
 72
     1
 10
12.85803359983931
 20
1.625946786088267
 11
12.72713088381068
 21
1.552338494139599
 72
     1
 10
12.72713088381068
 20
1.5523384941396
 11
12.60598576566206
 21
1.444954908286435
 72
     1
 10
12.60598576566206
 20
1.444954908286434
 11
12.58803934966184
 21
1.427033579175682
 72
     1
 10
12.58803934966184
 20
1.427033579175682
 11
12.58289278911118
 21
1.421800643480812
 72
     1
 10
12.58289278911118
 20
1.421800643480812
 11
12.57876150419426
 21
1.414341579255908
 72
     1
 10
12.57876150419426
 20
1.414341579255908
 11
12.57536020606919
 21
1.404472728583878
 72
     1
 10
12.57536020606919
 20
1.404472728583878
 11
12.56779991660413
 21
1.382549141358213
 72
     1
 10
12.56779991660413
 20
1.382549141358213
 11
12.54143707466406
 21
1.306145695123998
 72
     1
 10
12.54143707466406
 20
1.306145695123998
 11
12.52787586417441
 21
1.266838706360313
 72
     1
 10
12.52787586417441
 20
1.266838706360314
 11
12.57474883939635
 21
1.265626742489277
 72
     1
 10
12.57474883939635
 20
1.265626742489276
 11
12.67718343479113
 21
1.265626742489276
 72
     1
 10
12.67718343479113
 20
1.265626742489276
 11
12.70056820715634
 21
1.26575486606183
 72
     1
 10
12.70056820715634
 20
1.265754866061831
 11
12.70096375220827
 21
1.26690202644612
 72
     1
 10
12.70096375220827
 20
1.26690202644612
 11
12.70368139639811
 21
1.274787155399041
 72
     1
 10
12.70368139639811
 20
1.274787155399041
 11
12.75229187837836
 21
1.415687530308737
 72
     1
 10
12.75229187837836
 20
1.415687530308737
 11
12.80392896635637
 21
1.565361871944558
 72
     1
 10
12.80392896635637
 20
1.565361871944558
 11
12.84846473338742
 21
1.579088810237643
 72
     1
 10
12.84846473338742
 20
1.579088810237643
 11
12.94451621274174
 21
1.579088810237643
 72
     1
 10
12.94451621274174
 20
1.579088810237643
 11
12.97310904430474
 21
1.576314486909881
 72
     1
 10
12.97310904430474
 20
1.576314486909881
 11
12.98144171322696
 21
1.56928340569401
 72
     1
 10
12.98144171322696
 20
1.56928340569401
 11
12.98771627134762
 21
1.560332677807837
 72
     1
 10
12.98771627134762
 20
1.560332677807837
 11
12.96600913651492
 21
1.527260047838143
 72
     1
 10
12.96600913651493
 20
1.527260047838143
 11
12.94884580687335
 21
1.490897028973729
 72
     1
 10
12.94884580687335
 20
1.490897028973729
 11
12.93285873016823
 21
1.427930623173972
 72
     1
 10
12.93285873016823
 20
1.427930623173972
 11
12.93864845021743
 21
1.363991605662602
 72
     1
 10
12.93864845021743
 20
1.363991605662602
 11
12.97412004147714
 21
1.309183863825486
 72
     1
 10
12.97412004147714
 20
1.309183863825487
 11
13.04746638438732
 21
1.270474108437536
 72
     1
 10
13.04746638438732
 20
1.270474108437536
 11
13.15231597437859
 21
1.257820096674723
 72
     1
 10
13.15231597437859
 20
1.257820096674723
 11
13.15955407192155
 21
1.257854019956796
 72
     1
 10
13.15955407192155
 20
1.257854019956796
 11
13.16671916846917
 21
1.257949492581491
 72
     1
 10
13.16671916846917
 20
1.257949492581491
 11
13.17023060700672
 21
1.258019951376775
 72
     1
 10
13.17023060700672
 20
1.258019951376775
 11
13.17194732237694
 21
1.258070644654066
 72
     1
 10
13.17194732237694
 20
1.258070644654066
 11
13.17482695923275
 21
1.258146571488228
 72
     1
 10
13.17482695923275
 20
1.258146571488228
 11
13.18012894929112
 21
1.258292959749276
 72
     1
 10
13.18012894929112
 20
1.258292959749276
 11
13.18538418501566
 21
1.258483153872654
 72
     1
 10
13.18538418501566
 20
1.258483153872654
 11
13.18753429283168
 21
1.258576298293281
 72
     1
 10
13.18753429283168
 20
1.258576298293281
 11
13.1895874788835
 21
1.258675751483316
 72
     1
 10
13.1895874788835
 20
1.258675751483316
 11
13.19338858114487
 21
1.258855995672746
 72
     1
 10
13.19338858114487
 20
1.258855995672746
 11
13.198217245845
 21
1.259111750538092
 72
     1
 10
13.198217245845
 20
1.259111750538091
 11
13.20224970436737
 21
1.259351385759248
 72
     1
 10
13.20224970436737
 20
1.259351385759248
 11
13.20428445281151
 21
1.259483712506587
 72
     1
 10
13.20428445281151
 20
1.259483712506587
 11
13.20631419938436
 21
1.259619882797135
 72
     1
 10
13.20631419938436
 20
1.259619882797135
 11
13.210878267779
 21
1.259949929156224
 72
     1
 10
13.21087826777899
 20
1.259949929156224
 11
13.21561032108942
 21
1.26030931703063
 72
     1
 10
13.21561032108943
 20
1.26030931703063
 11
13.21866740458301
 21
1.260565421415486
 72
     1
 10
13.21866740458301
 20
1.260565421415486
 11
13.22051573385542
 21
1.26073465992815
 72
     1
 10
13.22051573385542
 20
1.26073465992815
 11
13.22304934013435
 21
1.260970768852087
 72
     1
 10
13.22304934013435
 20
1.260970768852087
 11
13.22788211292217
 21
1.261435386502257
 72
     1
 10
13.22788211292217
 20
1.261435386502257
 11
13.23266771016595
 21
1.261934016877263
 72
     1
 10
13.23266771016595
 20
1.261934016877263
 11
13.23464200018943
 21
1.262149372388201
 72
     1
 10
13.23464200018943
 20
1.262149372388201
 11
13.23622923218253
 21
1.262323482915115
 72
     1
 10
13.23622923218253
 20
1.262323482915115
 11
13.23965697395051
 21
1.262728813564995
 72
     1
 10
13.23965697395051
 20
1.262728813564995
 11
13.24467592338413
 21
1.263358109354392
 72
     1
 10
13.24467592338413
 20
1.263358109354392
 11
13.24895805037664
 21
1.263920972411858
 72
     1
 10
13.24895805037664
 20
1.263920972411857
 11
13.25016704912203
 21
1.264079254709051
 72
     1
 10
13.25016704912203
 20
1.264079254709052
 11
13.25137594256486
 21
1.264237537006246
 72
     1
 10
13.25137594256486
 20
1.264237537006246
 11
13.25611080513918
 21
1.264925272566531
 72
     1
 10
13.25611080513918
 20
1.264925272566531
 11
13.26148693532017
 21
1.265754832559295
 72
     1
 10
13.26148693532017
 20
1.265754832559294
 11
13.2645510733481
 21
1.266249252988105
 72
     1
 10
13.2645510733481
 20
1.266249252988105
 11
13.26522157677203
 21
1.266352817727618
 72
     1
 10
13.26522157677203
 20
1.266352817727618
 11
13.26662226221431
 21
1.26658449786938
 72
     1
 10
13.26662226221431
 20
1.26658449786938
 11
13.27260341811975
 21
1.267631881507852
 72
     1
 10
13.27260341811975
 20
1.267631881507853
 11
13.27851086223762
 21
1.268733180053809
 72
     1
 10
13.27851086223762
 20
1.268733180053809
 11
13.30559252153729
 21
1.256539106640367
 72
     1
 10
13.30559252153729
 20
1.256539106640367
 11
13.33923712776735
 21
1.24746120856704
 72
     1
 10
13.33923712776735
 20
1.24746120856704
 11
13.37607449187676
 21
1.247300904642803
 72
     1
 10
13.37607449187676
 20
1.247300904642804
 11
13.41785064865128
 21
1.258515980918596
 72
     1
 10
13.41785064865128
 20
1.258515980918595
 11
13.45781743650142
 21
1.276940199602089
 72
     1
 10
13.45781743650142
 20
1.276940199602089
 11
13.59115739406252
 21
1.276940199602089
 72
     1
 10
13.59115739406252
 20
1.276940199602089
 11
13.60984888386208
 21
1.31523662319847
 72
     1
 10
13.60984888386208
 20
1.31523662319847
 11
13.64537357545082
 21
1.411853412147116
 72
     1
 10
13.64537357545082
 20
1.411853412147116
 11
13.65587668799064
 21
1.440418454738303
 72
     1
 10
13.65587668799063
 20
1.440418454738303
 11
13.66106417798547
 21
1.45452423561315
 72
     1
 10
13.66106417798547
 20
1.45452423561315
 11
13.66438529581566
 21
1.463555932998333
 72
     1
 10
13.66438529581566
 20
1.463555932998333
 11
13.66438096114563
 21
1.463552912289568
 72
     1
 10
13.66438096114563
 20
1.463552912289568
 11
13.66438467756901
 21
1.463560345136333
 72
     1
 10
13.66438467756901
 20
1.463560345136333
 11
13.64959056776006
 21
1.447825352502658
 72
     1
 10
13.64959056776006
 20
1.447825352502658
 11
13.56132557306843
 21
1.364259444941378
 72
     1
 10
13.56132557306843
 20
1.364259444941378
 11
13.43867431905586
 21
1.279121106997329
 97
        0
 92
        1
 93
       42
 72
     1
 10
13.13888629284527
 20
1.398657045202236
 11
13.15815923584947
 21
1.37696752646371
 72
     1
 10
13.15815923584947
 20
1.37696752646371
 11
13.17737435176356
 21
1.356022875718155
 72
     1
 10
13.17737435176356
 20
1.356022875718156
 11
13.17485422652772
 21
1.355940781902851
 72
     1
 10
13.17485422652772
 20
1.355940781902851
 11
13.17230622037348
 21
1.355886569005952
 72
     1
 10
13.17230622037348
 20
1.355886569005953
 11
13.16420349259865
 21
1.356142150465571
 72
     1
 10
13.16420349259865
 20
1.35614215046557
 11
13.15672554216683
 21
1.356910526649435
 72
     1
 10
13.15672554216683
 20
1.356910526649435
 11
13.14986380210175
 21
1.358194145265061
 72
     1
 10
13.14986380210175
 20
1.358194145265061
 11
13.14360970542709
 21
1.359995454019958
 72
     1
 10
13.14360970542709
 20
1.359995454019957
 11
13.13795494013609
 21
1.362316934617584
 72
     1
 10
13.13795494013609
 20
1.362316934617584
 11
13.1328929280148
 21
1.365161850667952
 72
     1
 10
13.1328929280148
 20
1.365161850667952
 11
13.1284165299163
 21
1.368534247687651
 72
     1
 10
13.1284165299163
 20
1.368534247687651
 11
13.12451840271805
 21
1.372438205189206
 72
     1
 10
13.12451840271805
 20
1.372438205189206
 11
13.12116062702452
 21
1.376918601665884
 72
     1
 10
13.12116062702452
 20
1.376918601665884
 11
13.1197336508409
 21
1.379306540466225
 72
     1
 10
13.1197336508409
 20
1.379306540466225
 11
13.11842169873596
 21
1.381846801920898
 72
     1
 10
13.11842169873596
 20
1.381846801920898
 11
13.1181010681743
 21
1.382573254739327
 72
     1
 10
13.1181010681743
 20
1.382573254739327
 11
13.1177897312521
 21
1.38330900119725
 72
     1
 10
13.1177897312521
 20
1.38330900119725
 11
13.11696492074929
 21
1.38525601866587
 72
     1
 10
13.11696492074929
 20
1.38525601866587
 11
13.11620981254249
 21
1.38724950433183
 72
     1
 10
13.11620981254249
 20
1.38724950433183
 11
13.11591551395934
 21
1.388138595840933
 72
     1
 10
13.11591551395933
 20
1.388138595840934
 11
13.11563980265518
 21
1.38904627462901
 72
     1
 10
13.11563980265518
 20
1.38904627462901
 11
13.11503494161969
 21
1.39105834757392
 72
     1
 10
13.11503494161969
 20
1.39105834757392
 11
13.1144997828803
 21
1.393116888716164
 72
     1
 10
13.1144997828803
 20
1.393116888716164
 11
13.11428835258242
 21
1.394009078105117
 72
     1
 10
13.11428835258242
 20
1.394009078105117
 11
13.1140908627437
 21
1.394901267494094
 72
     1
 10
13.1140908627437
 20
1.394901267494094
 11
13.11363857228957
 21
1.397168915524435
 72
     1
 10
13.11363857228957
 20
1.397168915524435
 11
13.11326063095119
 21
1.399473738112477
 72
     1
 10
13.11326063095119
 20
1.399473738112477
 11
13.11314446045784
 21
1.400217229270163
 72
     1
 10
13.11314446045784
 20
1.400217229270163
 11
13.11303758360396
 21
1.400960720427453
 72
     1
 10
13.11303758360396
 20
1.400960720427452
 11
13.11271153175261
 21
1.403748812267957
 72
     1
 10
13.11271153175261
 20
1.403748812267957
 11
13.1124737694762
 21
1.406574078666374
 72
     1
 10
13.1124737694762
 20
1.406574078666374
 11
13.11245130984749
 21
1.406902453927594
 72
     1
 10
13.11245130984749
 20
1.406902453927594
 11
13.11242420339904
 21
1.407230829188816
 72
     1
 10
13.11242420339904
 20
1.407230829188816
 11
13.1122268569807
 21
1.41409297720513
 72
     1
 10
13.1122268569807
 20
1.41409297720513
 11
13.11244393804087
 21
1.421103823452953
 72
     1
 10
13.11244393804087
 20
1.421103823452952
 11
13.1130437793636
 21
1.428197279829411
 72
     1
 10
13.1130437793636
 20
1.428197279829411
 11
13.11516347265354
 21
1.425774589109762
 72
     1
 10
13.11516347265354
 20
1.425774589109763
 11
13.11694413397568
 21
1.423739108584923
 72
     1
 10
13.11694413397568
 20
1.423739108584922
 11
13.11830992723195
 21
1.422177678022084
 72
     1
 10
13.11830992723195
 20
1.422177678022084
 11
13.11918501632429
 21
1.42117713718844
 72
     1
 10
13.11918501632429
 20
1.42117713718844
 11
13.11949356515464
 21
1.420824325851182
 72
     1
 10
13.11949356515464
 20
1.420824325851182
 11
13.13888629284527
 21
1.398657045202236
 97
        0
 75
     2
 76
     1
 98
        1
 10
12.12639383884502
 20
0.2113996515164602
450
        0
451
        0
460
0.0
461
0.0
452
        0
462
0.0
453
        0
470

  0
INSERT
  5
114B
330
1B
100
AcDbEntity
 67
     1
  8
BORDER
100
AcDbBlockReference
 66
     1
  2
REVISE12
 10
7.231089644427043
 20
0.2236243424352045
 30
0.0
  0
ATTRIB
  5
114C
330
114B
100
AcDbEntity
 67
     1
  8
0
100
AcDbText
 10
7.262339644427043
 20
0.2861243424352053
 30
0.0
 40
0.125
  1

 41
2.25
 72
     5
 11
7.449839644427043
 21
0.2861243424352053
 31
0.0
100
AcDbAttribute
280
     0
  2
NO
 70
     8
280
     0
  0
ATTRIB
  5
114D
330
114B
100
AcDbEntity
 67
     1
  8
0
100
AcDbText
 10
7.543589644427043
 20
0.2861243424352053
 30
0.0
 40
0.125
  1

100
AcDbAttribute
280
     0
  2
REV
 70
     8
280
     0
  0
ATTRIB
  5
114E
330
114B
100
AcDbEntity
 67
     1
  8
0
100
AcDbText
 10
10.04358964442704
 20
0.2861243424352053
 30
0.0
 40
0.125
  1

 41
0.984375
 72
     5
 11
10.69983964442704
 21
0.2861243424352053
 31
0.0
100
AcDbAttribute
280
     0
  2
RDATE
 70
     8
280
     0
  0
ATTRIB
  5
114F
330
114B
100
AcDbEntity
 67
     1
  8
0
100
AcDbText
 10
10.76233964442704
 20
0.2861243424352053
 30
0.0
 40
0.125
  1

100
AcDbAttribute
280
     0
  2
BY
 70
     8
280
     0
  0
SEQEND
  5
1150
330
114B
100
AcDbEntity
 67
     1
  8
BORDER
  0
INSERT
  5
1151
330
1B
100
AcDbEntity
 67
     1
  8
BORDER
100
AcDbBlockReference
 66
     1
  2
REVISE12
 10
7.231089644427043
 20
0.4736243424352045
 30
0.0
  0
ATTRIB
  5
1152
330
1151
100
AcDbEntity
 67
     1
  8
0
100
AcDbText
 10
7.262339644427043
 20
0.5361243424352054
 30
0.0
 40
0.125
  1

 41
0.9
 72
     5
 11
7.449839644427043
 21
0.5361243424352054
 31
0.0
100
AcDbAttribute
280
     0
  2
NO
 70
     8
280
     0
  0
ATTRIB
  5
1153
330
1151
100
AcDbEntity
 67
     1
  8
0
100
AcDbText
 10
7.543589644427043
 20
0.5361243424352054
 30
0.0
 40
0.125
  1

100
AcDbAttribute
280
     0
  2
REV
 70
     8
280
     0
  0
ATTRIB
  5
1154
330
1151
100
AcDbEntity
 67
     1
  8
0
100
AcDbText
 10
10.04358964442704
 20
0.5361243424352054
 30
0.0
 40
0.125
  1

 41
1.125
 72
     5
 11
10.69983964442704
 21
0.5361243424352054
 31
0.0
100
AcDbAttribute
280
     0
  2
RDATE
 70
     8
280
     0
  0
ATTRIB
  5
1155
330
1151
100
AcDbEntity
 67
     1
  8
0
100
AcDbText
 10
10.76233964442704
 20
0.5361243424352054
 30
0.0
 40
0.125
  1

100
AcDbAttribute
280
     0
  2
BY
 70
     8
280
     0
  0
SEQEND
  5
1156
330
1151
100
AcDbEntity
 67
     1
  8
BORDER
  0
INSERT
  5
1157
330
1B
100
AcDbEntity
 67
     1
  8
BORDER
100
AcDbBlockReference
 66
     1
  2
REVISE12
 10
7.231089644427043
 20
0.7236243424352045
 30
0.0
  0
ATTRIB
  5
1158
330
1157
100
AcDbEntity
 67
     1
  8
0
100
AcDbText
 10
7.262339644427043
 20
0.7861243424352054
 30
0.0
 40
0.125
  1

 41
0.9
 72
     5
 11
7.449839644427043
 21
0.7861243424352054
 31
0.0
100
AcDbAttribute
280
     0
  2
NO
 70
     8
280
     0
  0
ATTRIB
  5
1159
330
1157
100
AcDbEntity
 67
     1
  8
0
100
AcDbText
 10
7.543589644427043
 20
0.7861243424352054
 30
0.0
 40
0.125
  1

100
AcDbAttribute
280
     0
  2
REV
 70
     8
280
     0
  0
ATTRIB
  5
115A
330
1157
100
AcDbEntity
 67
     1
  8
0
100
AcDbText
 10
10.04358964442704
 20
0.7861243424352054
 30
0.0
 40
0.125
  1

 41
1.125
 72
     5
 11
10.69983964442704
 21
0.7861243424352054
 31
0.0
100
AcDbAttribute
280
     0
  2
RDATE
 70
     8
280
     0
  0
ATTRIB
  5
115B
330
1157
100
AcDbEntity
 67
     1
  8
0
100
AcDbText
 10
10.76233964442704
 20
0.7861243424352054
 30
0.0
 40
0.125
  1

100
AcDbAttribute
280
     0
  2
BY
 70
     8
280
     0
  0
SEQEND
  5
115C
330
1157
100
AcDbEntity
 67
     1
  8
BORDER
  0
INSERT
  5
115D
330
1B
100
AcDbEntity
 67
     1
  8
BORDER
100
AcDbBlockReference
 66
     1
  2
REVISE12
 10
7.231089644427043
 20
0.9736243424352045
 30
0.0
  0
ATTRIB
  5
115E
330
115D
100
AcDbEntity
 67
     1
  8
0
100
AcDbText
 10
7.262339644427043
 20
1.036124342435205
 30
0.0
 40
0.125
  1

 41
0.9
 72
     5
 11
7.449839644427043
 21
1.036124342435205
 31
0.0
100
AcDbAttribute
280
     0
  2
NO
 70
     8
280
     0
  0
ATTRIB
  5
115F
330
115D
100
AcDbEntity
 67
     1
  8
0
100
AcDbText
 10
7.543589644427043
 20
1.036124342435205
 30
0.0
 40
0.125
  1

100
AcDbAttribute
280
     0
  2
REV
 70
     8
280
     0
  0
ATTRIB
  5
1160
330
115D
100
AcDbEntity
 67
     1
  8
0
100
AcDbText
 10
10.04358964442704
 20
1.036124342435205
 30
0.0
 40
0.125
  1

 41
1.125
 72
     5
 11
10.69983964442704
 21
1.036124342435205
 31
0.0
100
AcDbAttribute
280
     0
  2
RDATE
 70
     8
280
     0
  0
ATTRIB
  5
1161
330
115D
100
AcDbEntity
 67
     1
  8
0
100
AcDbText
 10
10.76233964442704
 20
1.036124342435205
 30
0.0
 40
0.125
  1

100
AcDbAttribute
280
     0
  2
BY
 70
     8
280
     0
  0
SEQEND
  5
1162
330
115D
100
AcDbEntity
 67
     1
  8
BORDER
  0
INSERT
  5
1163
330
1B
100
AcDbEntity
 67
     1
  8
BORDER
100
AcDbBlockReference
 66
     1
  2
REVISE12
 10
7.231089644427043
 20
1.223624342435204
 30
0.0
  0
ATTRIB
  5
1164
330
1163
100
AcDbEntity
 67
     1
  8
0
100
AcDbText
 10
7.262339644427043
 20
1.286124342435205
 30
0.0
 40
0.125
  1

 41
0.9
 72
     5
 11
7.449839644427043
 21
1.286124342435205
 31
0.0
100
AcDbAttribute
280
     0
  2
NO
 70
     8
280
     0
  0
ATTRIB
  5
1165
330
1163
100
AcDbEntity
 67
     1
  8
0
100
AcDbText
 10
7.543589644427043
 20
1.286124342435205
 30
0.0
 40
0.125
  1

100
AcDbAttribute
280
     0
  2
REV
 70
     8
280
     0
  0
ATTRIB
  5
1166
330
1163
100
AcDbEntity
 67
     1
  8
0
100
AcDbText
 10
10.04358964442704
 20
1.286124342435205
 30
0.0
 40
0.125
  1

 41
1.125
 72
     5
 11
10.69983964442704
 21
1.286124342435205
 31
0.0
100
AcDbAttribute
280
     0
  2
RDATE
 70
     8
280
     0
  0
ATTRIB
  5
1167
330
1163
100
AcDbEntity
 67
     1
  8
0
100
AcDbText
 10
10.76233964442704
 20
1.286124342435205
 30
0.0
 40
0.125
  1

100
AcDbAttribute
280
     0
  2
BY
 70
     8
280
     0
  0
SEQEND
  5
1168
330
1163
100
AcDbEntity
 67
     1
  8
BORDER
  0
INSERT
  5
1169
330
1B
100
AcDbEntity
 67
     1
  8
BORDER
100
AcDbBlockReference
 66
     1
  2
REVISE12
 10
7.231089644427043
 20
1.473624342435204
 30
0.0
  0
ATTRIB
  5
116A
330
1169
100
AcDbEntity
 67
     1
  8
0
100
AcDbText
 10
7.262339644427043
 20
1.536124342435205
 30
0.0
 40
0.125
  1

 41
0.9
 72
     5
 11
7.449839644427043
 21
1.536124342435205
 31
0.0
100
AcDbAttribute
280
     0
  2
NO
 70
     8
280
     0
  0
ATTRIB
  5
116B
330
1169
100
AcDbEntity
 67
     1
  8
0
100
AcDbText
 10
7.543589644427043
 20
1.536124342435205
 30
0.0
 40
0.125
  1

100
AcDbAttribute
280
     0
  2
REV
 70
     8
280
     0
  0
ATTRIB
  5
116C
330
1169
100
AcDbEntity
 67
     1
  8
0
100
AcDbText
 10
10.04358964442704
 20
1.536124342435205
 30
0.0
 40
0.125
  1

 41
1.125
 72
     5
 11
10.69983964442704
 21
1.536124342435205
 31
0.0
100
AcDbAttribute
280
     0
  2
RDATE
 70
     8
280
     0
  0
ATTRIB
  5
116D
330
1169
100
AcDbEntity
 67
     1
  8
0
100
AcDbText
 10
10.76233964442704
 20
1.536124342435205
 30
0.0
 40
0.125
  1

100
AcDbAttribute
280
     0
  2
BY
 70
     8
280
     0
  0
SEQEND
  5
116E
330
1169
100
AcDbEntity
 67
     1
  8
BORDER
  0
MTEXT
  5
121B
330
1B
100
AcDbEntity
 67
     1
  8
BORDER
 62
     7
100
AcDbMText
 10
12.44127662900644
 20
1.070034187069181
 30
0.0
 40
0.1564482766893702
 41
2.692271174962505
 46
0.0
 71
     1
 72
     1
  1
 0.59 Ohm, 370Watt,\P 3ER2-26-19T-B3-N
 73
     1
 44
1.0
  0
VIEWPORT
  5
15DE
102
{ACAD_XDICTIONARY
360
15DF
102
}
330
1B
100
AcDbEntity
 67
     1
  8
VIEWPORT
 62
     7
100
AcDbViewport
 10
7.888380452529787
 20
5.909265507785057
 30
0.0
 40
15.81458161620548
 41
8.128717669300293
 68
     2
 69
     2
 12
16.97498704946377
 22
12.07599928890837
 13
0.0
 23
0.0
 14
0.5
 24
0.5
 15
0.5
 25
0.5
 16
0.0
 26
0.0
 36
1.0
 17
0.0
 27
0.0
 37
0.0
 42
50.0
 43
0.0
 44
0.0
 45
21.09717930299566
 50
0.0
 51
0.0
 72
   100
 90
   819264
  1

281
     0
 71
     1
 74
     0
110
0.0
120
0.0
130
0.0
111
1.0
121
0.0
131
0.0
112
0.0
122
1.0
132
0.0
 79
     0
146
0.0
170
     0
 61
     5
348
631
292
     1
282
     1
141
0.0
142
0.0
 63
   250
421
  3355443
  0
ENDSEC
  0
SECTION
  2
OBJECTS
  0
DICTIONARY
  5
C
330
0
100
AcDbDictionary
281
     1
  3
ACAD_CIP_PREVIOUS_PRODUCT_INFO
350
11BE
  3
ACAD_COLOR
350
63C
  3
ACAD_DETAILVIEWSTYLE
350
1648
  3
ACAD_GROUP
350
D
  3
ACAD_LAYOUT
350
1A
  3
ACAD_MATERIAL
350
627
  3
ACAD_MLEADERSTYLE
350
11B5
  3
ACAD_MLINESTYLE
350
17
  3
ACAD_PLOTSETTINGS
350
19
  3
ACAD_PLOTSTYLENAME
350
E
  3
ACAD_SCALELIST
350
11A3
  3
ACAD_SECTIONVIEWSTYLE
350
1646
  3
ACAD_TABLESTYLE
350
63D
  3
ACAD_VISUALSTYLE
350
62B
  3
ACDB_RECOMPOSE_DATA
350
1659
  3
AcDbVariableDictionary
350
261
  0
DICTIONARY
  5
65A
330
2
100
AcDbDictionary
280
     1
281
     1
  3
ACAD_LAYERFILTERS
360
1184
  3
ACAD_LAYERSTATES
360
65B
  3
ACLYDICTIONARY
360
1183
  0
DICTIONARY
  5
11C3
330
10
100
AcDbDictionary
280
     1
281
     1
  3
ADSK_XREC_LAYER_RECONCILED
360
11C4
  0
DICTIONARY
  5
11C5
330
274
100
AcDbDictionary
280
     1
281
     1
  3
ADSK_XREC_LAYER_RECONCILED
360
11C6
  0
DICTIONARY
  5
11C7
330
572
100
AcDbDictionary
280
     1
281
     1
  3
ADSK_XREC_LAYER_RECONCILED
360
11C8
  0
DICTIONARY
  5
11C9
330
573
100
AcDbDictionary
280
     1
281
     1
  3
ADSK_XREC_LAYER_RECONCILED
360
11CA
  0
DICTIONARY
  5
15B2
330
1F
100
AcDbDictionary
280
     1
281
     1
  3
ACAD_SORTENTS
360
15B3
  0
DICTIONARY
  5
B46
330
1B
100
AcDbDictionary
280
     1
281
     1
  3
ACAD_SORTENTS
360
B47
  0
DICTIONARY
  5
155D
330
154F
100
AcDbDictionary
280
     1
281
     1
  3
ACAD_DIMASSOC
360
1568
  0
DICTIONARY
  5
1581
330
1573
100
AcDbDictionary
280
     1
281
     1
  3
ACAD_DIMASSOC
360
158C
  0
DICTIONARY
  5
15A5
330
1597
100
AcDbDictionary
280
     1
281
     1
  3
ACAD_DIMASSOC
360
15B0
  0
DICTIONARY
  5
15F5
330
15E9
100
AcDbDictionary
280
     1
281
     1
  3
ACAD_DIMASSOC
360
15FE
  0
DICTIONARY
  5
15DF
330
15DE
100
AcDbDictionary
280
     1
281
     1
  3
ASDK_XREC_ANNOTATION_SCALE_INFO
360
15E0
  0
XRECORD
  5
11BE
102
{ACAD_REACTORS
330
C
102
}
330
C
100
AcDbXrecord
280
     1
300
AMECH_PP
300
2014
300
86133PDSU_2014_0F
  0
DICTIONARY
  5
63C
102
{ACAD_REACTORS
330
C
102
}
330
C
100
AcDbDictionary
281
     1
  0
DICTIONARY
  5
1648
102
{ACAD_REACTORS
330
C
102
}
330
C
100
AcDbDictionary
281
     1
  3
Imperial24
350
1649
  0
DICTIONARY
  5
D
102
{ACAD_REACTORS
330
C
102
}
330
C
100
AcDbDictionary
281
     1
  0
DICTIONARY
  5
1A
102
{ACAD_REACTORS
330
C
102
}
330
C
100
AcDbDictionary
281
     1
  3
Model
350
22
  3
TCI-B
350
1E
  0
DICTIONARY
  5
627
102
{ACAD_REACTORS
330
C
102
}
330
C
100
AcDbDictionary
281
     1
  3
ByBlock
350
629
  3
ByLayer
350
628
  3
Global
350
62A
  0
DICTIONARY
  5
11B5
102
{ACAD_REACTORS
330
C
102
}
330
C
100
AcDbDictionary
281
     1
  3
Standard
350
11B6
  0
DICTIONARY
  5
17
102
{ACAD_REACTORS
330
C
102
}
330
C
100
AcDbDictionary
281
     1
  3
Standard
350
18
  0
DICTIONARY
  5
19
102
{ACAD_REACTORS
330
C
102
}
330
C
100
AcDbDictionary
281
     1
  3
P3-M-L-E
350
60E
  0
ACDBDICTIONARYWDFLT
  5
E
102
{ACAD_REACTORS
330
C
102
}
330
C
100
AcDbDictionary
281
     1
  3
Normal
350
F
100
AcDbDictionaryWithDefault
340
F
  0
DICTIONARY
  5
11A3
102
{ACAD_REACTORS
330
C
102
}
330
C
100
AcDbDictionary
281
     1
  3
A0
350
11A4
  3
A1
350
11A5
  3
A2
350
11A6
  3
A3
350
11A7
  3
A4
350
11A8
  3
A5
350
11A9
  3
A6
350
11AA
  3
A7
350
11AB
  3
A8
350
11AC
  3
A9
350
11AD
  3
B0
350
11AE
  3
B1
350
11AF
  3
B2
350
11B0
  3
B3
350
11B1
  3
B4
350
11B2
  3
B5
350
11B3
  3
B6
350
11B4
  0
DICTIONARY
  5
1646
102
{ACAD_REACTORS
330
C
102
}
330
C
100
AcDbDictionary
281
     1
  3
Imperial24
350
1647
  0
DICTIONARY
  5
63D
102
{ACAD_REACTORS
330
C
102
}
330
C
100
AcDbDictionary
281
     1
  3
Standard
350
63E
  0
DICTIONARY
  5
62B
102
{ACAD_REACTORS
330
C
102
}
330
C
100
AcDbDictionary
281
     1
  3
2dWireframe
350
631
  3
3D Hidden
350
633
  3
3dWireframe
350
632
  3
Basic
350
630
  3
Brighten
350
637
  3
ColorChange
350
63B
  3
Conceptual
350
634
  3
Dim
350
636
  3
EdgeColorOff
350
11A2
  3
Facepattern
350
63A
  3
Flat
350
62C
  3
FlatWithEdges
350
62D
  3
Gouraud
350
62E
  3
GouraudWithEdges
350
62F
  3
Hidden
350
119A
  3
JitterOff
350
11A0
  3
Linepattern
350
639
  3
OverhangOff
350
11A1
  3
Realistic
350
635
  3
Shaded
350
119F
  3
Shaded with edges
350
119E
  3
Shades of Gray
350
119B
  3
Sketchy
350
119C
  3
Thicken
350
638
  3
Wireframe
350
1199
  3
X-Ray
350
119D
  0
XRECORD
  5
1659
102
{ACAD_REACTORS
330
C
102
}
330
C
100
AcDbXrecord
280
     1
 90
        1
330
63E
330
1647
330
1649
  0
DICTIONARY
  5
261
102
{ACAD_REACTORS
330
C
102
}
330
C
100
AcDbDictionary
281
     1
  3
CANNOSCALE
350
1261
  3
CMLEADERSTYLE
350
125F
  3
CTABLESTYLE
350
642
  3
CVIEWDETAILSTYLE
350
1652
  3
CVIEWSECTIONSTYLE
350
1653
  3
DIMASSOC
350
263
  3
HIDETEXT
350
262
  3
LAYEREVAL
350
1263
  3
LAYERNOTIFY
350
1264
  3
LIGHTINGUNITS
350
1262
  3
MSLTSCALE
350
1260
  0
DICTIONARY
  5
1184
102
{ACAD_REACTORS
330
65A
102
}
330
65A
100
AcDbDictionary
281
     1
  0
DICTIONARY
  5
65B
102
{ACAD_REACTORS
330
65A
102
}
330
65A
100
AcDbDictionary
281
     1
  0
DICTIONARY
  5
1183
102
{ACAD_REACTORS
330
65A
102
}
330
65A
100
AcDbDictionary
281
     1
1001
ACAD
1000
<All
  0
XRECORD
  5
11C4
102
{ACAD_REACTORS
330
11C3
102
}
330
11C3
100
AcDbXrecord
280
     1
290
     1
  0
XRECORD
  5
11C6
102
{ACAD_REACTORS
330
11C5
102
}
330
11C5
100
AcDbXrecord
280
     1
290
     1
  0
XRECORD
  5
11C8
102
{ACAD_REACTORS
330
11C7
102
}
330
11C7
100
AcDbXrecord
280
     1
290
     1
  0
XRECORD
  5
11CA
102
{ACAD_REACTORS
330
11C9
102
}
330
11C9
100
AcDbXrecord
280
     1
290
     1
  0
SORTENTSTABLE
  5
15B3
102
{ACAD_REACTORS
330
15B2
102
}
330
15B2
100
AcDbSortentsTable
330
1F
331
13ED
  5
13EE
331
1424
  5
1425
331
154F
  5
1573
331
13E5
  5
13E5
331
13E1
  5
13E1
331
1420
  5
1421
331
1467
  5
1468
331
1463
  5
1464
331
14DD
  5
14DE
331
149E
  5
149F
331
14D9
  5
14DA
331
145F
  5
1460
331
149A
  5
149B
331
1514
  5
1515
331
145B
  5
145C
331
1510
  5
1511
331
14D1
  5
14D2
331
141C
  5
141D
331
1418
  5
1419
331
1414
  5
1415
331
1410
  5
1411
331
153B
  5
153C
331
1457
  5
1458
331
1492
  5
1493
331
1453
  5
1454
331
150C
  5
150D
331
14CD
  5
14CE
331
148E
  5
148F
331
144F
  5
1450
331
14C9
  5
14CA
331
1508
  5
1509
331
148A
  5
148B
331
1504
  5
1505
331
14C5
  5
14C6
331
144B
  5
144C
331
14C1
  5
14C2
331
1537
  5
1538
331
140C
  5
140D
331
1533
  5
1534
331
1408
  5
1409
331
1404
  5
1405
331
152F
  5
1530
331
1400
  5
1401
331
152B
  5
152C
331
1486
  5
1487
331
1447
  5
1448
331
1482
  5
1483
331
1443
  5
1444
331
14BD
  5
14BE
331
147E
  5
147F
331
143F
  5
1440
331
14B9
  5
14BA
331
14F8
  5
14F9
331
147A
  5
147B
331
14F4
  5
14F5
331
14B5
  5
14B6
331
143B
  5
143C
331
14F0
  5
14F1
331
14B1
  5
14B2
331
1527
  5
1528
331
13FC
  5
13FD
331
1523
  5
1524
331
13F8
  5
13F9
331
13F4
  5
13F5
331
151F
  5
1520
331
13F0
  5
13F1
331
151B
  5
151C
331
1437
  5
1438
331
1476
  5
1477
331
1472
  5
1473
331
1433
  5
1434
331
14EC
  5
14ED
331
14AD
  5
14AE
331
146E
  5
146F
331
142F
  5
1430
331
14E8
  5
14E9
331
14A9
  5
14AA
331
142B
  5
142C
331
14A5
  5
14A6
331
14E4
  5
14E5
331
14E0
  5
14E1
331
14A1
  5
14A2
331
13EC
  5
13ED
331
1427
  5
1428
331
13E8
  5
13E8
331
13E4
  5
13E4
331
13E0
  5
13E0
331
1466
  5
1467
331
1462
  5
1463
331
14DC
  5
14DD
331
149D
  5
149E
331
145E
  5
145F
331
14D8
  5
14D9
331
1517
  5
1518
331
145A
  5
145B
331
1513
  5
1514
331
14D4
  5
14D5
331
14D0
  5
14D1
331
141F
  5
1420
331
141B
  5
141C
331
1417
  5
1418
331
1413
  5
1414
331
153A
  5
153B
331
1495
  5
1496
331
1456
  5
1457
331
150F
  5
1510
331
1491
  5
1492
331
1452
  5
1453
331
150B
  5
150C
331
14CC
  5
14CD
331
148D
  5
148E
331
144E
  5
144F
331
14C8
  5
14C9
331
1507
  5
1508
331
1489
  5
148A
331
1503
  5
1504
331
14C4
  5
14C5
331
144A
  5
144B
331
14C0
  5
14C1
331
140F
  5
1410
331
1536
  5
1537
331
1532
  5
1533
331
1407
  5
1408
331
1403
  5
1404
331
152E
  5
152F
331
152A
  5
152B
331
1485
  5
1486
331
1446
  5
1447
331
1481
  5
1482
331
1442
  5
1443
331
14FB
  5
14FC
331
14BC
  5
14BD
331
147D
  5
147E
331
143E
  5
143F
331
14B8
  5
14B9
331
14F7
  5
14F8
331
1479
  5
147A
331
14F3
  5
14F4
331
14B4
  5
14B5
331
143A
  5
143B
331
14B0
  5
14B1
331
13FF
  5
1400
331
1526
  5
1527
331
13FB
  5
13FC
331
13F7
  5
13F8
331
13F3
  5
13F4
331
151E
  5
151F
331
151A
  5
151B
331
1475
  5
1476
331
1436
  5
1437
331
14EF
  5
14F0
331
1471
  5
1472
331
1432
  5
1433
331
14EB
  5
14EC
331
14AC
  5
14AD
331
142E
  5
142F
331
14A8
  5
14A9
331
14E7
  5
14E8
331
14E3
  5
14E4
331
14A4
  5
14A5
331
14A0
  5
14A1
331
13EF
  5
13F0
331
13EB
  5
13EC
331
1426
  5
1427
331
13E7
  5
13E7
331
13E3
  5
13E3
331
1422
  5
1423
331
14DF
  5
14E0
331
1465
  5
1466
331
1461
  5
1462
331
14DB
  5
14DC
331
1516
  5
1517
331
145D
  5
145E
331
1459
  5
145A
331
1512
  5
1513
331
14D3
  5
14D4
331
1498
  5
1499
331
13DF
  5
13DF
331
141E
  5
141F
331
141A
  5
141B
331
1416
  5
1417
331
1412
  5
1413
331
1539
  5
153A
331
1494
  5
1495
331
1455
  5
1456
331
150E
  5
150F
331
14CF
  5
14D0
331
1490
  5
1491
331
1451
  5
1452
331
150A
  5
150B
331
14CB
  5
14CC
331
148C
  5
148D
331
144D
  5
144E
331
14C7
  5
14C8
331
1506
  5
1507
331
1449
  5
144A
331
1502
  5
1503
331
14C3
  5
14C4
331
1488
  5
1489
331
140E
  5
140F
331
1535
  5
1536
331
140A
  5
140B
331
1531
  5
1532
331
1406
  5
1407
331
1402
  5
1403
331
152D
  5
152E
331
1529
  5
152A
331
1484
  5
1485
331
1445
  5
1446
331
14BF
  5
14C0
331
1480
  5
1481
331
1441
  5
1442
331
14FA
  5
14FB
331
14BB
  5
14BC
331
147C
  5
147D
331
143D
  5
143E
331
14B7
  5
14B8
331
14F6
  5
14F7
331
1478
  5
1479
331
14B3
  5
14B4
331
1439
  5
143A
331
13FE
  5
13FF
331
1525
  5
1526
331
13F6
  5
13F7
331
13F2
  5
13F3
331
151D
  5
151E
331
1519
  5
151A
331
1474
  5
1475
331
1435
  5
1436
331
14EE
  5
14EF
331
14AF
  5
14B0
331
1470
  5
1471
331
1431
  5
1432
331
14EA
  5
14EB
331
14AB
  5
14AC
331
142D
  5
142E
331
14A7
  5
14A8
331
14E6
  5
14E7
331
14E2
  5
14E3
331
14A3
  5
14A4
331
13EE
  5
13EF
331
13EA
  5
13EB
331
1425
  5
1426
331
13E6
  5
13E6
331
13E2
  5
13E2
331
1421
  5
1422
331
1464
  5
1465
331
14DE
  5
14DF
331
1460
  5
1461
331
149F
  5
14A0
331
14DA
  5
14DB
331
1515
  5
1516
331
145C
  5
145D
331
1458
  5
1459
331
1511
  5
1512
331
14D2
  5
14D3
331
1597
  5
15B1
331
13DE
  5
13DE
331
141D
  5
141E
331
1419
  5
141A
331
1415
  5
1416
331
1411
  5
1412
331
153C
  5
154F
331
1538
  5
1539
331
1493
  5
1494
331
1454
  5
1455
331
150D
  5
150E
331
14CE
  5
14CF
331
148F
  5
1490
331
1450
  5
1451
331
14CA
  5
14CB
331
1509
  5
150A
331
148B
  5
148C
331
1505
  5
1506
331
14C6
  5
14C7
331
144C
  5
144D
331
1448
  5
1449
331
1501
  5
1502
331
14C2
  5
14C3
331
1534
  5
1535
331
1405
  5
1406
331
1530
  5
1531
331
1573
  5
1597
331
1401
  5
1402
331
152C
  5
152D
331
1528
  5
1529
331
1487
  5
1488
331
1483
  5
1484
331
1444
  5
1445
331
14BE
  5
14BF
331
147F
  5
1480
331
1440
  5
1441
331
14F9
  5
14FA
331
14BA
  5
14BB
331
147B
  5
147C
331
143C
  5
143D
331
14B6
  5
14B7
331
14F5
  5
14F6
331
1438
  5
1439
331
14F1
  5
14F2
331
14B2
  5
14B3
331
13FD
  5
13FE
331
1524
  5
1525
331
13F5
  5
13F6
331
13F1
  5
13F2
331
151C
  5
151D
331
1518
  5
1519
331
1477
  5
1478
331
1434
  5
1435
331
14ED
  5
14EE
331
14AE
  5
14AF
331
146F
  5
1470
331
1430
  5
1431
331
14E9
  5
14EA
331
14AA
  5
14AB
331
142C
  5
142D
331
14A6
  5
14A7
331
14E5
  5
14E6
331
14E1
  5
14E2
331
14A2
  5
14A3
331
1428
  5
1429
  0
SORTENTSTABLE
  5
B47
102
{ACAD_REACTORS
330
B46
102
}
330
B46
100
AcDbSortentsTable
330
1B
331
4A6
  5
4A6
331
4A7
  5
4A7
331
4A8
  5
4A8
331
4A9
  5
4A9
331
2E
  5
2E
331
4BA
  5
4BA
  0
DIMASSOC
  5
1568
102
{ACAD_REACTORS
330
155D
102
}
330
155D
100
AcDbDimAssoc
330
154F
 90
        3
 70
     0
 71
     0
  1
AcDbOsnapPointRef
 72
     1
331
1465
 73
     2
 91
        0
 40
1.0
 10
0.0
 20
0.0
 30
2.000000000000000E+50
 75
     0
  1
AcDbOsnapPointRef
 72
     1
331
14C4
 73
     2
 91
        0
 40
1.0
 10
0.0
 20
0.0
 30
2.000000000000000E+50
 75
     0
  0
DIMASSOC
  5
158C
102
{ACAD_REACTORS
330
1581
102
}
330
1581
100
AcDbDimAssoc
330
1573
 90
        3
 70
     0
 71
     0
  1
AcDbOsnapPointRef
 72
    13
331
1440
 73
     2
 91
        0
 40
0.0
 10
0.0
 20
0.0
 30
2.000000000000000E+50
 75
     0
  1
AcDbOsnapPointRef
 72
    13
331
13E8
 73
     2
 91
        0
 40
0.0
 10
0.0
 20
0.0
 30
2.000000000000000E+50
 75
     0
  0
DIMASSOC
  5
15B0
102
{ACAD_REACTORS
330
15A5
102
}
330
15A5
100
AcDbDimAssoc
330
1597
 90
        3
 70
     0
 71
     0
  1
AcDbOsnapPointRef
 72
     1
331
13F1
 73
     2
 91
        0
 40
1.0
 10
0.0
 20
0.0
 30
2.000000000000000E+50
 75
     0
  1
AcDbOsnapPointRef
 72
     1
331
1401
 73
     2
 91
        0
 40
1.0
 10
0.0
 20
0.0
 30
2.000000000000000E+50
 75
     0
  0
DIMASSOC
  5
15FE
102
{ACAD_REACTORS
330
15F5
102
}
330
15F5
100
AcDbDimAssoc
330
15E9
 90
        2
 70
     0
 71
     0
  1
AcDbOsnapPointRef
 72
     3
331
13E4
 73
     2
 91
        0
 40
0.0
 10
0.0
 20
0.0
 30
0.0
 75
     0
  0
XRECORD
  5
15E0
102
{ACAD_REACTORS
330
15DF
102
}
330
15DF
100
AcDbXrecord
280
     1
 90
        1
340
11A4
  0
ACDBDETAILVIEWSTYLE
  5
1649
102
{ACAD_XDICTIONARY
360
1657
102
}
102
{ACAD_REACTORS
330
1648
102
}
330
1648
100
AcDbModelDocViewStyle
 70
     0
  3
Imperial24
290
     0
100
AcDbDetailViewStyle
 70
     0
 71
     0
 90
        3
 71
     1
340
11
 62
   256
 40
0.24
340
0
 62
   256
 40
0.24
300

 40
0.36
280
     3
 71
     2
340
16
 90
       25
 62
   256
 71
     3
340
11
 62
   256
 40
0.24
 90
        1
 40
0.75
 90
        1
300
%<\AcVar ViewType \f "%tc1">% %<\AcVar ViewDetailId>%\PSCALE %<\AcVar ViewScale \f "%sn">%
 71
     4
340
16
 90
       25
 62
   256
340
16
 90
       25
 62
   256
280
     0
  0
LAYOUT
  5
22
102
{ACAD_XDICTIONARY
360
1544
102
}
102
{ACAD_REACTORS
330
1A
102
}
330
1A
100
AcDbPlotSettings
  1

  2
none_device
  4
none_user_media
  6

 40
7.460000038146972
 41
6.400000095367431
 42
11.27000427246094
 43
6.399993896484375
 44
215.8999938964844
 45
279.3999938964844
 46
0.0
 47
0.0
 48
0.0
 49
0.0
140
0.0
141
0.0
142
1.0
143
1.979912147698159
 70
 11952
 72
     0
 73
     1
 74
     0
  7

 75
     0
147
0.5050729150596895
 76
     0
 77
     2
 78
   300
148
1.821692977681004
149
47.9252139705347
100
AcDbLayout
  1
Model
 70
     1
 71
     0
 10
0.0
 20
0.0
 11
12.0
 21
9.0
 12
0.0
 22
0.0
 32
0.0
 14
0.0
 24
0.0
 34
0.0
 15
0.0
 25
0.0
 35
0.0
146
0.0
 13
0.0
 23
0.0
 33
0.0
 16
1.0
 26
0.0
 36
0.0
 17
0.0
 27
1.0
 37
0.0
 76
     0
330
1F
  0
LAYOUT
  5
1E
102
{ACAD_XDICTIONARY
360
77F
102
}
102
{ACAD_REACTORS
330
1A
102
}
330
1A
100
AcDbPlotSettings
  1
P3-M-L-E
  2
\\tci3050\HP LaserJet 5000N #3
  4
Letter
  6

 40
4.233333110809326
 41
4.233341693878173
 42
8.466659545898437
 43
4.23333740234375
 44
215.8999938964844
 45
279.3999938964844
 46
0.0
 47
0.0
 48
0.0
 49
0.0
140
0.0
141
0.0
142
1.0
143
1.500096043756562
 70
   688
 72
     0
 73
     1
 74
     1
  7
monochrome.ctb
 75
     0
147
0.6666239832856204
 76
     0
 77
     2
 78
   300
148
0.5053152905642421
149
0.669952951918944
100
AcDbLayout
  1
TCI-B
 70
     1
 71
     1
 10
-0.2699182000122087
 20
-0.2769722290964413
 11
16.23115288981076
 21
12.47385534929694
 12
0.0
 22
0.0
 32
0.0
 14
-0.0198943027781198
 24
-0.0263761004692498
 34
-0.0015258207003583
 15
15.98112906941578
 25
9.974120379626974
 35
0.0000000349246037
146
0.0
 13
0.0
 23
0.0
 33
0.0
 16
1.0
 26
0.0
 36
0.0
 17
0.0
 27
1.0
 37
0.0
 76
     0
330
1B
331
2E
  0
MATERIAL
  5
629
102
{ACAD_REACTORS
330
627
102
}
330
627
100
AcDbMaterial
  1
ByBlock
 73
     1
 78
     1
172
     1
176
     1
270
     1
274
     1
 94
       63
  0
MATERIAL
  5
628
102
{ACAD_REACTORS
330
627
102
}
330
627
100
AcDbMaterial
  1
ByLayer
 73
     1
 78
     1
172
     1
176
     1
270
     1
274
     1
 94
       63
  0
MATERIAL
  5
62A
102
{ACAD_REACTORS
330
627
102
}
330
627
100
AcDbMaterial
  1
Global
 73
     1
 78
     1
172
     1
176
     1
270
     1
274
     1
 94
       63
  0
MLEADERSTYLE
  5
11B6
102
{ACAD_REACTORS
330
11B5
102
}
330
11B5
100
AcDbMLeaderStyle
179
     2
170
     2
171
     1
172
     0
 90
        2
 40
0.0
 41
0.0
173
     1
 91
-1056964608
340
14
 92
       -2
290
     1
 42
0.09
291
     1
 43
0.36
  3
Standard
 44
0.18
300

342
11
174
     1
178
     6
175
     1
176
     0
 93
-1056964608
 45
0.18
292
     0
297
     0
 46
0.18
 94
-1056964608
 47
1.0
 49
1.0
140
1.0
293
     1
141
0.0
294
     1
177
     0
142
1.0
295
     0
296
     0
143
0.125
271
     0
272
     9
273
     9
298
     1
  0
MLINESTYLE
  5
18
102
{ACAD_REACTORS
330
17
102
}
330
17
100
AcDbMlineStyle
  2
STANDARD
 70
     0
  3

 62
   256
 51
90.0
 52
90.0
 71
     2
 49
0.5
 62
   256
  6
BYLAYER
 49
-0.5
 62
   256
  6
BYLAYER
  0
PLOTSETTINGS
  5
60E
102
{ACAD_REACTORS
330
19
102
}
330
19
100
AcDbPlotSettings
  1
P3-M-L-E
  2
\\tci3050\HP LaserJet 5000N #3
  4
Letter
  6

 40
4.233333110809326
 41
4.233341693878173
 42
8.466659545898437
 43
4.23333740234375
 44
215.8999938964844
 45
279.3999938964844
 46
0.0
 47
0.0
 48
0.0
 49
0.0
140
0.0
141
0.0
142
1.0
143
1.500096043756562
 70
   688
 72
     0
 73
     1
 74
     1
  7
monochrome.ctb
 75
     0
147
0.6666239832856204
 76
     0
 77
     2
 78
   300
148
0.5053152905642421
149
0.669952951918944
  0
ACDBPLACEHOLDER
  5
F
102
{ACAD_REACTORS
330
E
102
}
330
E
  0
SCALE
  5
11A4
102
{ACAD_REACTORS
330
11A3
102
}
330
11A3
100
AcDbScale
 70
     0
300
1:1
140
1.0
141
1.0
290
     1
  0
SCALE
  5
11A5
102
{ACAD_REACTORS
330
11A3
102
}
330
11A3
100
AcDbScale
 70
     0
300
1/128" = 1'-0"
140
0.0078125
141
12.0
290
     0
  0
SCALE
  5
11A6
102
{ACAD_REACTORS
330
11A3
102
}
330
11A3
100
AcDbScale
 70
     0
300
1/64" = 1'-0"
140
0.015625
141
12.0
290
     0
  0
SCALE
  5
11A7
102
{ACAD_REACTORS
330
11A3
102
}
330
11A3
100
AcDbScale
 70
     0
300
1/32" = 1'-0"
140
0.03125
141
12.0
290
     0
  0
SCALE
  5
11A8
102
{ACAD_REACTORS
330
11A3
102
}
330
11A3
100
AcDbScale
 70
     0
300
1/16" = 1'-0"
140
0.0625
141
12.0
290
     0
  0
SCALE
  5
11A9
102
{ACAD_REACTORS
330
11A3
102
}
330
11A3
100
AcDbScale
 70
     0
300
3/32" = 1'-0"
140
0.09375
141
12.0
290
     0
  0
SCALE
  5
11AA
102
{ACAD_REACTORS
330
11A3
102
}
330
11A3
100
AcDbScale
 70
     0
300
1/8" = 1'-0"
140
0.125
141
12.0
290
     0
  0
SCALE
  5
11AB
102
{ACAD_REACTORS
330
11A3
102
}
330
11A3
100
AcDbScale
 70
     0
300
3/16" = 1'-0"
140
0.1875
141
12.0
290
     0
  0
SCALE
  5
11AC
102
{ACAD_REACTORS
330
11A3
102
}
330
11A3
100
AcDbScale
 70
     0
300
1/4" = 1'-0"
140
0.25
141
12.0
290
     0
  0
SCALE
  5
11AD
102
{ACAD_REACTORS
330
11A3
102
}
330
11A3
100
AcDbScale
 70
     0
300
3/8" = 1'-0"
140
0.375
141
12.0
290
     0
  0
SCALE
  5
11AE
102
{ACAD_REACTORS
330
11A3
102
}
330
11A3
100
AcDbScale
 70
     0
300
1/2" = 1'-0"
140
0.5
141
12.0
290
     0
  0
SCALE
  5
11AF
102
{ACAD_REACTORS
330
11A3
102
}
330
11A3
100
AcDbScale
 70
     0
300
3/4" = 1'-0"
140
0.75
141
12.0
290
     0
  0
SCALE
  5
11B0
102
{ACAD_REACTORS
330
11A3
102
}
330
11A3
100
AcDbScale
 70
     0
300
1" = 1'-0"
140
1.0
141
12.0
290
     0
  0
SCALE
  5
11B1
102
{ACAD_REACTORS
330
11A3
102
}
330
11A3
100
AcDbScale
 70
     0
300
1-1/2" = 1'-0"
140
1.5
141
12.0
290
     0
  0
SCALE
  5
11B2
102
{ACAD_REACTORS
330
11A3
102
}
330
11A3
100
AcDbScale
 70
     0
300
3" = 1'-0"
140
3.0
141
12.0
290
     0
  0
SCALE
  5
11B3
102
{ACAD_REACTORS
330
11A3
102
}
330
11A3
100
AcDbScale
 70
     0
300
6" = 1'-0"
140
6.0
141
12.0
290
     0
  0
SCALE
  5
11B4
102
{ACAD_REACTORS
330
11A3
102
}
330
11A3
100
AcDbScale
 70
     0
300
1'-0" = 1'-0"
140
12.0
141
12.0
290
     0
  0
ACDBSECTIONVIEWSTYLE
  5
1647
102
{ACAD_XDICTIONARY
360
1655
102
}
102
{ACAD_REACTORS
330
1646
102
}
330
1646
100
AcDbModelDocViewStyle
 70
     0
  3
Imperial24
290
     0
100
AcDbSectionViewStyle
 70
     0
 71
     0
 90
       78
 71
     1
340
11
 62
   256
 40
0.24
340
0
340
0
 62
   256
 40
0.24
300
I, O, Q, S, X, Z
 40
0.48
 90
        3
 40
0.18
 90
        1
 71
     2
340
16
 90
       25
 62
   256
340
16
 90
       50
 62
   256
 40
0.24
 40
0.0
 40
0.24
 71
     3
340
11
 62
   256
 40
0.24
 90
        1
 40
0.75
 90
        1
300
%<\AcVar ViewType \f "%tc1">% %<\AcVar ViewSectionStartId>%-%<\AcVar ViewSectionEndId>%\PSCALE %<\AcVar ViewScale \f "%sn">%
 71
     4
 62
   256
 62
   257
300
ANSI31
 40
1.0
 90
        0
290
     0
290
     0
 90
        6
 40
0.0
 40
1.570796326794896
 40
0.2617993877991494
 40
1.308996938995747
 40
-0.2617993877991494
 40
1.832595714594046
  0
TABLESTYLE
  5
63E
102
{ACAD_XDICTIONARY
360
1225
102
}
102
{ACAD_REACTORS
330
63D
102
}
330
63D
100
AcDbTableStyle
280
     0
  3
Standard
 70
     0
 71
     0
 40
0.06
 41
0.06
280
     0
281
     0
  7
Standard
140
0.18
170
     2
 62
     0
 63
     7
283
     0
 90
      512
 91
        0
  1

274
    -2
284
     1
 64
     0
275
    -2
285
     1
 65
     0
276
    -2
286
     1
 66
     0
277
    -2
287
     1
 67
     0
278
    -2
288
     1
 68
     0
279
    -2
289
     1
 69
     0
  7
Standard
140
0.25
170
     5
 62
     0
 63
     7
283
     0
 90
      512
 91
        0
  1

274
    -2
284
     1
 64
     0
275
    -2
285
     1
 65
     0
276
    -2
286
     1
 66
     0
277
    -2
287
     1
 67
     0
278
    -2
288
     1
 68
     0
279
    -2
289
     1
 69
     0
  7
Standard
140
0.18
170
     5
 62
     0
 63
     7
283
     0
 90
      512
 91
        0
  1

274
    -2
284
     1
 64
     0
275
    -2
285
     1
 65
     0
276
    -2
286
     1
 66
     0
277
    -2
287
     1
 67
     0
278
    -2
288
     1
 68
     0
279
    -2
289
     1
 69
     0
  0
VISUALSTYLE
  5
631
102
{ACAD_REACTORS
330
62B
102
}
330
62B
100
AcDbVisualStyle
  2
2dWireframe
 70
     4
177
     3
291
     0
 70
    58
 90
        0
176
     1
 90
        2
176
     1
 90
        0
176
     1
 90
        0
176
     1
 40
0.6
176
     1
 40
30.0
176
     1
 62
     7
420
 16777215
176
     1
 90
        1
176
     1
 90
        4
176
     1
 62
     7
176
     1
 62
   257
176
     1
 90
        1
176
     1
 90
        1
176
     1
 40
1.0
176
     1
 90
        0
176
     1
 62
   257
176
     1
 40
1.0
176
     1
 90
        1
176
     1
 90
        6
176
     1
 90
        2
176
     1
 62
     7
176
     1
 90
        5
176
     1
 90
        0
176
     1
 90
        0
176
     1
290
     0
176
     1
 90
        1
176
     1
 40
0.0
176
     1
 90
        0
176
     1
290
     1
176
     1
290
     1
176
     1
290
     0
176
     1
290
     0
176
     1
290
     0
176
     1
290
     0
176
     1
290
     0
176
     1
290
     0
176
     1
290
     0
176
     1
 90
       50
176
     1
 40
0.0
176
     1
 40
1.0
176
     1
 90
        0
176
     1
 62
    18
420
        0
176
     1
 90
       50
176
     1
 90
        3
176
     1
 62
     5
420
      255
176
     1
290
     0
176
     1
 90
       50
176
     1
 90
       50
176
     1
 90
       50
176
     1
290
     0
176
     1
 90
       50
176
     1
 62
   256
176
     0
 40
1.0
176
     0
 90
        2
176
     1
  1
strokes_ogs.tif
176
     1
290
     0
176
     1
 40
1.0
176
     1
 40
1.0
176
     1
  0
VISUALSTYLE
  5
633
102
{ACAD_REACTORS
330
62B
102
}
330
62B
100
AcDbVisualStyle
  2
3D Hidden
 70
     6
177
     3
291
     0
 70
    58
 90
        1
176
     1
 90
        2
176
     1
 90
        2
176
     1
 90
        0
176
     1
 40
0.6
176
     1
 40
30.0
176
     1
 62
     7
420
 16777215
176
     1
 90
        2
176
     1
 90
        2
176
     1
 62
     7
176
     1
 62
   257
176
     1
 90
        2
176
     1
 90
        1
176
     1
 40
40.0
176
     1
 90
        0
176
     1
 62
   257
176
     1
 40
1.0
176
     1
 90
        1
176
     1
 90
        6
176
     1
 90
        2
176
     1
 62
     7
176
     1
 90
        3
176
     1
 90
        0
176
     1
 90
        0
176
     1
290
     0
176
     1
 90
        1
176
     1
 40
0.0
176
     1
 90
        0
176
     1
290
     0
176
     1
290
     1
176
     1
290
     1
176
     1
290
     0
176
     1
290
     0
176
     1
290
     0
176
     1
290
     0
176
     1
290
     0
176
     1
290
     0
176
     1
 90
       50
176
     1
 40
0.0
176
     1
 40
1.0
176
     1
 90
        0
176
     1
 62
    18
420
        0
176
     1
 90
       50
176
     1
 90
        3
176
     1
 62
     5
420
      255
176
     1
290
     0
176
     1
 90
       50
176
     1
 90
       50
176
     1
 90
       50
176
     1
290
     0
176
     1
 90
       50
176
     1
 62
   256
176
     0
 40
1.0
176
     0
 90
        2
176
     1
  1
strokes_ogs.tif
176
     1
290
     0
176
     1
 40
1.0
176
     1
 40
1.0
176
     1
  0
VISUALSTYLE
  5
632
102
{ACAD_REACTORS
330
62B
102
}
330
62B
100
AcDbVisualStyle
  2
3dWireframe
 70
     5
177
     3
291
     0
 70
    58
 90
        0
176
     1
 90
        2
176
     1
 90
        0
176
     1
 90
        0
176
     1
 40
0.6
176
     1
 40
30.0
176
     1
 62
     7
420
 16777215
176
     1
 90
        1
176
     1
 90
        4
176
     1
 62
     7
176
     1
 62
   257
176
     1
 90
        1
176
     1
 90
        1
176
     1
 40
1.0
176
     1
 90
        0
176
     1
 62
   257
176
     1
 40
1.0
176
     1
 90
        1
176
     1
 90
        6
176
     1
 90
        2
176
     1
 62
     7
176
     1
 90
        5
176
     1
 90
        0
176
     1
 90
        0
176
     1
290
     0
176
     1
 90
        1
176
     1
 40
0.0
176
     1
 90
        0
176
     1
290
     0
176
     1
290
     1
176
     1
290
     1
176
     1
290
     0
176
     1
290
     0
176
     1
290
     0
176
     1
290
     0
176
     1
290
     0
176
     1
290
     0
176
     1
 90
       50
176
     1
 40
0.0
176
     1
 40
1.0
176
     1
 90
        0
176
     1
 62
    18
420
        0
176
     1
 90
       50
176
     1
 90
        3
176
     1
 62
     5
420
      255
176
     1
290
     0
176
     1
 90
       50
176
     1
 90
       50
176
     1
 90
       50
176
     1
290
     0
176
     1
 90
       50
176
     1
 62
   256
176
     0
 40
1.0
176
     0
 90
        2
176
     1
  1
strokes_ogs.tif
176
     1
290
     0
176
     1
 40
1.0
176
     1
 40
1.0
176
     1
  0
VISUALSTYLE
  5
630
102
{ACAD_REACTORS
330
62B
102
}
330
62B
100
AcDbVisualStyle
  2
Basic
 70
     7
177
     3
291
     1
 70
    58
 90
        1
176
     1
 90
        0
176
     1
 90
        1
176
     1
 90
        0
176
     1
 40
0.6
176
     1
 40
30.0
176
     1
 62
     7
420
 16777215
176
     1
 90
        0
176
     1
 90
        4
176
     1
 62
     7
176
     1
 62
   257
176
     1
 90
        1
176
     1
 90
        1
176
     1
 40
1.0
176
     1
 90
        8
176
     1
 62
     7
176
     1
 40
1.0
176
     1
 90
        1
176
     1
 90
        6
176
     1
 90
        2
176
     1
 62
     7
176
     1
 90
        5
176
     1
 90
        0
176
     1
 90
        0
176
     1
290
     0
176
     1
 90
        1
176
     1
 40
0.0
176
     1
 90
        0
176
     1
290
     0
176
     1
290
     1
176
     1
290
     1
176
     1
290
     0
176
     1
290
     0
176
     1
290
     0
176
     1
290
     0
176
     1
290
     0
176
     1
290
     0
176
     1
 90
       50
176
     1
 40
0.0
176
     1
 40
1.0
176
     1
 90
        0
176
     1
 62
    18
420
        0
176
     1
 90
       50
176
     1
 90
        3
176
     1
 62
     5
420
      255
176
     1
290
     0
176
     1
 90
       50
176
     1
 90
       50
176
     1
 90
       50
176
     1
290
     0
176
     1
 90
       50
176
     1
 62
   256
176
     0
 40
1.0
176
     0
 90
        2
176
     1
  1
strokes_ogs.tif
176
     1
290
     0
176
     1
 40
1.0
176
     1
 40
1.0
176
     1
  0
VISUALSTYLE
  5
637
102
{ACAD_REACTORS
330
62B
102
}
330
62B
100
AcDbVisualStyle
  2
Brighten
 70
    12
177
     3
291
     1
 70
    58
 90
        2
176
     1
 90
        2
176
     1
 90
        0
176
     1
 90
        0
176
     1
 40
0.6
176
     1
 40
30.0
176
     1
 62
     7
420
 16777215
176
     1
 90
        1
176
     1
 90
        4
176
     1
 62
     7
176
     1
 62
   257
176
     1
 90
        1
176
     1
 90
        1
176
     1
 40
1.0
176
     1
 90
        8
176
     1
 62
     7
176
     1
 40
1.0
176
     1
 90
        1
176
     1
 90
        6
176
     1
 90
        2
176
     1
 62
     7
176
     1
 90
        5
176
     1
 90
        0
176
     1
 90
        0
176
     1
290
     0
176
     1
 90
        1
176
     1
 40
50.0
176
     1
 90
        0
176
     1
290
     0
176
     1
290
     1
176
     1
290
     1
176
     1
290
     0
176
     1
290
     0
176
     1
290
     0
176
     1
290
     0
176
     1
290
     0
176
     1
290
     0
176
     1
 90
       50
176
     1
 40
0.0
176
     1
 40
1.0
176
     1
 90
        0
176
     1
 62
    18
420
        0
176
     1
 90
       50
176
     1
 90
        3
176
     1
 62
     5
420
      255
176
     1
290
     0
176
     1
 90
       50
176
     1
 90
       50
176
     1
 90
       50
176
     1
290
     0
176
     1
 90
       50
176
     1
 62
   256
176
     0
 40
1.0
176
     0
 90
        2
176
     1
  1
strokes_ogs.tif
176
     1
290
     0
176
     1
 40
1.0
176
     1
 40
1.0
176
     1
  0
VISUALSTYLE
  5
63B
102
{ACAD_REACTORS
330
62B
102
}
330
62B
100
AcDbVisualStyle
  2
ColorChange
 70
    16
177
     3
291
     1
 70
    58
 90
        2
176
     1
 90
        2
176
     1
 90
        3
176
     1
 90
        0
176
     1
 40
0.6
176
     1
 40
30.0
176
     1
 62
     8
420
  8421504
176
     1
 90
        1
176
     1
 90
        4
176
     1
 62
     7
176
     1
 62
   257
176
     1
 90
        1
176
     1
 90
        1
176
     1
 40
1.0
176
     1
 90
        8
176
     1
 62
     8
420
  8421504
176
     1
 40
1.0
176
     1
 90
        1
176
     1
 90
        6
176
     1
 90
        2
176
     1
 62
     7
176
     1
 90
        5
176
     1
 90
        0
176
     1
 90
        0
176
     1
290
     0
176
     1
 90
        1
176
     1
 40
0.0
176
     1
 90
        0
176
     1
290
     0
176
     1
290
     1
176
     1
290
     1
176
     1
290
     0
176
     1
290
     0
176
     1
290
     0
176
     1
290
     0
176
     1
290
     0
176
     1
290
     0
176
     1
 90
       50
176
     1
 40
0.0
176
     1
 40
1.0
176
     1
 90
        0
176
     1
 62
    18
420
        0
176
     1
 90
       50
176
     1
 90
        3
176
     1
 62
     5
420
      255
176
     1
290
     0
176
     1
 90
       50
176
     1
 90
       50
176
     1
 90
       50
176
     1
290
     0
176
     1
 90
       50
176
     1
 62
   256
176
     0
 40
1.0
176
     0
 90
        2
176
     1
  1
strokes_ogs.tif
176
     1
290
     0
176
     1
 40
1.0
176
     1
 40
1.0
176
     1
  0
VISUALSTYLE
  5
634
102
{ACAD_REACTORS
330
62B
102
}
330
62B
100
AcDbVisualStyle
  2
Conceptual
 70
     9
177
     3
291
     0
 70
    58
 90
        3
176
     1
 90
        2
176
     1
 90
        0
176
     1
 90
        0
176
     1
 40
0.6
176
     1
 40
30.0
176
     1
 62
     7
420
 16777215
176
     1
 90
        2
176
     1
 90
        2
176
     1
 62
     7
176
     1
 62
   257
176
     1
 90
        1
176
     1
 90
        1
176
     1
 40
40.0
176
     1
 90
        8
176
     1
 62
     7
176
     1
 40
1.0
176
     1
 90
        1
176
     1
 90
        6
176
     1
 90
        2
176
     1
 62
     7
176
     1
 90
        3
176
     1
 90
        0
176
     1
 90
        0
176
     1
290
     0
176
     1
 90
        1
176
     1
 40
0.0
176
     1
 90
        0
176
     1
290
     0
176
     1
290
     1
176
     1
290
     1
176
     1
290
     0
176
     1
290
     0
176
     1
290
     0
176
     1
290
     0
176
     1
290
     0
176
     1
290
     0
176
     1
 90
       50
176
     1
 40
0.0
176
     1
 40
1.0
176
     1
 90
        0
176
     1
 62
    18
420
        0
176
     1
 90
       50
176
     1
 90
        3
176
     1
 62
     5
420
      255
176
     1
290
     0
176
     1
 90
       50
176
     1
 90
       50
176
     1
 90
       50
176
     1
290
     0
176
     1
 90
       50
176
     1
 62
   256
176
     0
 40
1.0
176
     0
 90
        2
176
     1
  1
strokes_ogs.tif
176
     1
290
     0
176
     1
 40
1.0
176
     1
 40
1.0
176
     1
  0
VISUALSTYLE
  5
636
102
{ACAD_REACTORS
330
62B
102
}
330
62B
100
AcDbVisualStyle
  2
Dim
 70
    11
177
     3
291
     1
 70
    58
 90
        2
176
     1
 90
        2
176
     1
 90
        0
176
     1
 90
        0
176
     1
 40
0.6
176
     1
 40
30.0
176
     1
 62
     7
420
 16777215
176
     1
 90
        1
176
     1
 90
        4
176
     1
 62
     7
176
     1
 62
   257
176
     1
 90
        1
176
     1
 90
        1
176
     1
 40
1.0
176
     1
 90
        8
176
     1
 62
     7
176
     1
 40
1.0
176
     1
 90
        1
176
     1
 90
        6
176
     1
 90
        2
176
     1
 62
     7
176
     1
 90
        5
176
     1
 90
        0
176
     1
 90
        0
176
     1
290
     0
176
     1
 90
        1
176
     1
 40
-50.0
176
     1
 90
        0
176
     1
290
     0
176
     1
290
     1
176
     1
290
     1
176
     1
290
     0
176
     1
290
     0
176
     1
290
     0
176
     1
290
     0
176
     1
290
     0
176
     1
290
     0
176
     1
 90
       50
176
     1
 40
0.0
176
     1
 40
1.0
176
     1
 90
        0
176
     1
 62
    18
420
        0
176
     1
 90
       50
176
     1
 90
        3
176
     1
 62
     5
420
      255
176
     1
290
     0
176
     1
 90
       50
176
     1
 90
       50
176
     1
 90
       50
176
     1
290
     0
176
     1
 90
       50
176
     1
 62
   256
176
     0
 40
1.0
176
     0
 90
        2
176
     1
  1
strokes_ogs.tif
176
     1
290
     0
176
     1
 40
1.0
176
     1
 40
1.0
176
     1
  0
VISUALSTYLE
  5
11A2
102
{ACAD_REACTORS
330
62B
102
}
330
62B
100
AcDbVisualStyle
  2
EdgeColorOff
 70
    22
177
     3
291
     1
 70
    58
 90
        2
176
     0
 90
        2
176
     0
 90
        0
176
     0
 90
        0
176
     0
 40
0.6
176
     0
 40
30.0
176
     0
 62
     7
420
 16777215
176
     0
 90
        1
176
     0
 90
        4
176
     0
 62
     7
176
     0
 62
   257
176
     0
 90
        1
176
     0
 90
        1
176
     0
 40
1.0
176
     0
 90
        8
176
     2
 62
     7
176
     0
 40
1.0
176
     0
 90
        1
176
     0
 90
        6
176
     0
 90
        2
176
     0
 62
     7
176
     0
 90
        5
176
     0
 90
        0
176
     0
 90
        0
176
     0
290
     0
176
     0
 90
        1
176
     0
 40
0.0
176
     0
 90
        0
176
     0
290
     0
176
     0
290
     1
176
     0
290
     1
176
     0
290
     0
176
     0
290
     0
176
     0
290
     0
176
     1
290
     0
176
     1
290
     0
176
     1
290
     0
176
     1
 90
       50
176
     1
 40
0.0
176
     1
 40
1.0
176
     1
 90
        0
176
     1
 62
    18
420
        0
176
     1
 90
       50
176
     1
 90
        3
176
     1
 62
     5
420
      255
176
     1
290
     0
176
     1
 90
       50
176
     1
 90
       50
176
     1
 90
       50
176
     1
290
     0
176
     1
 90
       50
176
     1
 62
   256
176
     0
 40
1.0
176
     0
 90
        2
176
     1
  1
strokes_ogs.tif
176
     1
290
     0
176
     1
 40
1.0
176
     1
 40
1.0
176
     1
  0
VISUALSTYLE
  5
63A
102
{ACAD_REACTORS
330
62B
102
}
330
62B
100
AcDbVisualStyle
  2
Facepattern
 70
    15
177
     3
291
     1
 70
    58
 90
        2
176
     1
 90
        2
176
     1
 90
        0
176
     1
 90
        0
176
     1
 40
0.6
176
     1
 40
30.0
176
     1
 62
     7
420
 16777215
176
     1
 90
        1
176
     1
 90
        4
176
     1
 62
     7
176
     1
 62
   257
176
     1
 90
        1
176
     1
 90
        1
176
     1
 40
1.0
176
     1
 90
        8
176
     1
 62
     7
176
     1
 40
1.0
176
     1
 90
        1
176
     1
 90
        6
176
     1
 90
        2
176
     1
 62
     7
176
     1
 90
        5
176
     1
 90
        0
176
     1
 90
        0
176
     1
290
     0
176
     1
 90
        1
176
     1
 40
0.0
176
     1
 90
        0
176
     1
290
     0
176
     1
290
     1
176
     1
290
     1
176
     1
290
     0
176
     1
290
     0
176
     1
290
     0
176
     1
290
     0
176
     1
290
     0
176
     1
290
     0
176
     1
 90
       50
176
     1
 40
0.0
176
     1
 40
1.0
176
     1
 90
        0
176
     1
 62
    18
420
        0
176
     1
 90
       50
176
     1
 90
        3
176
     1
 62
     5
420
      255
176
     1
290
     0
176
     1
 90
       50
176
     1
 90
       50
176
     1
 90
       50
176
     1
290
     0
176
     1
 90
       50
176
     1
 62
   256
176
     0
 40
1.0
176
     0
 90
        2
176
     1
  1
strokes_ogs.tif
176
     1
290
     0
176
     1
 40
1.0
176
     1
 40
1.0
176
     1
  0
VISUALSTYLE
  5
62C
102
{ACAD_REACTORS
330
62B
102
}
330
62B
100
AcDbVisualStyle
  2
Flat
 70
     0
177
     3
291
     1
 70
    58
 90
        2
176
     1
 90
        1
176
     1
 90
        1
176
     1
 90
        2
176
     1
 40
0.6
176
     1
 40
30.0
176
     1
 62
     7
420
 16777215
176
     1
 90
        0
176
     1
 90
        4
176
     1
 62
     7
176
     1
 62
   257
176
     1
 90
        1
176
     1
 90
        1
176
     1
 40
1.0
176
     1
 90
        8
176
     1
 62
     7
176
     1
 40
1.0
176
     1
 90
        1
176
     1
 90
        6
176
     1
 90
        2
176
     1
 62
     7
176
     1
 90
        5
176
     1
 90
        0
176
     1
 90
        0
176
     1
290
     0
176
     1
 90
       13
176
     1
 40
0.0
176
     1
 90
        0
176
     1
290
     0
176
     1
290
     1
176
     1
290
     1
176
     1
290
     0
176
     1
290
     0
176
     1
290
     0
176
     1
290
     0
176
     1
290
     0
176
     1
290
     0
176
     1
 90
       50
176
     1
 40
0.0
176
     1
 40
1.0
176
     1
 90
        0
176
     1
 62
    18
420
        0
176
     1
 90
       50
176
     1
 90
        3
176
     1
 62
     5
420
      255
176
     1
290
     0
176
     1
 90
       50
176
     1
 90
       50
176
     1
 90
       50
176
     1
290
     0
176
     1
 90
       50
176
     1
 62
   256
176
     0
 40
1.0
176
     0
 90
        2
176
     1
  1
strokes_ogs.tif
176
     1
290
     0
176
     1
 40
1.0
176
     1
 40
1.0
176
     1
  0
VISUALSTYLE
  5
62D
102
{ACAD_REACTORS
330
62B
102
}
330
62B
100
AcDbVisualStyle
  2
FlatWithEdges
 70
     1
177
     3
291
     1
 70
    58
 90
        2
176
     1
 90
        1
176
     1
 90
        1
176
     1
 90
        2
176
     1
 40
0.6
176
     1
 40
30.0
176
     1
 62
     7
420
 16777215
176
     1
 90
        1
176
     1
 90
        4
176
     1
 62
     7
176
     1
 62
   257
176
     1
 90
        1
176
     1
 90
        1
176
     1
 40
1.0
176
     1
 90
        0
176
     1
 62
   257
176
     1
 40
1.0
176
     1
 90
        1
176
     1
 90
        6
176
     1
 90
        2
176
     1
 62
     7
176
     1
 90
        5
176
     1
 90
        0
176
     1
 90
        0
176
     1
290
     0
176
     1
 90
       13
176
     1
 40
0.0
176
     1
 90
        0
176
     1
290
     0
176
     1
290
     1
176
     1
290
     1
176
     1
290
     0
176
     1
290
     0
176
     1
290
     0
176
     1
290
     0
176
     1
290
     0
176
     1
290
     0
176
     1
 90
       50
176
     1
 40
0.0
176
     1
 40
1.0
176
     1
 90
        0
176
     1
 62
    18
420
        0
176
     1
 90
       50
176
     1
 90
        3
176
     1
 62
     5
420
      255
176
     1
290
     0
176
     1
 90
       50
176
     1
 90
       50
176
     1
 90
       50
176
     1
290
     0
176
     1
 90
       50
176
     1
 62
   256
176
     0
 40
1.0
176
     0
 90
        2
176
     1
  1
strokes_ogs.tif
176
     1
290
     0
176
     1
 40
1.0
176
     1
 40
1.0
176
     1
  0
VISUALSTYLE
  5
62E
102
{ACAD_REACTORS
330
62B
102
}
330
62B
100
AcDbVisualStyle
  2
Gouraud
 70
     2
177
     3
291
     1
 70
    58
 90
        2
176
     1
 90
        2
176
     1
 90
        1
176
     1
 90
        2
176
     1
 40
0.6
176
     1
 40
30.0
176
     1
 62
     7
420
 16777215
176
     1
 90
        0
176
     1
 90
        4
176
     1
 62
     7
176
     1
 62
   257
176
     1
 90
        1
176
     1
 90
        1
176
     1
 40
1.0
176
     1
 90
        0
176
     1
 62
     7
176
     1
 40
1.0
176
     1
 90
        1
176
     1
 90
        6
176
     1
 90
        2
176
     1
 62
     7
176
     1
 90
        5
176
     1
 90
        0
176
     1
 90
        0
176
     1
290
     0
176
     1
 90
       13
176
     1
 40
0.0
176
     1
 90
        0
176
     1
290
     0
176
     1
290
     1
176
     1
290
     1
176
     1
290
     0
176
     1
290
     0
176
     1
290
     0
176
     1
290
     0
176
     1
290
     0
176
     1
290
     0
176
     1
 90
       50
176
     1
 40
0.0
176
     1
 40
1.0
176
     1
 90
        0
176
     1
 62
    18
420
        0
176
     1
 90
       50
176
     1
 90
        3
176
     1
 62
     5
420
      255
176
     1
290
     0
176
     1
 90
       50
176
     1
 90
       50
176
     1
 90
       50
176
     1
290
     0
176
     1
 90
       50
176
     1
 62
   256
176
     0
 40
1.0
176
     0
 90
        2
176
     1
  1
strokes_ogs.tif
176
     1
290
     0
176
     1
 40
1.0
176
     1
 40
1.0
176
     1
  0
VISUALSTYLE
  5
62F
102
{ACAD_REACTORS
330
62B
102
}
330
62B
100
AcDbVisualStyle
  2
GouraudWithEdges
 70
     3
177
     3
291
     1
 70
    58
 90
        2
176
     1
 90
        2
176
     1
 90
        1
176
     1
 90
        2
176
     1
 40
0.6
176
     1
 40
30.0
176
     1
 62
     7
420
 16777215
176
     1
 90
        1
176
     1
 90
        4
176
     1
 62
     7
176
     1
 62
   257
176
     1
 90
        1
176
     1
 90
        1
176
     1
 40
1.0
176
     1
 90
        0
176
     1
 62
   257
176
     1
 40
1.0
176
     1
 90
        1
176
     1
 90
        6
176
     1
 90
        2
176
     1
 62
     7
176
     1
 90
        5
176
     1
 90
        0
176
     1
 90
        0
176
     1
290
     0
176
     1
 90
       13
176
     1
 40
0.0
176
     1
 90
        0
176
     1
290
     0
176
     1
290
     1
176
     1
290
     1
176
     1
290
     0
176
     1
290
     0
176
     1
290
     0
176
     1
290
     0
176
     1
290
     0
176
     1
290
     0
176
     1
 90
       50
176
     1
 40
0.0
176
     1
 40
1.0
176
     1
 90
        0
176
     1
 62
    18
420
        0
176
     1
 90
       50
176
     1
 90
        3
176
     1
 62
     5
420
      255
176
     1
290
     0
176
     1
 90
       50
176
     1
 90
       50
176
     1
 90
       50
176
     1
290
     0
176
     1
 90
       50
176
     1
 62
   256
176
     0
 40
1.0
176
     0
 90
        2
176
     1
  1
strokes_ogs.tif
176
     1
290
     0
176
     1
 40
1.0
176
     1
 40
1.0
176
     1
  0
VISUALSTYLE
  5
119A
102
{ACAD_REACTORS
330
62B
102
}
330
62B
100
AcDbVisualStyle
  2
Hidden
 70
     6
177
     3
291
     0
 70
    58
 90
        1
176
     1
 90
        2
176
     1
 90
        2
176
     1
 90
        0
176
     1
 40
0.6
176
     1
 40
30.0
176
     1
 62
     7
420
 16777215
176
     1
 90
        2
176
     1
 90
        2
176
     1
 62
     7
176
     1
 62
   257
176
     1
 90
        2
176
     1
 90
        1
176
     1
 40
40.0
176
     1
 90
        0
176
     1
 62
   257
176
     1
 40
1.0
176
     1
 90
        1
176
     1
 90
        6
176
     1
 90
        2
176
     1
 62
     7
176
     1
 90
        3
176
     1
 90
        0
176
     1
 90
        0
176
     1
290
     0
176
     1
 90
        1
176
     1
 40
0.0
176
     1
 90
        0
176
     1
290
     0
176
     1
290
     1
176
     1
290
     1
176
     1
290
     0
176
     1
290
     0
176
     1
290
     0
176
     1
290
     0
176
     1
290
     0
176
     1
290
     0
176
     1
 90
       50
176
     1
 40
0.0
176
     1
 40
1.0
176
     1
 90
        0
176
     1
 62
    18
420
        0
176
     1
 90
       50
176
     1
 90
        3
176
     1
 62
     5
420
      255
176
     1
290
     0
176
     1
 90
       50
176
     1
 90
       50
176
     1
 90
       50
176
     1
290
     0
176
     1
 90
       50
176
     1
 62
   256
176
     0
 40
1.0
176
     0
 90
        2
176
     1
  1
strokes_ogs.tif
176
     1
290
     0
176
     1
 40
1.0
176
     1
 40
1.0
176
     1
  0
VISUALSTYLE
  5
11A0
102
{ACAD_REACTORS
330
62B
102
}
330
62B
100
AcDbVisualStyle
  2
JitterOff
 70
    20
177
     3
291
     1
 70
    58
 90
        2
176
     0
 90
        2
176
     0
 90
        0
176
     0
 90
        0
176
     0
 40
0.6
176
     0
 40
30.0
176
     0
 62
     7
420
 16777215
176
     0
 90
        1
176
     0
 90
        4
176
     0
 62
     7
176
     0
 62
   257
176
     0
 90
        1
176
     0
 90
        1
176
     0
 40
1.0
176
     0
 90
       10
176
     2
 62
     7
176
     0
 40
1.0
176
     0
 90
        1
176
     0
 90
        6
176
     0
 90
        2
176
     0
 62
     7
176
     0
 90
        5
176
     0
 90
        0
176
     0
 90
        0
176
     0
290
     0
176
     0
 90
        1
176
     0
 40
0.0
176
     0
 90
        0
176
     0
290
     0
176
     0
290
     1
176
     0
290
     1
176
     0
290
     0
176
     0
290
     0
176
     0
290
     0
176
     1
290
     0
176
     1
290
     0
176
     1
290
     0
176
     1
 90
       50
176
     1
 40
0.0
176
     1
 40
1.0
176
     1
 90
        0
176
     1
 62
    18
420
        0
176
     1
 90
       50
176
     1
 90
        3
176
     1
 62
     5
420
      255
176
     1
290
     0
176
     1
 90
       50
176
     1
 90
       50
176
     1
 90
       50
176
     1
290
     0
176
     1
 90
       50
176
     1
 62
   256
176
     0
 40
1.0
176
     0
 90
        2
176
     1
  1
strokes_ogs.tif
176
     1
290
     0
176
     1
 40
1.0
176
     1
 40
1.0
176
     1
  0
VISUALSTYLE
  5
639
102
{ACAD_REACTORS
330
62B
102
}
330
62B
100
AcDbVisualStyle
  2
Linepattern
 70
    14
177
     3
291
     1
 70
    58
 90
        2
176
     1
 90
        2
176
     1
 90
        0
176
     1
 90
        0
176
     1
 40
0.6
176
     1
 40
30.0
176
     1
 62
     7
420
 16777215
176
     1
 90
        1
176
     1
 90
        4
176
     1
 62
     7
176
     1
 62
   257
176
     1
 90
        7
176
     1
 90
        7
176
     1
 40
1.0
176
     1
 90
        8
176
     1
 62
     7
176
     1
 40
1.0
176
     1
 90
        1
176
     1
 90
        6
176
     1
 90
        2
176
     1
 62
     7
176
     1
 90
        5
176
     1
 90
        0
176
     1
 90
        0
176
     1
290
     0
176
     1
 90
        1
176
     1
 40
0.0
176
     1
 90
        0
176
     1
290
     0
176
     1
290
     1
176
     1
290
     1
176
     1
290
     0
176
     1
290
     0
176
     1
290
     0
176
     1
290
     0
176
     1
290
     0
176
     1
290
     0
176
     1
 90
       50
176
     1
 40
0.0
176
     1
 40
1.0
176
     1
 90
        0
176
     1
 62
    18
420
        0
176
     1
 90
       50
176
     1
 90
        3
176
     1
 62
     5
420
      255
176
     1
290
     0
176
     1
 90
       50
176
     1
 90
       50
176
     1
 90
       50
176
     1
290
     0
176
     1
 90
       50
176
     1
 62
   256
176
     0
 40
1.0
176
     0
 90
        2
176
     1
  1
strokes_ogs.tif
176
     1
290
     0
176
     1
 40
1.0
176
     1
 40
1.0
176
     1
  0
VISUALSTYLE
  5
11A1
102
{ACAD_REACTORS
330
62B
102
}
330
62B
100
AcDbVisualStyle
  2
OverhangOff
 70
    21
177
     3
291
     1
 70
    58
 90
        2
176
     0
 90
        2
176
     0
 90
        0
176
     0
 90
        0
176
     0
 40
0.6
176
     0
 40
30.0
176
     0
 62
     7
420
 16777215
176
     0
 90
        1
176
     0
 90
        4
176
     0
 62
     7
176
     0
 62
   257
176
     0
 90
        1
176
     0
 90
        1
176
     0
 40
1.0
176
     0
 90
        9
176
     2
 62
     7
176
     0
 40
1.0
176
     0
 90
        1
176
     0
 90
        6
176
     0
 90
        2
176
     0
 62
     7
176
     0
 90
        5
176
     0
 90
        0
176
     0
 90
        0
176
     0
290
     0
176
     0
 90
        1
176
     0
 40
0.0
176
     0
 90
        0
176
     0
290
     0
176
     0
290
     1
176
     0
290
     1
176
     0
290
     0
176
     0
290
     0
176
     0
290
     0
176
     1
290
     0
176
     1
290
     0
176
     1
290
     0
176
     1
 90
       50
176
     1
 40
0.0
176
     1
 40
1.0
176
     1
 90
        0
176
     1
 62
    18
420
        0
176
     1
 90
       50
176
     1
 90
        3
176
     1
 62
     5
420
      255
176
     1
290
     0
176
     1
 90
       50
176
     1
 90
       50
176
     1
 90
       50
176
     1
290
     0
176
     1
 90
       50
176
     1
 62
   256
176
     0
 40
1.0
176
     0
 90
        2
176
     1
  1
strokes_ogs.tif
176
     1
290
     0
176
     1
 40
1.0
176
     1
 40
1.0
176
     1
  0
VISUALSTYLE
  5
635
102
{ACAD_REACTORS
330
62B
102
}
330
62B
100
AcDbVisualStyle
  2
Realistic
 70
     8
177
     3
291
     0
 70
    58
 90
        2
176
     1
 90
        2
176
     1
 90
        0
176
     1
 90
        0
176
     1
 40
0.6
176
     1
 40
30.0
176
     1
 62
     7
420
 16777215
176
     1
 90
        1
176
     1
 90
        0
176
     1
 62
     7
176
     1
 62
   257
176
     1
 90
        1
176
     1
 90
        1
176
     1
 40
1.0
176
     1
 90
        8
176
     1
 62
     8
420
  7895160
176
     1
 40
1.0
176
     1
 90
        1
176
     1
 90
        6
176
     1
 90
        2
176
     1
 62
     7
176
     1
 90
        5
176
     1
 90
        0
176
     1
 90
        0
176
     1
290
     0
176
     1
 90
       13
176
     1
 40
0.0
176
     1
 90
        0
176
     1
290
     0
176
     1
290
     1
176
     1
290
     1
176
     1
290
     0
176
     1
290
     0
176
     1
290
     0
176
     1
290
     0
176
     1
290
     0
176
     1
290
     0
176
     1
 90
       50
176
     1
 40
0.0
176
     1
 40
1.0
176
     1
 90
        0
176
     1
 62
    18
420
        0
176
     1
 90
       50
176
     1
 90
        3
176
     1
 62
     5
420
      255
176
     1
290
     0
176
     1
 90
       50
176
     1
 90
       50
176
     1
 90
       50
176
     1
290
     0
176
     1
 90
       50
176
     1
 62
   256
176
     0
 40
1.0
176
     0
 90
        2
176
     1
  1
strokes_ogs.tif
176
     1
290
     0
176
     1
 40
1.0
176
     1
 40
1.0
176
     1
  0
VISUALSTYLE
  5
119F
102
{ACAD_REACTORS
330
62B
102
}
330
62B
100
AcDbVisualStyle
  2
Shaded
 70
    27
177
     3
291
     0
 70
    58
 90
        2
176
     1
 90
        2
176
     1
 90
        1
176
     1
 90
        2
176
     1
 40
0.6
176
     1
 40
30.0
176
     1
 62
     7
420
 16777215
176
     1
 90
        0
176
     1
 90
        4
176
     1
 62
     7
176
     1
 62
   257
176
     1
 90
        1
176
     1
 90
        1
176
     1
 40
1.0
176
     1
 90
        8
176
     1
 62
   257
176
     1
 40
1.0
176
     1
 90
        1
176
     1
 90
        6
176
     1
 90
        2
176
     1
 62
     8
420
  7895160
176
     1
 90
        3
176
     1
 90
        0
176
     1
 90
        0
176
     1
290
     0
176
     1
 90
        5
176
     1
 40
0.0
176
     1
 90
        0
176
     1
290
     0
176
     1
290
     1
176
     1
290
     1
176
     1
290
     0
176
     1
290
     0
176
     1
290
     0
176
     1
290
     0
176
     1
290
     0
176
     1
290
     0
176
     1
 90
       50
176
     1
 40
0.0
176
     1
 40
1.0
176
     1
 90
        0
176
     1
 62
    18
420
        0
176
     1
 90
       50
176
     1
 90
        3
176
     1
 62
     5
420
      255
176
     1
290
     0
176
     1
 90
       50
176
     1
 90
       50
176
     1
 90
       50
176
     1
290
     0
176
     1
 90
       50
176
     1
 62
   256
176
     0
 40
1.0
176
     0
 90
        2
176
     1
  1
strokes_ogs.tif
176
     1
290
     0
176
     1
 40
1.0
176
     1
 40
1.0
176
     1
  0
VISUALSTYLE
  5
119E
102
{ACAD_REACTORS
330
62B
102
}
330
62B
100
AcDbVisualStyle
  2
Shaded with edges
 70
    26
177
     3
291
     0
 70
    58
 90
        2
176
     1
 90
        2
176
     1
 90
        1
176
     1
 90
        2
176
     1
 40
0.6
176
     1
 40
30.0
176
     1
 62
     7
420
 16777215
176
     1
 90
        1
176
     1
 90
       10
176
     1
 62
     7
176
     1
 62
   257
176
     1
 90
        2
176
     1
 90
        1
176
     1
 40
1.0
176
     1
 90
        8
176
     1
 62
   257
176
     1
 40
1.0
176
     1
 90
        1
176
     1
 90
        6
176
     1
 90
        2
176
     1
 62
     7
176
     1
 90
        3
176
     1
 90
        0
176
     1
 90
        0
176
     1
290
     0
176
     1
 90
        5
176
     1
 40
0.0
176
     1
 90
        0
176
     1
290
     0
176
     1
290
     1
176
     1
290
     1
176
     1
290
     0
176
     1
290
     0
176
     1
290
     0
176
     1
290
     0
176
     1
290
     0
176
     1
290
     0
176
     1
 90
       50
176
     1
 40
0.0
176
     1
 40
1.0
176
     1
 90
        0
176
     1
 62
    18
420
        0
176
     1
 90
       50
176
     1
 90
        3
176
     1
 62
     5
420
      255
176
     1
290
     0
176
     1
 90
       50
176
     1
 90
       50
176
     1
 90
       50
176
     1
290
     0
176
     1
 90
       50
176
     1
 62
   256
176
     0
 40
1.0
176
     0
 90
        2
176
     1
  1
strokes_ogs.tif
176
     1
290
     0
176
     1
 40
1.0
176
     1
 40
1.0
176
     1
  0
VISUALSTYLE
  5
119B
102
{ACAD_REACTORS
330
62B
102
}
330
62B
100
AcDbVisualStyle
  2
Shades of Gray
 70
    23
177
     3
291
     0
 70
    58
 90
        2
176
     1
 90
        2
176
     1
 90
        3
176
     1
 90
        0
176
     1
 40
0.6
176
     1
 40
30.0
176
     1
 62
     7
420
 16777215
176
     1
 90
        2
176
     1
 90
        2
176
     1
 62
     7
176
     1
 62
     7
176
     1
 90
        1
176
     1
 90
        1
176
     1
 40
40.0
176
     1
 90
        8
176
     1
 62
     7
176
     1
 40
1.0
176
     1
 90
        1
176
     1
 90
        6
176
     1
 90
        2
176
     1
 62
     7
176
     1
 90
        3
176
     1
 90
        0
176
     1
 90
        0
176
     1
290
     0
176
     1
 90
        1
176
     1
 40
0.0
176
     1
 90
        0
176
     1
290
     0
176
     1
290
     1
176
     1
290
     1
176
     1
290
     0
176
     1
290
     0
176
     1
290
     0
176
     1
290
     0
176
     1
290
     0
176
     1
290
     0
176
     1
 90
       50
176
     1
 40
0.0
176
     1
 40
1.0
176
     1
 90
        0
176
     1
 62
    18
420
        0
176
     1
 90
       50
176
     1
 90
        3
176
     1
 62
     5
420
      255
176
     1
290
     0
176
     1
 90
       50
176
     1
 90
       50
176
     1
 90
       50
176
     1
290
     0
176
     1
 90
       50
176
     1
 62
   256
176
     0
 40
1.0
176
     0
 90
        2
176
     1
  1
strokes_ogs.tif
176
     1
290
     0
176
     1
 40
1.0
176
     1
 40
1.0
176
     1
  0
VISUALSTYLE
  5
119C
102
{ACAD_REACTORS
330
62B
102
}
330
62B
100
AcDbVisualStyle
  2
Sketchy
 70
    24
177
     3
291
     0
 70
    58
 90
        1
176
     1
 90
        2
176
     1
 90
        2
176
     1
 90
        0
176
     1
 40
0.6
176
     1
 40
30.0
176
     1
 62
     7
420
 16777215
176
     1
 90
        2
176
     1
 90
        2
176
     1
 62
     7
176
     1
 62
     7
176
     1
 90
        1
176
     1
 90
        1
176
     1
 40
40.0
176
     1
 90
       11
176
     1
 62
     7
176
     1
 40
1.0
176
     1
 90
        1
176
     1
 90
        6
176
     1
 90
        2
176
     1
 62
     7
176
     1
 90
        6
176
     1
 90
        0
176
     1
 90
        0
176
     1
290
     0
176
     1
 90
        1
176
     1
 40
0.0
176
     1
 90
        0
176
     1
290
     0
176
     1
290
     1
176
     1
290
     1
176
     1
290
     0
176
     1
290
     0
176
     1
290
     0
176
     1
290
     0
176
     1
290
     0
176
     1
290
     0
176
     1
 90
       50
176
     1
 40
0.0
176
     1
 40
1.0
176
     1
 90
        0
176
     1
 62
    18
420
        0
176
     1
 90
       50
176
     1
 90
        3
176
     1
 62
     5
420
      255
176
     1
290
     0
176
     1
 90
       50
176
     1
 90
       50
176
     1
 90
       50
176
     1
290
     0
176
     1
 90
       50
176
     1
 62
   256
176
     0
 40
1.0
176
     0
 90
        2
176
     1
  1
strokes_ogs.tif
176
     1
290
     0
176
     1
 40
1.0
176
     1
 40
1.0
176
     1
  0
VISUALSTYLE
  5
638
102
{ACAD_REACTORS
330
62B
102
}
330
62B
100
AcDbVisualStyle
  2
Thicken
 70
    13
177
     3
291
     1
 70
    58
 90
        2
176
     1
 90
        2
176
     1
 90
        0
176
     1
 90
        0
176
     1
 40
0.6
176
     1
 40
30.0
176
     1
 62
     7
420
 16777215
176
     1
 90
        1
176
     1
 90
        4
176
     1
 62
     7
176
     1
 62
   257
176
     1
 90
        1
176
     1
 90
        1
176
     1
 40
1.0
176
     1
 90
       12
176
     1
 62
     7
176
     1
 40
1.0
176
     1
 90
        1
176
     1
 90
        6
176
     1
 90
        2
176
     1
 62
     7
176
     1
 90
        5
176
     1
 90
        0
176
     1
 90
        0
176
     1
290
     0
176
     1
 90
        1
176
     1
 40
0.0
176
     1
 90
        0
176
     1
290
     0
176
     1
290
     1
176
     1
290
     1
176
     1
290
     0
176
     1
290
     0
176
     1
290
     0
176
     1
290
     0
176
     1
290
     0
176
     1
290
     0
176
     1
 90
       50
176
     1
 40
0.0
176
     1
 40
1.0
176
     1
 90
        0
176
     1
 62
    18
420
        0
176
     1
 90
       50
176
     1
 90
        3
176
     1
 62
     5
420
      255
176
     1
290
     0
176
     1
 90
       50
176
     1
 90
       50
176
     1
 90
       50
176
     1
290
     0
176
     1
 90
       50
176
     1
 62
   256
176
     0
 40
1.0
176
     0
 90
        2
176
     1
  1
strokes_ogs.tif
176
     1
290
     0
176
     1
 40
1.0
176
     1
 40
1.0
176
     1
  0
VISUALSTYLE
  5
1199
102
{ACAD_REACTORS
330
62B
102
}
330
62B
100
AcDbVisualStyle
  2
Wireframe
 70
     5
177
     3
291
     0
 70
    58
 90
        0
176
     1
 90
        2
176
     1
 90
        0
176
     1
 90
        0
176
     1
 40
0.6
176
     1
 40
30.0
176
     1
 62
     7
420
 16777215
176
     1
 90
        1
176
     1
 90
        4
176
     1
 62
     7
176
     1
 62
   257
176
     1
 90
        1
176
     1
 90
        1
176
     1
 40
1.0
176
     1
 90
        0
176
     1
 62
   257
176
     1
 40
1.0
176
     1
 90
        1
176
     1
 90
        6
176
     1
 90
        2
176
     1
 62
     7
176
     1
 90
        3
176
     1
 90
        0
176
     1
 90
        0
176
     1
290
     0
176
     1
 90
        1
176
     1
 40
0.0
176
     1
 90
        0
176
     1
290
     0
176
     1
290
     1
176
     1
290
     1
176
     1
290
     0
176
     1
290
     0
176
     1
290
     0
176
     1
290
     0
176
     1
290
     0
176
     1
290
     0
176
     1
 90
       50
176
     1
 40
0.0
176
     1
 40
1.0
176
     1
 90
        0
176
     1
 62
    18
420
        0
176
     1
 90
       50
176
     1
 90
        3
176
     1
 62
     5
420
      255
176
     1
290
     0
176
     1
 90
       50
176
     1
 90
       50
176
     1
 90
       50
176
     1
290
     0
176
     1
 90
       50
176
     1
 62
   256
176
     0
 40
1.0
176
     0
 90
        2
176
     1
  1
strokes_ogs.tif
176
     1
290
     0
176
     1
 40
1.0
176
     1
 40
1.0
176
     1
  0
VISUALSTYLE
  5
119D
102
{ACAD_REACTORS
330
62B
102
}
330
62B
100
AcDbVisualStyle
  2
X-Ray
 70
    25
177
     3
291
     0
 70
    58
 90
        2
176
     1
 90
        2
176
     1
 90
        1
176
     1
 90
        1
176
     1
 40
0.5
176
     1
 40
30.0
176
     1
 62
     7
420
 16777215
176
     1
 90
        1
176
     1
 90
        0
176
     1
 62
     7
176
     1
 62
   257
176
     1
 90
        1
176
     1
 90
        1
176
     1
 40
1.0
176
     1
 90
        8
176
     1
 62
     7
176
     1
 40
1.0
176
     1
 90
        1
176
     1
 90
        6
176
     1
 90
        2
176
     1
 62
     7
176
     1
 90
        3
176
     1
 90
        0
176
     1
 90
        0
176
     1
290
     0
176
     1
 90
       13
176
     1
 40
0.0
176
     1
 90
        0
176
     1
290
     0
176
     1
290
     1
176
     1
290
     1
176
     1
290
     0
176
     1
290
     0
176
     1
290
     0
176
     1
290
     0
176
     1
290
     0
176
     1
290
     0
176
     1
 90
       50
176
     1
 40
0.0
176
     1
 40
1.0
176
     1
 90
        0
176
     1
 62
    18
420
        0
176
     1
 90
       50
176
     1
 90
        3
176
     1
 62
     5
420
      255
176
     1
290
     0
176
     1
 90
       50
176
     1
 90
       50
176
     1
 90
       50
176
     1
290
     0
176
     1
 90
       50
176
     1
 62
   256
176
     0
 40
1.0
176
     0
 90
        2
176
     1
  1
strokes_ogs.tif
176
     1
290
     0
176
     1
 40
1.0
176
     1
 40
1.0
176
     1
  0
DICTIONARYVAR
  5
1261
102
{ACAD_REACTORS
330
261
102
}
330
261
100
DictionaryVariables
280
     0
  1
1:1
  0
DICTIONARYVAR
  5
125F
102
{ACAD_REACTORS
330
261
102
}
330
261
100
DictionaryVariables
280
     0
  1
STANDARD
  0
DICTIONARYVAR
  5
642
102
{ACAD_REACTORS
330
261
102
}
330
261
100
DictionaryVariables
280
     0
  1
STANDARD
  0
DICTIONARYVAR
  5
1652
102
{ACAD_REACTORS
330
261
102
}
330
261
100
DictionaryVariables
280
     0
  1
Imperial24
  0
DICTIONARYVAR
  5
1653
102
{ACAD_REACTORS
330
261
102
}
330
261
100
DictionaryVariables
280
     0
  1
Imperial24
  0
DICTIONARYVAR
  5
263
102
{ACAD_REACTORS
330
261
102
}
330
261
100
DictionaryVariables
280
     0
  1
2
  0
DICTIONARYVAR
  5
262
102
{ACAD_REACTORS
330
261
102
}
330
261
100
DictionaryVariables
280
     0
  1
1
  0
DICTIONARYVAR
  5
1263
102
{ACAD_REACTORS
330
261
102
}
330
261
100
DictionaryVariables
280
     0
  1
1
  0
DICTIONARYVAR
  5
1264
102
{ACAD_REACTORS
330
261
102
}
330
261
100
DictionaryVariables
280
     0
  1
15
  0
DICTIONARYVAR
  5
1262
102
{ACAD_REACTORS
330
261
102
}
330
261
100
DictionaryVariables
280
     0
  1
0
  0
DICTIONARYVAR
  5
1260
102
{ACAD_REACTORS
330
261
102
}
330
261
100
DictionaryVariables
280
     0
  1
0
  0
DICTIONARY
  5
1657
330
1649
100
AcDbDictionary
280
     1
281
     1
  3
ACAD_XREC_ROUNDTRIP
360
1658
  0
DICTIONARY
  5
1544
330
22
100
AcDbDictionary
280
     1
281
     1
  0
DICTIONARY
  5
77F
330
1E
100
AcDbDictionary
280
     1
281
     1
  0
DICTIONARY
  5
1655
330
1647
100
AcDbDictionary
280
     1
281
     1
  3
ACAD_XREC_ROUNDTRIP
360
1656
  0
DICTIONARY
  5
1225
330
63E
100
AcDbDictionary
280
     1
281
     1
  3
ACAD_ROUNDTRIP_2008_TABLESTYLE_CELLSTYLEMAP
360
1654
  0
XRECORD
  5
1658
102
{ACAD_REACTORS
330
1657
102
}
330
1657
100
AcDbXrecord
280
     1
102
DISPLAYNAME
  1
Imperial24
102
FLAGS
 90
        0
  0
XRECORD
  5
1656
102
{ACAD_REACTORS
330
1655
102
}
330
1655
100
AcDbXrecord
280
     1
102
DISPLAYNAME
  1
Imperial24
102
FLAGS
 90
        0
  0
CELLSTYLEMAP
  5
1654
102
{ACAD_REACTORS
330
1225
102
}
330
1225
100
AcDbCellStyleMap
 90
        3
300
CELLSTYLE
  1
TABLEFORMAT_BEGIN
 90
        5
170
     1
 91
        0
 92
    32768
 62
   257
 93
        1
300
CONTENTFORMAT
  1
CONTENTFORMAT_BEGIN
 90
        0
 91
        0
 92
      512
 93
        0
300

 40
0.0
140
1.0
 94
        5
 62
     0
340
11
144
0.25
309
CONTENTFORMAT_END
171
     0
 94
        6
 95
        1
302
GRIDFORMAT
  1
GRIDFORMAT_BEGIN
 90
        0
 91
        1
 62
     0
 92
       -2
340
0
 93
        0
 40
0.045
309
GRIDFORMAT_END
 95
        2
302
GRIDFORMAT
  1
GRIDFORMAT_BEGIN
 90
        0
 91
        1
 62
     0
 92
       -2
340
0
 93
        0
 40
0.045
309
GRIDFORMAT_END
 95
        4
302
GRIDFORMAT
  1
GRIDFORMAT_BEGIN
 90
        0
 91
        1
 62
     0
 92
       -2
340
0
 93
        0
 40
0.045
309
GRIDFORMAT_END
 95
        8
302
GRIDFORMAT
  1
GRIDFORMAT_BEGIN
 90
        0
 91
        1
 62
     0
 92
       -2
340
0
 93
        0
 40
0.045
309
GRIDFORMAT_END
 95
       16
302
GRIDFORMAT
  1
GRIDFORMAT_BEGIN
 90
        0
 91
        1
 62
     0
 92
       -2
340
0
 93
        0
 40
0.045
309
GRIDFORMAT_END
 95
       32
302
GRIDFORMAT
  1
GRIDFORMAT_BEGIN
 90
        0
 91
        1
 62
     0
 92
       -2
340
0
 93
        0
 40
0.045
309
GRIDFORMAT_END
309
TABLEFORMAT_END
  1
CELLSTYLE_BEGIN
 90
        1
 91
        1
300
_TITLE
309
CELLSTYLE_END
300
CELLSTYLE
  1
TABLEFORMAT_BEGIN
 90
        5
170
     1
 91
        0
 92
        0
 62
   257
 93
        1
300
CONTENTFORMAT
  1
CONTENTFORMAT_BEGIN
 90
        0
 91
        0
 92
      512
 93
        0
300

 40
0.0
140
1.0
 94
        5
 62
     0
340
11
144
0.18
309
CONTENTFORMAT_END
171
     0
 94
        6
 95
        1
302
GRIDFORMAT
  1
GRIDFORMAT_BEGIN
 90
        0
 91
        1
 62
     0
 92
       -2
340
0
 93
        0
 40
0.045
309
GRIDFORMAT_END
 95
        2
302
GRIDFORMAT
  1
GRIDFORMAT_BEGIN
 90
        0
 91
        1
 62
     0
 92
       -2
340
0
 93
        0
 40
0.045
309
GRIDFORMAT_END
 95
        4
302
GRIDFORMAT
  1
GRIDFORMAT_BEGIN
 90
        0
 91
        1
 62
     0
 92
       -2
340
0
 93
        0
 40
0.045
309
GRIDFORMAT_END
 95
        8
302
GRIDFORMAT
  1
GRIDFORMAT_BEGIN
 90
        0
 91
        1
 62
     0
 92
       -2
340
0
 93
        0
 40
0.045
309
GRIDFORMAT_END
 95
       16
302
GRIDFORMAT
  1
GRIDFORMAT_BEGIN
 90
        0
 91
        1
 62
     0
 92
       -2
340
0
 93
        0
 40
0.045
309
GRIDFORMAT_END
 95
       32
302
GRIDFORMAT
  1
GRIDFORMAT_BEGIN
 90
        0
 91
        1
 62
     0
 92
       -2
340
0
 93
        0
 40
0.045
309
GRIDFORMAT_END
309
TABLEFORMAT_END
  1
CELLSTYLE_BEGIN
 90
        2
 91
        1
300
_HEADER
309
CELLSTYLE_END
300
CELLSTYLE
  1
TABLEFORMAT_BEGIN
 90
        5
170
     1
 91
        0
 92
        0
 62
   257
 93
        1
300
CONTENTFORMAT
  1
CONTENTFORMAT_BEGIN
 90
        0
 91
        0
 92
      512
 93
        0
300

 40
0.0
140
1.0
 94
        2
 62
     0
340
11
144
0.18
309
CONTENTFORMAT_END
171
     0
 94
        6
 95
        1
302
GRIDFORMAT
  1
GRIDFORMAT_BEGIN
 90
        0
 91
        1
 62
     0
 92
       -2
340
0
 93
        0
 40
0.045
309
GRIDFORMAT_END
 95
        2
302
GRIDFORMAT
  1
GRIDFORMAT_BEGIN
 90
        0
 91
        1
 62
     0
 92
       -2
340
0
 93
        0
 40
0.045
309
GRIDFORMAT_END
 95
        4
302
GRIDFORMAT
  1
GRIDFORMAT_BEGIN
 90
        0
 91
        1
 62
     0
 92
       -2
340
0
 93
        0
 40
0.045
309
GRIDFORMAT_END
 95
        8
302
GRIDFORMAT
  1
GRIDFORMAT_BEGIN
 90
        0
 91
        1
 62
     0
 92
       -2
340
0
 93
        0
 40
0.045
309
GRIDFORMAT_END
 95
       16
302
GRIDFORMAT
  1
GRIDFORMAT_BEGIN
 90
        0
 91
        1
 62
     0
 92
       -2
340
0
 93
        0
 40
0.045
309
GRIDFORMAT_END
 95
       32
302
GRIDFORMAT
  1
GRIDFORMAT_BEGIN
 90
        0
 91
        1
 62
     0
 92
       -2
340
0
 93
        0
 40
0.045
309
GRIDFORMAT_END
309
TABLEFORMAT_END
  1
CELLSTYLE_BEGIN
 90
        3
 91
        2
300
_DATA
309
CELLSTYLE_END
  0
ENDSEC
  0
SECTION
  2
ACDSDATA
 70
     2
 71
     6
  0
ACDSSCHEMA
 90
        0
  1
AcDb_Thumbnail_Schema
  2
AcDbDs::ID
280
    10
 91
        8
  2
Thumbnail_Data
280
    15
 91
        0
101
ACDSRECORD
 95
        0
 90
        1
  2
AcDbDs::TreatedAsObjectData
280
     1
291
     1
101
ACDSRECORD
 95
        0
 90
        2
  2
AcDbDs::Legacy
280
     1
291
     1
101
ACDSRECORD
  1
AcDbDs::ID
 90
        3
  2
AcDs:Indexable
280
     1
291
     1
101
ACDSRECORD
  1
AcDbDs::ID
 90
        4
  2
AcDbDs::HandleAttribute
280
     7
282
     1
  0
ACDSSCHEMA
 90
        1
  1
AcDbDs::TreatedAsObjectDataSchema
  2
AcDbDs::TreatedAsObjectData
280
     1
 91
        0
  0
ACDSSCHEMA
 90
        2
  1
AcDbDs::LegacySchema
  2
AcDbDs::Legacy
280
     1
 91
        0
  0
ACDSSCHEMA
 90
        3
  1
AcDbDs::IndexedPropertySchema
  2
AcDs:Indexable
280
     1
 91
        0
  0
ACDSSCHEMA
 90
        4
  1
AcDbDs::HandleAttributeSchema
  2
AcDbDs::HandleAttribute
280
     7
 91
        1
284
     1
  0
ACDSRECORD
 90
        0
  2
AcDbDs::ID
280
    10
320
22
  2
Thumbnail_Data
280
    15
 94
     1177
310
89504E470D0A1A0A0000000D49484452000001000000007408030000005D681C3700000300504C5445FFFFFF000000C8C8C80000000000000000000000000000000000000000000000000000330000660000990000CC0000FF0033000033330033660033990033CC0033FF0066000066330066660066990066CC0066FF0099
310
000099330099660099990099CC0099FF00CC0000CC3300CC6600CC9900CCCC00CCFF00FF0000FF3300FF6600FF9900FFCC00FFFF3300003300333300663300993300CC3300FF3333003333333333663333993333CC3333FF3366003366333366663366993366CC3366FF3399003399333399663399993399CC3399FF33CC00
310
33CC3333CC6633CC9933CCCC33CCFF33FF0033FF3333FF6633FF9933FFCC33FFFF6600006600336600666600996600CC6600FF6633006633336633666633996633CC6633FF6666006666336666666666996666CC6666FF6699006699336699666699996699CC6699FF66CC0066CC3366CC6666CC9966CCCC66CCFF66FF0066
310
FF3366FF6666FF9966FFCC66FFFF9900009900339900669900999900CC9900FF9933009933339933669933999933CC9933FF9966009966339966669966999966CC9966FF9999009999339999669999999999CC9999FF99CC0099CC3399CC6699CC9999CCCC99CCFF99FF0099FF3399FF6699FF9999FFCC99FFFFCC0000CC00
310
33CC0066CC0099CC00CCCC00FFCC3300CC3333CC3366CC3399CC33CCCC33FFCC6600CC6633CC6666CC6699CC66CCCC66FFCC9900CC9933CC9966CC9999CC99CCCC99FFCCCC00CCCC33CCCC66CCCC99CCCCCCCCCCFFCCFF00CCFF33CCFF66CCFF99CCFFCCCCFFFFFF0000FF0033FF0066FF0099FF00CCFF00FFFF3300FF3333
310
FF3366FF3399FF33CCFF33FFFF6600FF6633FF6666FF6699FF66CCFF66FFFF9900FF9933FF9966FF9999FF99CCFF99FFFFCC00FFCC33FFCC66FFCC99FFCCCCFFCCFFFFFF00FFFF33FFFF66FFFF99FFFFCCFFFFFF0000000D0D0D1A1A1A2828283535354343435050505D5D5D6B6B6B787878868686939393A1A1A1AEAEAEBB
310
BBBBC9C9C9D6D6D6E4E4E4F1F1F1FFFFFF000000000000000000000000000000000000000000000000000000000000B0E2D235000001544944415478DAEDDADB6DC3300C05508DA031BCFF489CA4709DD86E63296851A03079CE4F1E4680E88296A844AD010000000000007F6FF9E5B52CFA6A722936A92B6018C05E0191BD
310
084601B42A01F4ADDC77EBD8CF7746549806D610DA39896215B007B03F08A0DA1C701ABD00CA06D0AB0670AD4E00E51B2101946F85ABCF01F34628FB7E58007B1FD0354202D009EA04354202D009EA04FD2658B40FF0A3A84EB066008365A054004708CF7FC7DAF1D778F6DD30000040415FF7792F1BBFFCDBC0784305D40A
310
E0A79705200001DC7F15980EBFFA3258A30262B40C3EAEE5EE08DEDF0271D11E540BA0F424184D00A50348BF0C084023343E26360CE0384376F5EC5E7AF4E121A91ED147C39FB85B003109A08D03385E9CDEFE7CBC6700576784625001AD2FCF61BFDE024B5FD204B0DE1EE92B60FBEA6F4E89659E0366239A7F20C92AF0AD
310
8EC7EFA4563E0000000080FFF50188A6EE09AC0AFE870000000049454E44AE426082
  0
ACDSRECORD
 90
        0
  2
AcDbDs::ID
280
    10
320
1E
  2
Thumbnail_Data
280
    15
 94
     1872
310
89504E470D0A1A0A0000000D4948445200000100000000C508030000008CFEDCE700000300504C5445FFFFFF000000C8C8C80000000000000000000000000000000000000000000000000000330000660000990000CC0000FF0033000033330033660033990033CC0033FF0066000066330066660066990066CC0066FF0099
310
000099330099660099990099CC0099FF00CC0000CC3300CC6600CC9900CCCC00CCFF00FF0000FF3300FF6600FF9900FFCC00FFFF3300003300333300663300993300CC3300FF3333003333333333663333993333CC3333FF3366003366333366663366993366CC3366FF3399003399333399663399993399CC3399FF33CC00
310
33CC3333CC6633CC9933CCCC33CCFF33FF0033FF3333FF6633FF9933FFCC33FFFF6600006600336600666600996600CC6600FF6633006633336633666633996633CC6633FF6666006666336666666666996666CC6666FF6699006699336699666699996699CC6699FF66CC0066CC3366CC6666CC9966CCCC66CCFF66FF0066
310
FF3366FF6666FF9966FFCC66FFFF9900009900339900669900999900CC9900FF9933009933339933669933999933CC9933FF9966009966339966669966999966CC9966FF9999009999339999669999999999CC9999FF99CC0099CC3399CC6699CC9999CCCC99CCFF99FF0099FF3399FF6699FF9999FFCC99FFFFCC0000CC00
310
33CC0066CC0099CC00CCCC00FFCC3300CC3333CC3366CC3399CC33CCCC33FFCC6600CC6633CC6666CC6699CC66CCCC66FFCC9900CC9933CC9966CC9999CC99CCCC99FFCCCC00CCCC33CCCC66CCCC99CCCCCCCCCCFFCCFF00CCFF33CCFF66CCFF99CCFFCCCCFFFFFF0000FF0033FF0066FF0099FF00CCFF00FFFF3300FF3333
310
FF3366FF3399FF33CCFF33FFFF6600FF6633FF6666FF6699FF66CCFF66FFFF9900FF9933FF9966FF9999FF99CCFF99FFFFCC00FFCC33FFCC66FFCC99FFCCCCFFCCFFFFFF00FFFF33FFFF66FFFF99FFFFCCFFFFFF0000000D0D0D1A1A1A2828283535354343435050505D5D5D6B6B6B787878868686939393A1A1A1AEAEAEBB
310
BBBBC9C9C9D6D6D6E4E4E4F1F1F1FFFFFF000000000000000000000000000000000000000000000000000000000000B0E2D2350000040B4944415478DAED9D5B72C3200C45B50496E11FEF7F3FACA44DB0791848709C1690CF9D74923224530E92100A76451042082184104208218410420821841042082184104208E9D67A
310
4F45003EA1B6FC69F7FF98F62B008CD3B9DE36D10D0184EE767A0B7036DD0EE0E002D602607E00720E4022152E000017DC3610C787D95E6C1150AF05B8E1D51FCFC1AB0620FB582B862000000000D403780CFF3074D7223702F0F2010000004075269867805B1A28DA33C13DCBCF26DD2F05EAF7026C870100000050112A24
310
025484A808D5B7C31ABE1902C025007273005484D80E03000000A022444588DD200000000000A858054C5D77AA089533202A429C10010000D80D020000003800B03703208A01EC759F24013E5684E41E15A1084C5A11B225690030B700000000000000000000000000000000000000000000000000000000000068D447557D
310
AB1FC0EBEF3C5401F84837708197D74359620000000000000000000000800A00F6AFDF313C8042CA5BCDF99F8DFA009CDC09D918C863DBA0D005EA9BA1F08E670FAD001ADE61A3DDF46D01DC791518271202A00B8081964200F40030522E04800E00864A863B00186B330000B6C3970134DF40E11480FC860B2D2D7D00B4DE
310
4061DB27B60D7F1B6034D6D05E69E909A0E9EAF133008E2F8CBC7FD1018031D698F6CBE7DDB5836DE67F5E1D00987316609E4B80697480B61870709A7F0760DD885A01FC1A4C1380C7CF72186F3ECD49431F007659ECD27EF5F8C303963600E61740D23537F4A4E117D7B274B68086CBE76DA30598C28D8786B400B3196AAB
310
0564763D790C0806FBD1FD03E65F05FE0A80EF9B5B783EE53D13A1286485FB256477D5ACDE40E1BD17E481215B2CAEE6C25FBA818231954937C500DEF8B1C5FCF865972E0064FF47026F9C644C7D0BC0CBB9F8C6AE0D00430398581D01E8F8EFF3D7D8AF1FCFD29AF07B3647BFF9A7B12DE01A00A90248A6373C8B8312779C
310
1A4066C815FB0E234F0DC4519B3706483298D57FA2A413BFB71500ACEBD42E50086561E892D885C49C2214B24E0F206D8EE73EA6221207C5C83EE68E01798F1A802C2ACA2041F04BCBF7C5CF9AD905A4348F1365821701ECB12D345B7F4031FAFAC11D48F44753AC1E0061954B01440758B7216F4754DD0BAB6A2FE0827A00
310
E0CFE3DA306C6700FE60EA81C0C499A064E94C34EF6EB8DE1B360685B3B90A12A1DC02ECE60E121D5B0ECD6A3643798F60FD3E0CFA03E9BE59693D200EF8E9F9FC6393A65520A4310717B092AC873A5D600F8317FFF6A9EB01B303B85E0F90B81270B79A6005665C1D93520D25361C650591DD31FCEE38AD93A66FD2B10C36
310
7F565207918100145A0AFBFD557CC45FF71ACF6115387873EEDDB512F9680064AD0058330071E53FF3F33A80B83234A2059C01B04A70FEB848900D25FE92648F940500F794208410FA0144EDEA743AC5ADC00000000049454E44AE426082
  0
ENDSEC
  0
EOF
